osu file format v14

[General]
AudioFilename: audio.mp3
AudioLeadIn: 0
PreviewTime: 73276
Countdown: 0
SampleSet: Normal
StackLeniency: 0.4
Mode: 0
LetterboxInBreaks: 0
WidescreenStoryboard: 1

[Editor]
Bookmarks: 28276,50864,73452,96040,118629,141217,163805,186393,197688,220276,231570,276746
DistanceSpacing: 3
BeatDivisor: 4
GridSize: 16
TimelineZoom: 1.5

[Metadata]
Title:MIC Drop (Steve Aoki Remix)
TitleUnicode:MIC Drop (Steve Aoki Remix)
Artist:BTS
ArtistUnicode:방탄소년단
Creator:Min Suga
Version:Hard
Source:
Tags:MV Video 방탄소년단 防彈少年團 Bangtan Boys Sonyeondan Bangtansonyeondan Bulletproof Boyscouts Boy Scouts Beyond the Scene LY LYS Love Yourself Yourself: Yourself:Answer 結 'Answer' Answer 김남준 金南俊 Kim Nam-joon Namjoon RM Rap Monster Rapmonster 김석진 Seok-jin Seokjin 진 Jin 민윤기 Min Yoon-gi Yoongi 슈가 Suga Agust D 정호석 鄭號錫 Jung Hoseok Ho-seok 제이홉 J-Hope J Hope 박지민 朴智旻 Park Ji-min Jimin 김태형 金泰亨 Tae-hyung Taehyung 뷔 V 전정국 田柾國 Jeon Jung-kook Jungkook Jeong-guk Jeongguk Steven Hiroyuki K-Pop kpop k pop rap hip hop hip-hop Korean Big Hit Bighit Entertainment
BeatmapID:1831273
BeatmapSetID:876225

[Difficulty]
HPDrainRate:4
CircleSize:3
OverallDifficulty:5
ApproachRate:8
SliderMultiplier:1.7
SliderTickRate:1

[Events]
//Background and Video events
Video,-185,"ezgif.com-video-cutter (1).mp4"
0,0,"bts-mic-drop-remix-with-steve-aoki-and-desiigner-certified-gold-by-riaa-2100x1200.png",0,0
//Break Periods
//Storyboard Layer 0 (Background)
//Storyboard Layer 1 (Fail)
//Storyboard Layer 2 (Pass)
//Storyboard Layer 3 (Foreground)
//Storyboard Sound Samples

[TimingPoints]
41,352.941176470588,4,1,0,100,1,0
27570,-133.333333333333,4,2,0,100,0,0
28276,-133.333333333333,4,2,0,100,0,0
39570,-83.3333333333333,4,1,0,100,0,0
48040,-66.6666666666667,4,1,0,100,0,0
49629,-66.6666666666667,4,1,0,20,0,0
49805,-66.6666666666667,4,1,0,100,0,0
49982,-66.6666666666667,4,1,0,20,0,0
50158,-100,4,1,0,50,0,0
50864,-83.3333333333333,4,1,0,100,0,0
55099,-100,4,1,0,100,0,0
55805,-66.6666666666667,4,1,0,100,0,0
61805,-133.333333333333,4,1,0,100,0,0
62158,-66.6666666666667,4,1,0,100,0,0
65688,-50,4,1,0,100,0,0
66040,-66.6666666666667,4,1,0,100,0,0
72040,-250,4,2,0,100,0,0
73452,-66.6666666666667,4,3,0,100,0,1
74511,-50,4,3,0,100,0,1
74864,-66.6666666666667,4,3,0,100,0,1
75923,-50,4,3,0,100,0,1
76276,-66.6666666666667,4,3,0,100,0,1
80158,-45.4545454545455,4,3,0,100,0,1
80511,-66.6666666666667,4,3,0,100,0,1
81570,-50,4,3,0,100,0,1
81923,-66.6666666666667,4,3,0,100,0,1
83688,-50,4,3,0,100,0,1
84393,-66.6666666666667,4,3,0,100,0,1
95335,-100,4,3,0,100,0,0
96040,-66.6666666666667,4,3,0,100,0,1
118629,-100,4,3,0,100,0,0
141217,-66.6666666666667,4,3,0,100,0,1
163099,-100,4,1,0,100,0,0
163805,-66.6666666666667,4,1,0,100,0,1
186393,-100,4,1,0,100,0,0

[HitObjects]
217,135,27570,6,0,L|252:108,8,31.8750012159348
160,237,28629,6,0,P|216:248|286:211,1,127.500004863739
208,144,29158,1,0,0:0:0:0:
160,237,29335,1,0,0:0:0:0:
203,323,29511,1,0,0:0:0:0:
278,219,29688,6,0,P|314:211|361:216,1,63.7500024318696
427,225,30040,2,0,P|423:183|393:145,1,63.7500024318696
325,105,30393,2,0,L|196:99,1,127.500004863739
138,187,30923,1,0,0:0:0:0:
121,299,31099,6,0,P|197:292|239:252,2,127.500004863739
149,200,31982,1,0,0:0:0:0:
179,102,32158,2,0,P|103:109|61:149,1,127.500004863739
283,162,32688,5,0,0:0:0:0:
210,228,32864,1,0,0:0:0:0:
304,259,33040,1,0,0:0:0:0:
283,162,33217,2,0,B|218:145|185:170|130:161,1,127.500004863739
105,237,33746,1,0,0:0:0:0:
176,317,33923,6,0,P|209:266|291:242,1,127.500004863739
360,178,34452,5,0,0:0:0:0:
480,150,34629,1,0,0:0:0:0:
399,243,34805,1,0,0:0:0:0:
410,120,34982,1,0,0:0:0:0:
473,226,35158,1,0,0:0:0:0:
360,178,35335,6,0,L|284:157,1,63.7500024318696
330,258,35688,2,0,L|254:237,1,63.7500024318696
165,227,36040,1,0,0:0:0:0:
118,211,36393,5,0,0:0:0:0:
175,115,36570,1,0,0:0:0:0:
200,213,36746,2,0,B|251:250|303:267|341:267,1,127.500004863739
331,147,37276,1,0,0:0:0:0:
421,117,37452,2,0,P|385:73|356:58,2,63.7500024318696
240,179,38158,6,0,B|232:217|209:177|178:210|178:210|119:226,1,127.500004863739
50,122,38688,2,0,P|96:145|119:145,1,63.7500024318696
172,82,39040,1,2,0:0:0:0:
278,111,39217,1,2,0:0:0:0:
384,140,39393,1,2,0:0:0:0:
305,217,39570,5,6,0:0:0:0:
226,294,39923,2,0,P|159:254|183:120,2,203.999993774414,0|8|0,0:0|0:0|0:0,0:0:0:0:
350,138,40982,5,6,2:0:0:0:
162,138,41335,5,6,2:0:0:0:
350,138,41688,6,0,P|255:107|153:142,2,203.999993774414,8|0|0,0:0|0:0|0:0,0:0:0:0:
209,245,42746,1,0,0:0:0:0:
232,125,42923,1,0,0:0:0:0:
325,205,43099,2,0,B|231:274|165:140|124:193,1,203.999993774414,8|0,0:0|0:0,0:0:0:0:
250,56,43805,5,8,2:0:0:0:
325,205,44158,1,8,2:0:0:0:
133,219,44511,2,0,B|152:142|227:112|253:52,2,203.999993774414,8|0|0,0:0|0:0|0:0,0:0:0:0:
230,301,45393,6,0,B|317:250|326:193|326:193|324:185|414:193,1,203.999993774414
319,83,45923,1,8,0:0:0:0:
394,165,46099,1,0,0:0:0:0:
330,78,46276,2,0,P|253:118|322:202,1,203.999993774414
413,232,46805,2,0,P|342:300|227:286,1,203.999993774414
152,202,47335,5,8,0:0:0:0:
277,170,47511,1,0,0:0:0:0:
295,288,47688,1,0,0:0:0:0:
170,252,47864,1,0,0:0:0:0:
263,162,48040,1,0,0:0:0:0:
234,283,48217,6,0,P|308:278|376:114,1,255.000009727478
262,163,48746,1,8,0:0:0:0:
234,273,48923,1,0,0:0:0:0:
160,176,49099,1,0,0:0:0:0:
160,176,49452,6,0,P|262:113|366:184,1,255.000009727478
164,172,50158,2,8,L|164:202,4,21.25,8|8|8|8|8,3:0|3:0|3:0|3:0|3:0,3:0:0:0:
364,200,50511,2,8,L|364:170,4,21.25,8|8|8|8|8,3:0|3:0|3:0|3:0|3:0,3:0:0:0:
164,172,50864,6,0,B|221:139|314:164|369:139,1,203.999993774414
264,287,51570,1,8,0:0:0:0:
143,307,51746,2,0,P|185:192|349:200,1,305.999990661621
393,77,52629,5,0,0:0:0:0:
111,101,52982,1,8,0:0:0:0:
96,128,53158,2,0,P|70:201|147:297,1,203.999993774414
167,197,53688,5,0,0:0:0:0:
323,230,53864,1,0,0:0:0:0:
197,132,54040,1,0,0:0:0:0:
268,276,54217,1,0,0:0:0:0:
266,116,54393,1,8,0:0:0:0:
198,260,54570,1,0,0:0:0:0:
322,159,54746,1,0,0:0:0:0:
167,197,54923,1,0,0:0:0:0:
323,230,55099,2,0,P|323:127|289:69,2,170,0|0|8,0:0|0:0|0:0,0:0:0:0:
166,225,55982,5,0,0:0:0:0:
94,164,56158,1,0,0:0:0:0:
101,72,56335,1,0,0:0:0:0:
196,70,56511,6,0,P|262:70|346:90,1,127.500004863739
409,154,56864,1,0,0:0:0:0:
367,245,57040,2,0,P|283:284|212:268,2,127.500004863739,0|8|0,0:0|0:0|0:0,0:0:0:0:
401,138,57570,1,0,0:0:0:0:
325,59,57746,1,0,0:0:0:0:
224,54,57923,6,0,P|168:88|107:150,1,127.500004863739
87,238,58276,1,0,0:0:0:0:
171,293,58452,2,0,P|262:281|314:230,2,127.500004863739,0|8|0,0:0|0:0|0:0,0:0:0:0:
86,220,58982,1,0,0:0:0:0:
108,113,59158,1,0,0:0:0:0:
189,185,59335,5,0,0:0:0:0:
270,257,59511,1,0,0:0:0:0:
298,115,59688,1,0,0:0:0:0:
171,175,59864,5,0,0:0:0:0:
307,288,60040,1,8,0:0:0:0:
331,116,60217,1,0,0:0:0:0:
126,182,60393,5,0,0:0:0:0:
280,317,60570,1,0,0:0:0:0:
297,138,60746,2,0,P|215:150|170:201,2,127.500004863739
269,238,61276,2,0,P|300:301|359:340,2,127.500004863739,0|8|0,0:0|0:0|0:0,0:0:0:0:
259,152,61805,2,0,L|306:152,3,42.5000016212464
202,277,62335,5,0,0:0:0:0:
114,172,62511,2,0,P|236:145|330:230,2,255.000009727478,0|8|0,0:0|0:0|0:0,0:0:0:0:
72,285,63393,1,0,0:0:0:0:
215,324,63570,6,0,P|270:171|340:103,1,255.000009727478
340,307,64099,2,0,P|262:324|187:319,2,127.500004863739,0|8|0,0:0|0:0|0:0,0:0:0:0:
338,183,64629,5,0,0:0:0:0:
135,121,64805,1,0,0:0:0:0:
143,234,64982,5,0,0:0:0:0:
232,102,65158,1,0,0:0:0:0:
143,234,65335,5,0,0:0:0:0:
143,234,65688,2,0,B|236:202|236:202|340:243|374:163|497:210,1,340,8|0,0:0|0:0,0:0:0:0:
427,88,66217,1,0,0:0:0:0:
305,69,66393,6,0,B|179:99|179:99|221:151|210:241,1,255.000009727478
346,265,66923,1,0,0:0:0:0:
422,143,67099,1,8,0:0:0:0:
305,69,67276,1,0,0:0:0:0:
265,194,67452,5,0,0:0:0:0:
427,62,67629,1,0,0:0:0:0:
471,245,67805,2,0,B|435:298|435:298|372:312,1,127.500004863739,2|0,0:0|0:0,0:0:0:0:
362,125,68158,5,2,0:0:0:0:
373,311,68335,1,0,0:0:0:0:
264,191,68511,2,0,B|300:138|300:138|363:124,1,127.500004863739,10|0,0:0|0:0,0:0:0:0:
454,140,68864,2,0,P|472:215|470:284,1,127.500004863739,2|0,0:0|0:0,0:0:0:0:
303,264,69217,5,2,0:0:0:0:
231,173,69393,1,0,0:0:0:0:
376,182,69570,5,2,0:0:0:0:
275,275,69746,1,0,0:0:0:0:
231,173,69923,5,10,0:0:0:0:
348,86,70099,1,0,0:0:0:0:
359,219,70276,5,2,0:0:0:0:
236,158,70452,1,0,0:0:0:0:
353,69,70629,6,0,P|376:127|371:215,1,127.500004863739,2|2,0:0|0:0,0:0:0:0:
236,158,70982,2,0,P|233:218|285:307,1,127.500004863739,2|2,0:0|0:0,0:0:0:0:
355,313,71335,5,10,0:0:0:0:
378,316,71423,1,2,0:0:0:0:
402,314,71511,1,2,0:0:0:0:
425,307,71599,1,2,0:0:0:0:
445,295,71687,5,2,0:0:0:0:
463,279,71776,1,2,0:0:0:0:
475,259,71864,1,2,0:0:0:0:
484,236,71952,1,2,0:0:0:0:
489,210,72040,6,0,P|483:165|432:71,1,153
