osu file format v14

[General]
AudioFilename: audio.mp3
AudioLeadIn: 0
PreviewTime: 73276
Countdown: 0
SampleSet: None
StackLeniency: 0.4
Mode: 0
LetterboxInBreaks: 0
WidescreenStoryboard: 1

[Editor]
Bookmarks: 28276,50864,73452,96040,118629,141217,163805,186393,197688,220276,231570,276746
DistanceSpacing: 3
BeatDivisor: 4
GridSize: 16
TimelineZoom: 1.5

[Metadata]
Title:MIC Drop (Steve Aoki Remix)
TitleUnicode:MIC Drop (Steve Aoki Remix)
Artist:BTS
ArtistUnicode:방탄소년단
Creator:Min Suga
Version:Easy
Source:
Tags:MV Video 방탄소년단 防彈少年團 Bangtan Boys Sonyeondan Bangtansonyeondan Bulletproof Boyscouts Boy Scouts Beyond the Scene LY LYS Love Yourself Yourself: Yourself:Answer 結 'Answer' Answer 김남준 金南俊 Kim Nam-joon Namjoon RM Rap Monster Rapmonster 김석진 Seok-jin Seokjin 진 Jin 민윤기 Min Yoon-gi Yoongi 슈가 Suga Agust D 정호석 鄭號錫 Jung Hoseok Ho-seok 제이홉 J-Hope J Hope 박지민 朴智旻 Park Ji-min Jimin 김태형 金泰亨 Tae-hyung Taehyung 뷔 V 전정국 田柾國 Jeon Jung-kook Jungkook Jeong-guk Jeongguk Steven Hiroyuki K-Pop kpop k pop rap hip hop hip-hop Korean Big Hit Bighit Entertainment
BeatmapID:1831272
BeatmapSetID:876225

[Difficulty]
HPDrainRate:1.5
CircleSize:2.5
OverallDifficulty:2
ApproachRate:1.5
SliderMultiplier:0.799999999999999
SliderTickRate:1

[Events]
//Background and Video events
Video,-185,"ezgif.com-video-cutter (1).mp4"
0,0,"bts-mic-drop-remix-with-steve-aoki-and-desiigner-certified-gold-by-riaa-2100x1200.png",0,0
//Break Periods
2,50711,69009
//Storyboard Layer 0 (Background)
//Storyboard Layer 1 (Fail)
//Storyboard Layer 2 (Pass)
//Storyboard Layer 3 (Foreground)
//Storyboard Sound Samples

[TimingPoints]
41,352.941176470588,4,1,0,100,1,0
28276,-133.333333333333,4,2,0,100,0,0
39570,-83.3333333333333,4,1,0,100,0,0
48040,-66.6666666666667,4,1,0,100,0,0
49629,-66.6666666666667,4,1,0,20,0,0
49805,-66.6666666666667,4,1,0,100,0,0
49982,-66.6666666666667,4,1,0,20,0,0
50158,-100,4,1,0,100,0,0
50864,-66.6666666666667,4,1,0,100,0,0
55099,-100,4,1,0,100,0,0
55805,-66.6666666666667,4,1,0,100,0,0
65688,-50,4,1,0,100,0,0
66040,-66.6666666666667,4,1,0,100,0,0
72040,-250,4,2,0,100,0,0
73452,-66.6666666666667,4,3,0,100,0,1
74511,-50,4,3,0,100,0,1
74864,-66.6666666666667,4,3,0,100,0,1
75923,-50,4,3,0,100,0,1
76276,-66.6666666666667,4,3,0,100,0,1
80158,-45.4545454545455,4,3,0,100,0,1
80511,-66.6666666666667,4,3,0,100,0,1
81570,-50,4,3,0,100,0,1
81923,-66.6666666666667,4,3,0,100,0,1
83688,-50,4,3,0,100,0,1
84393,-66.6666666666667,4,3,0,100,0,1
95335,-100,4,3,0,100,0,0
96040,-66.6666666666667,4,3,0,100,0,1
118629,-100,4,3,0,100,0,0
141217,-66.6666666666667,4,3,0,100,0,1
163099,-100,4,1,0,100,0,0
163805,-66.6666666666667,4,1,0,100,0,1
186393,-100,4,1,0,100,0,0

[HitObjects]
256,192,25452,12,0,28276,0:0:0:0:
151,223,29688,6,0,P|196:149|233:136,1,120.000004577637
243,227,31099,1,0,0:0:0:0:
295,149,31805,1,0,0:0:0:0:
335,239,32511,6,0,P|290:313|241:318,2,120.000004577637
216,137,34629,5,0,0:0:0:0:
127,144,34982,1,0,0:0:0:0:
38,151,35335,2,0,L|47:239,2,60.0000022888184
201,109,36746,5,0,0:0:0:0:
179,193,37099,2,0,P|157:204|121:203,1,60.0000022888184
101,117,37805,1,0,0:0:0:0:
256,192,38158,12,0,39570,0:0:0:0:
191,130,39923,5,0,0:0:0:0:
253,65,40276,1,0,0:0:0:0:
318,127,40629,1,0,0:0:0:0:
256,192,40982,6,0,L|256:304,1,95.9999970703125
165,312,41688,1,0,0:0:0:0:
81,262,42040,1,0,0:0:0:0:
47,169,42393,2,0,L|148:164,2,95.9999970703125
120,269,43452,1,0,0:0:0:0:
196,187,43805,5,0,0:0:0:0:
294,213,44158,1,0,0:0:0:0:
222,284,44511,2,0,L|122:261,1,95.9999970703125
135,161,45217,6,0,P|148:108|171:70,1,95.9999970703125
257,152,45923,2,0,P|299:133|355:131,2,95.9999970703125
165,170,46982,1,0,0:0:0:0:
139,259,47335,2,0,B|186:280|226:262|240:277,2,95.9999970703125
68,193,48393,1,0,0:0:0:0:
137,119,48746,2,0,P|200:73|246:60,1,120.000004577637
313,102,49452,5,0,0:0:0:0:
359,174,49805,1,0,0:0:0:0:
273,177,50158,1,0,0:0:0:0:
187,180,50511,1,0,0:0:0:0:
256,192,70629,12,0,72040,0:0:0:0:
105,129,73452,6,0,B|168:109|190:75|239:58,2,120.000004577637
202,212,74511,1,0,0:0:0:0:
134,302,74864,6,0,P|198:329|282:288,2,120.000004577637
202,212,75923,1,0,0:0:0:0:
111,140,76276,6,0,P|165:104|234:102,1,120.000004577637
328,113,76982,2,0,B|380:122|380:122|392:151|420:184,1,120.000004577637
340,212,77688,1,0,0:0:0:0:
264,245,78040,1,0,0:0:0:0:
188,278,78393,1,0,0:0:0:0:
112,240,78746,1,0,0:0:0:0:
183,201,79099,6,0,P|243:152|316:156,1,120.000004577637
353,189,79805,1,0,0:0:0:0:
422,230,80158,1,0,0:0:0:0:
351,269,80511,6,0,P|291:318|218:314,1,120.000004577637
181,281,81217,1,0,0:0:0:0:
112,240,81570,1,0,0:0:0:0:
