osu file format v14

[General]
AudioFilename: audio.mp3
AudioLeadIn: 0
PreviewTime: 49843
Countdown: 0
SampleSet: Soft
StackLeniency: 0.7
Mode: 0
LetterboxInBreaks: 0
WidescreenStoryboard: 1

[Editor]
Bookmarks: 151843,174580,194791
DistanceSpacing: 1.6
BeatDivisor: 4
GridSize: 8
TimelineZoom: 1

[Metadata]
Title:Just One Day
TitleUnicode:하루만
Artist:BTS
ArtistUnicode:방탄소년단
Creator:Lilyanna
Version:One Day
Source:
Tags:BigHit Entertainment 로엔 엔터테인먼트 LOEN Skool Luv Affair 2nd mini 랩몬스터 Rap Monster 진 Jin 슈가 Suga 제이홉 J-Hope 지민 Jimin 뷔 V 정국 Jungkook K-pop Kpop Beyond The Scene
BeatmapID:1329017
BeatmapSetID:629526

[Difficulty]
HPDrainRate:6
CircleSize:4
OverallDifficulty:6
ApproachRate:7.5
SliderMultiplier:2
SliderTickRate:1

[Events]
//Background and Video events
Video,0,"Two Days (ezek is such a meme).mp4"
0,0,"aasasasasfiretruckishot.jpg",0,0
//Break Periods
2,174780,191439
//Storyboard Layer 0 (Background)
//Storyboard Layer 1 (Fail)
//Storyboard Layer 2 (Pass)
//Storyboard Layer 3 (Foreground)
//Storyboard Sound Samples

[TimingPoints]
10370,631.578947368421,4,2,1,70,1,0
50791,-83.3333333333333,4,2,1,70,0,1
68475,-100,4,2,1,70,0,0
71001,-83.3333333333333,4,2,1,70,0,1
91212,-100,4,2,1,70,0,0
131633,-83.3333333333333,4,2,1,70,0,1
151843,-100,4,2,1,70,0,0
194791,-83.3333333333333,4,2,1,70,0,1
215001,-100,4,2,1,70,0,0
235212,-142.857142857143,4,2,1,70,0,0
236159,-100,4,2,1,5,0,0

[Colours]
Combo1 : 255,149,98
Combo2 : 143,143,143
Combo3 : 196,196,196
Combo4 : 128,64,64

[HitObjects]
331,89,10370,6,0,B|390:84|390:84|441:100,1,100,4|0,0:0|0:0,0:0:0:0:
491,147,10844,1,0,0:0:0:0:
443,211,11002,2,0,L|454:280,1,50,8|0,0:0|0:0,0:0:0:0:
370,257,11318,2,0,L|381:326,1,50,2|0,0:0|0:0,0:0:0:0:
300,327,11634,2,0,P|241:316|183:333,1,100
125,346,12107,1,0,0:0:0:0:
63,294,12265,2,0,L|57:228,1,50,8|0,0:0|0:0,0:0:0:0:
129,205,12581,2,0,L|135:139,1,50
202,113,12897,6,0,L|268:107,1,50,2|0,0:0|0:0,0:0:0:0:
291,179,13213,2,0,L|357:185,1,50
379,113,13528,2,0,L|445:119,1,50,8|0,0:0|0:0,0:0:0:0:
463,196,13844,1,2,0:0:0:0:
463,196,14002,1,0,0:0:0:0:
463,196,14160,2,0,P|456:248|465:305,1,100
507,361,14634,1,0,0:0:0:0:
426,361,14792,2,0,B|390:365|390:365|357:360|357:360|310:365,1,100,8|0,0:0|0:0,0:0:0:0:
265,311,15265,1,0,0:0:0:0:
195,355,15423,6,0,B|164:351|164:351|131:356|131:356|95:352,1,100,2|0,0:0|0:0,0:0:0:0:
28,307,15897,1,0,0:0:0:0:
66,236,16055,2,0,L|62:177,1,50,8|0,0:0|0:0,0:0:0:0:
70,106,16370,2,0,L|74:47,1,50,2|0,0:0|0:0,0:0:0:0:
153,44,16686,2,0,L|143:156,1,100
199,201,17160,1,0,0:0:0:0:
261,151,17318,2,0,L|269:51,1,100,8|0,0:0|0:0,0:0:0:0:
331,199,17949,6,0,L|322:259,1,50,2|0,0:0|0:0,0:0:0:0:
403,240,18265,2,0,L|394:300,1,50
475,276,18581,2,0,L|466:336,2,50,8|0|2,0:0|0:0|0:0,0:0:0:0:
469,195,19055,1,0,0:0:0:0:
445,118,19213,2,0,P|435:58|446:9,1,100
284,49,19844,1,8,0:0:0:0:
284,49,20002,1,0,0:0:0:0:
284,49,20160,2,0,L|223:46,1,50
161,82,20476,6,0,P|157:151|130:187,1,100,2|0,0:0|0:0,0:0:0:0:
70,213,20949,1,0,0:0:0:0:
124,271,21107,2,0,L|235:285,1,100,8|2,0:0|0:0,0:0:0:0:
383,297,21739,2,0,L|378:354,2,50
432,233,22213,1,0,0:0:0:0:
389,165,22370,2,0,L|384:115,1,50,8|0,0:0|0:0,0:0:0:0:
412,39,22686,1,0,0:0:0:0:
412,39,22844,1,0,0:0:0:0:
412,39,23002,6,0,L|498:32,2,50,2|0|0,0:0|0:0|0:0,0:0:0:0:
334,62,23476,1,0,0:0:0:0:
254,49,23634,2,0,L|168:42,1,50,8|0,0:0|0:0,0:0:0:0:
182,122,23949,2,0,L|96:115,1,50,2|0,0:0|0:0,0:0:0:0:
74,62,24265,2,0,P|53:118|77:178,1,100
128,200,24739,1,0,0:0:0:0:
65,249,24897,2,0,L|54:309,1,50,8|0,0:0|0:0,0:0:0:0:
126,359,25213,1,0,0:0:0:0:
126,359,25371,1,0,0:0:0:0:
126,359,25528,6,0,L|195:353,1,50,2|0,0:0|0:0,0:0:0:0:
222,288,25844,1,0,0:0:0:0:
222,288,26002,1,0,0:0:0:0:
222,288,26160,2,0,L|291:294,1,50,8|0,0:0|0:0,0:0:0:0:
346,330,26476,2,0,L|415:324,1,50,2|0,0:0|0:0,0:0:0:0:
457,273,26792,2,0,L|460:201,1,50
415,155,27107,2,0,L|421:86,1,50
337,105,27423,2,0,L|343:36,1,50,8|0,0:0|0:0,0:0:0:0:
261,43,27739,1,0,0:0:0:0:
261,43,27897,1,0,0:0:0:0:
261,43,28055,6,0,L|201:45,1,50,2|0,0:0|0:0,0:0:0:0:
145,91,28371,1,0,0:0:0:0:
145,91,28527,1,0,0:0:0:0:
145,91,28686,2,0,L|85:93,1,50,8|0,0:0|0:0,0:0:0:0:
60,169,29002,1,2,0:0:0:0:
60,169,29160,1,0,0:0:0:0:
60,169,29318,2,0,L|0:171,1,50
12,251,29634,2,0,L|61:252,1,50
97,329,29948,2,0,L|146:330,1,50,8|0,0:0|0:0,0:0:0:0:
213,377,30265,2,0,L|262:378,1,50
276,299,30581,6,0,B|316:308|335:338|335:338|372:310,1,100,6|0,0:0|0:0,0:0:0:0:
411,262,31055,1,0,0:0:0:0:
468,206,31213,2,0,L|470:139,1,50,8|0,0:0|0:0,0:0:0:0:
393,132,31528,2,0,L|395:65,2,50,2|0|0,0:0|0:0|0:0,0:0:0:0:
314,151,32002,1,2,0:0:0:0:
314,151,32160,2,0,L|312:200,1,50,2|0,0:0|0:0,0:0:0:0:
232,210,32476,2,0,L|234:93,1,100,8|0,0:0|0:0,0:0:0:0:
188,43,32949,1,2,0:0:0:0:
188,43,33107,6,0,L|117:38,1,50,2|0,0:0|0:0,0:0:0:0:
110,115,33423,2,0,L|159:118,1,50
142,197,33739,2,0,L|71:192,1,50,8|0,0:0|0:0,0:0:0:0:
72,271,34055,2,0,L|121:274,2,50,2|0|0,0:0|0:0|0:0,0:0:0:0:
51,348,34528,1,2,0:0:0:0:
51,348,34686,2,0,L|100:351,1,50,2|0,0:0|0:0,0:0:0:0:
178,328,35002,2,0,B|238:320|238:320|294:330,1,100,8|0,0:0|0:0,0:0:0:0:
352,354,35476,1,2,0:0:0:0:
409,298,35634,6,0,P|412:249|411:227,1,50,2|0,0:0|0:0,0:0:0:0:
332,237,35949,2,0,P|329:212|329:187,1,50
404,159,36265,2,0,P|407:110|406:88,1,50,8|0,0:0|0:0,0:0:0:0:
327,98,36581,2,0,P|324:73|324:48,2,50,2|0|0,0:0|0:0|0:0,0:0:0:0:
258,140,37055,1,2,0:0:0:0:
258,140,37213,2,0,P|233:139|208:137,1,50,2|0,0:0|0:0,0:0:0:0:
157,75,37528,2,0,P|132:72|107:72,2,50,8|0|0,0:0|0:0|0:0,0:0:0:0:
208,136,38002,1,2,0:0:0:0:
208,136,38160,6,0,P|219:206|205:260,1,100,2|0,0:0|0:0,0:0:0:0:
182,307,38634,1,2,0:0:0:0:
256,335,38792,2,0,P|305:330|354:341,1,100,8|2,0:0|0:0,0:0:0:0:
426,307,39265,1,0,0:0:0:0:
404,229,39423,2,0,P|399:179|410:130,1,100,0|2,0:0|0:0,0:0:0:0:
439,55,39897,1,0,0:0:0:0:
359,61,40055,2,0,L|270:58,1,50,8|0,0:0|0:0,0:0:0:0:
254,118,40371,2,0,L|165:115,1,50
153,53,40686,6,0,P|126:97|136:160,2,100,2|0|8,0:0|0:0|0:0,0:0:0:0:
229,27,41476,1,0,0:0:0:0:
305,51,41634,2,0,L|377:44,2,50,2|0|0,0:0|0:0|0:0,0:0:0:0:
293,130,42107,1,2,0:0:0:0:
293,130,42265,2,0,L|365:123,1,50,2|0,0:0|0:0,0:0:0:0:
334,205,42581,2,0,L|406:198,2,50,8|0|0,0:0|0:0|0:0,0:0:0:0:
269,253,43055,1,2,0:0:0:0:
269,253,43213,6,0,P|205:241|157:260,1,100,2|0,0:0|0:0,0:0:0:0:
102,289,43686,1,0,0:0:0:0:
44,233,43844,2,0,L|35:112,1,100,8|2,0:0|0:0,0:0:0:0:
106,93,44318,2,0,L|102:35,1,50
180,64,44634,1,2,0:0:0:0:
180,64,44792,2,0,L|176:6,2,50,2|0|8,0:0|0:0|0:0,0:0:0:0:
212,144,45265,1,0,0:0:0:0:
212,144,45423,1,0,0:0:0:0:
212,144,45581,1,2,0:0:0:0:
272,192,45739,6,0,P|331:184|403:209,1,100,2|0,0:0|0:0,0:0:0:0:
421,251,46213,1,0,0:0:0:0:
382,320,46371,2,0,P|345:324|323:320,1,50,8|0,0:0|0:0,0:0:0:0:
257,294,46686,2,0,P|253:331|257:353,2,50,2|0|0,0:0|0:0|0:0,0:0:0:0:
299,225,47160,1,2,0:0:0:0:
299,225,47318,2,0,P|303:188|299:166,2,50,2|0|8,0:0|0:0|0:0,0:0:0:0:
226,190,47792,2,0,P|222:153|226:131,1,50
282,86,48107,1,2,0:0:0:0:
282,86,48265,6,0,P|226:62|163:88,1,100,2|0,0:0|0:0,0:0:0:0:
129,15,48739,1,2,0:0:0:0:
129,15,48897,2,0,P|109:70|136:132,1,100,8|0,0:0|0:0,0:0:0:0:
140,274,49528,1,0,0:0:0:0:
140,274,49686,1,2,0:0:0:0:
140,274,49844,2,0,P|183:267|216:271,1,50,2|0,0:0|0:0,0:0:0:0:
235,203,50160,6,0,B|235:181|252:159|252:159|236:92|281:51,1,150,8|0,0:0|0:0,0:0:0:0:
376,51,50791,6,0,P|416:103|389:194,1,119.999996337891,6|0,0:0|0:0,0:0:0:0:
334,126,51264,1,2,0:0:0:0:
355,207,51422,2,0,B|285:217|286:194|232:204,1,119.999996337891,8|2,0:0|0:0,0:0:0:0:
167,153,51897,2,0,L|160:70,1,59.9999981689454
79,75,52213,1,2,0:0:0:0:
79,75,52371,2,0,L|84:134,1,59.9999981689454,2|0,0:0|0:0,0:0:0:0:
32,200,52686,2,0,L|42:341,1,119.999996337891,8|0,0:0|0:0,0:0:0:0:
119,348,53160,1,2,0:0:0:0:
119,348,53318,6,0,B|190:337|190:337|237:344,1,119.999996337891,2|0,0:0|0:0,0:0:0:0:
321,352,53792,1,0,0:0:0:0:
389,304,53949,2,0,L|397:221,1,59.9999981689454,8|0,0:0|0:0,0:0:0:0:
472,210,54265,2,0,L|480:127,2,59.9999981689454,2|0|0,0:0|0:0|0:0,0:0:0:0:
399,165,54739,1,2,0:0:0:0:
399,165,54897,2,0,L|407:82,1,59.9999981689454,2|0,0:0|0:0,0:0:0:0:
343,46,55213,2,0,B|297:56|297:56|209:50|209:50|147:59,1,179.999994506836,8|0,0:0|0:0,0:0:0:0:
81,42,55844,6,0,P|119:74|120:167,1,119.999996337891,6|0,0:0|0:0,0:0:0:0:
47,121,56318,1,2,0:0:0:0:
79,198,56476,2,0,B|92:254|92:254|81:326,1,119.999996337891,8|2,0:0|0:0,0:0:0:0:
157,353,56949,2,0,L|230:349,1,59.9999981689454
268,282,57265,1,2,0:0:0:0:
268,282,57423,2,0,L|341:278,1,59.9999981689454,2|0,0:0|0:0,0:0:0:0:
405,311,57739,2,0,P|407:247|361:202,1,119.999996337891,8|0,0:0|0:0,0:0:0:0:
292,189,58213,1,2,0:0:0:0:
271,107,58370,6,0,B|325:93|325:131|409:105,1,119.999996337891,2|0,0:0|0:0,0:0:0:0:
460,65,58844,1,2,0:0:0:0:
383,31,59002,2,0,P|358:35|317:22,1,59.9999981689454,8|0,0:0|0:0,0:0:0:0:
240,30,59318,2,0,P|220:39|194:84,2,59.9999981689454,2|0|0,0:0|0:0|0:0,0:0:0:0:
271,107,59792,1,2,0:0:0:0:
271,107,59949,2,0,P|254:131|228:145,1,59.9999981689454,2|0,0:0|0:0,0:0:0:0:
144,137,60265,2,0,B|108:100|114:50|114:50|82:113|38:141,1,179.999994506836,8|0,0:0|0:0,0:0:0:0:
56,202,60897,6,0,P|104:254|90:329,1,119.999996337891,6|0,0:0|0:0,0:0:0:0:
174,346,61370,1,2,0:0:0:0:
254,321,61528,2,0,B|292:324|292:324|341:316|341:316|399:323,1,119.999996337891,8|2,0:0|0:0,0:0:0:0:
456,330,62002,2,0,L|467:268,1,59.9999981689454
405,212,62318,1,2,0:0:0:0:
405,212,62476,2,0,L|416:150,1,59.9999981689454,2|0,0:0|0:0,0:0:0:0:
484,104,62792,2,0,P|432:73|369:84,1,119.999996337891,8|0,0:0|0:0,0:0:0:0:
307,130,63265,1,2,0:0:0:0:
226,104,63423,6,0,B|206:81|206:81|155:121|104:106,1,119.999996337891,2|0,0:0|0:0,0:0:0:0:
134,24,63897,1,2,0:0:0:0:
56,57,64055,2,0,P|42:89|41:124,1,59.9999981689454,8|0,0:0|0:0,0:0:0:0:
87,183,64370,2,0,P|83:212|70:239,2,59.9999981689454,2|0|0,0:0|0:0|0:0,0:0:0:0:
171,186,64844,1,2,0:0:0:0:
171,186,65002,2,0,P|170:215|160:244,1,59.9999981689454,2|0,0:0|0:0,0:0:0:0:
203,318,65318,2,0,P|250:235|239:131,1,179.999994506836,8|0,0:0|0:0,0:0:0:0:
216,72,65949,6,0,B|282:60|281:93|346:71,1,119.999996337891,6|0,0:0|0:0,0:0:0:0:
408,33,66423,1,2,0:0:0:0:
454,103,66581,2,0,B|466:169|433:168|455:233,2,119.999996337891,8|2|0,0:0|0:0|0:0,0:0:0:0:
408,33,67370,1,2,0:0:0:0:
408,33,67528,2,0,L|329:28,1,59.9999981689454,2|0,0:0|0:0,0:0:0:0:
321,109,67844,2,0,L|182:100,1,119.999996337891,8|0,0:0|0:0,0:0:0:0:
126,140,68318,1,2,0:0:0:0:
126,140,68476,6,0,P|111:204|133:260,1,100,2|0,0:0|0:0,0:0:0:0:
188,275,68949,1,2,0:0:0:0:
259,238,69107,2,0,P|274:174|252:118,2,100,8|2|0,0:0|0:0|0:0,0:0:0:0:
188,275,69897,1,2,0:0:0:0:
188,275,70055,2,0,L|186:349,2,50,2|0|8,0:0|0:0|0:0,0:0:0:0:
189,194,70528,2,0,B|201:154|175:154|189:85,1,100
238,33,71002,6,0,B|262:33|290:54|290:54|352:24|415:46,1,179.999994506836,6|2,0:0|0:0,0:0:0:0:
449,118,71634,2,0,P|442:167|454:242,1,119.999996337891,8|2,0:0|0:0,0:0:0:0:
288,272,72265,1,0,0:0:0:0:
288,272,72423,1,2,0:0:0:0:
288,272,72581,2,0,P|244:269|220:276,1,59.9999981689454,2|0,0:0|0:0,0:0:0:0:
135,209,72897,1,8,0:0:0:0:
135,209,73055,2,0,P|179:212|204:204,1,59.9999981689454
261,173,73370,1,2,0:0:0:0:
261,173,73528,6,0,B|241:113|241:113|259:43,1,119.999996337891,2|0,0:0|0:0,0:0:0:0:
330,20,74002,1,2,0:0:0:0:
330,20,74160,2,0,L|397:17,1,59.9999981689454,8|0,0:0|0:0,0:0:0:0:
390,101,74476,2,0,L|457:98,2,59.9999981689454,2|0|0,0:0|0:0|0:0,0:0:0:0:
320,148,74949,1,2,0:0:0:0:
320,148,75107,2,0,L|323:215,1,59.9999981689454,2|0,0:0|0:0,0:0:0:0:
241,183,75423,2,0,L|244:250,1,59.9999981689454,8|0,0:0|0:0,0:0:0:0:
160,227,75739,2,0,L|163:294,1,59.9999981689454
78,298,76055,6,0,L|74:166,1,119.999996337891,6|0,0:0|0:0,0:0:0:0:
68,94,76528,1,2,0:0:0:0:
126,33,76686,2,0,P|191:47|250:28,1,119.999996337891,8|2,0:0|0:0,0:0:0:0:
402,81,77318,1,0,0:0:0:0:
402,81,77476,1,2,0:0:0:0:
402,81,77634,2,0,P|358:84|334:77,1,59.9999981689454,2|0,0:0|0:0,0:0:0:0:
265,151,77948,1,8,0:0:0:0:
265,151,78106,2,0,P|309:148|334:156,1,59.9999981689454
403,180,78423,1,2,0:0:0:0:
403,180,78581,6,0,B|385:248|385:248|410:318,1,119.999996337891,2|0,0:0|0:0,0:0:0:0:
445,366,79055,1,2,0:0:0:0:
361,359,79213,2,0,L|275:352,1,59.9999981689454,8|0,0:0|0:0,0:0:0:0:
267,276,79528,2,0,L|181:269,2,59.9999981689454,2|0|0,0:0|0:0|0:0,0:0:0:0:
250,192,80002,1,2,0:0:0:0:
250,192,80160,2,0,L|164:185,1,59.9999981689454,2|0,0:0|0:0,0:0:0:0:
228,111,80476,2,0,L|142:104,1,59.9999981689454,8|0,0:0|0:0,0:0:0:0:
150,23,80792,2,0,L|209:27,1,59.9999981689454
290,50,81107,6,0,B|326:88|310:137|310:137|359:93|403:90,1,179.999994506836,6|2,0:0|0:0,0:0:0:0:
452,45,81739,2,0,P|431:120|441:182,1,119.999996337891,8|2,0:0|0:0,0:0:0:0:
304,267,82370,1,0,0:0:0:0:
304,267,82528,1,2,0:0:0:0:
304,267,82686,2,0,P|260:270|236:263,1,59.9999981689454,2|0,0:0|0:0,0:0:0:0:
213,187,83002,1,8,0:0:0:0:
213,187,83160,2,0,P|257:184|282:192,1,59.9999981689454
311,115,83476,1,2,0:0:0:0:
311,115,83634,6,0,P|261:103|176:115,1,119.999996337891,2|0,0:0|0:0,0:0:0:0:
129,164,84107,1,2,0:0:0:0:
67,221,84265,2,0,P|79:290|52:351,1,119.999996337891,8|2,0:0|0:0,0:0:0:0:
144,357,84739,2,0,L|216:358,1,59.9999981689454
206,273,85055,1,2,0:0:0:0:
206,273,85213,2,0,L|278:274,1,59.9999981689454,2|0,0:0|0:0,0:0:0:0:
265,189,85528,2,0,L|337:190,1,59.9999981689454,8|0,0:0|0:0,0:0:0:0:
342,107,85844,2,0,L|414:108,1,59.9999981689454
458,45,86160,6,0,P|444:101|483:171,1,119.999996337891,6|0,0:0|0:0,0:0:0:0:
478,240,86634,1,2,0:0:0:0:
427,307,86792,2,0,B|364:293|365:321|308:305,1,119.999996337891,8|0,0:0|0:0,0:0:0:0:
152,241,87423,1,0,0:0:0:0:
152,241,87581,1,2,0:0:0:0:
152,241,87739,2,0,P|108:238|84:245,1,59.9999981689454,2|0,0:0|0:0,0:0:0:0:
61,321,88055,1,8,0:0:0:0:
61,321,88213,2,0,P|105:324|130:316,1,59.9999981689454
202,305,88528,1,2,0:0:0:0:
202,305,88686,6,0,P|234:241|197:173,1,119.999996337891,2|0,0:0|0:0,0:0:0:0:
182,122,89160,1,2,0:0:0:0:
266,119,89318,2,0,B|333:111|333:139|387:121,1,119.999996337891,8|2,0:0|0:0,0:0:0:0:
457,78,89792,2,0,P|467:109|464:147,1,59.9999981689454
407,196,90107,1,2,0:0:0:0:
407,196,90265,2,0,P|406:225|416:254,1,59.9999981689454,2|0,0:0|0:0,0:0:0:0:
361,318,90581,2,0,L|283:324,1,59.9999981689454,8|0,0:0|0:0,0:0:0:0:
281,240,90897,2,0,L|203:246,1,59.9999981689454
152,202,91213,6,0,P|142:138|153:85,2,100,6|0|8,0:0|0:0|0:0,0:0:0:0:
113,272,92002,1,0,0:0:0:0:
113,272,92160,2,0,P|119:298|114:337,1,50,2|0,0:0|0:0,0:0:0:0:
195,343,92476,2,0,P|254:334|299:346,1,100
371,356,92949,1,0,0:0:0:0:
398,280,93107,2,0,P|389:221|401:176,1,100,8|0,0:0|0:0,0:0:0:0:
439,113,93581,1,0,0:0:0:0:
396,45,93739,6,0,L|318:43,1,50,2|0,0:0|0:0,0:0:0:0:
280,90,94055,1,0,0:0:0:0:
280,90,94213,1,0,0:0:0:0:
220,143,94370,1,0,0:0:0:0:
220,143,94528,2,0,L|142:141,2,50,0|2|0,0:0|0:0|0:0,0:0:0:0:
257,214,95002,2,0,P|273:274|253:345,1,100
195,346,95476,1,0,0:0:0:0:
125,309,95634,2,0,P|121:259|136:212,1,100,8|0,0:0|0:0,0:0:0:0:
200,164,96107,1,0,0:0:0:0:
251,102,96265,6,0,P|203:84|135:114,1,100,2|0,0:0|0:0,0:0:0:0:
302,162,96897,2,0,P|347:179|395:168,1,100,8|2,0:0|0:0,0:0:0:0:
459,120,97370,2,0,P|473:179|452:227,1,100
321,295,98002,1,0,0:0:0:0:
321,295,98160,2,0,L|232:307,1,50,8|0,0:0|0:0,0:0:0:0:
214,244,98476,2,0,L|125:256,1,50
96,293,98792,6,0,P|110:235|91:171,1,100,2|0,0:0|0:0,0:0:0:0:
69,123,99265,1,0,0:0:0:0:
69,123,99423,2,0,L|158:111,1,50,8|0,0:0|0:0,0:0:0:0:
161,47,99739,2,0,L|250:35,1,50,2|0,0:0|0:0,0:0:0:0:
286,12,100055,2,0,P|286:66|252:111,1,100
195,148,100528,1,0,0:0:0:0:
195,148,100686,2,0,L|207:237,1,50,8|0,0:0|0:0,0:0:0:0:
144,255,101002,2,0,L|156:344,1,50
225,334,101318,5,2,0:0:0:0:
363,253,101634,2,0,L|356:203,1,50
437,204,101949,2,0,L|430:154,2,50,8|0|2,0:0|0:0|0:0,0:0:0:0:
440,289,102423,1,0,0:0:0:0:
440,289,102581,2,0,P|399:328|322:324,1,100
282,306,103055,1,0,0:0:0:0:
214,348,103213,2,0,L|152:355,1,50,8|0,0:0|0:0,0:0:0:0:
150,274,103528,2,0,L|88:281,1,50
33,325,103844,5,2,0:0:0:0:
27,245,104002,2,0,L|20:191,2,50
95,202,104476,2,0,L|88:148,1,50,8|0,0:0|0:0,0:0:0:0:
166,173,104792,2,0,L|159:119,1,50,2|0,0:0|0:0,0:0:0:0:
248,76,105106,2,0,L|241:130,1,50
319,105,105422,2,0,L|312:159,1,50
390,131,105739,2,0,L|383:185,1,50,8|0,0:0|0:0,0:0:0:0:
461,160,106055,2,0,L|454:214,1,50
415,279,106370,5,2,0:0:0:0:
349,324,106528,2,0,L|355:373,2,50
343,245,107002,2,0,P|301:259|270:311,1,100,8|2,0:0|0:0,0:0:0:0:
196,334,107476,1,0,0:0:0:0:
150,267,107634,2,0,L|143:217,1,50
65,236,107948,2,0,L|58:186,1,50
124,140,108265,2,0,L|117:90,1,50,8|0,0:0|0:0,0:0:0:0:
184,35,108581,1,0,0:0:0:0:
184,35,108739,1,0,0:0:0:0:
184,35,108896,6,0,L|198:136,1,100,2|0,0:0|0:0,0:0:0:0:
259,186,109370,1,0,0:0:0:0:
273,107,109527,2,0,L|266:57,1,50,8|0,0:0|0:0,0:0:0:0:
346,48,109843,2,0,L|353:98,1,50,2|0,0:0|0:0,0:0:0:0:
433,115,110159,2,0,L|426:65,1,50
401,188,110475,1,0,0:0:0:0:
401,188,110633,1,0,0:0:0:0:
401,188,110791,2,0,L|408:265,1,50,8|0,0:0|0:0,0:0:0:0:
326,226,111106,2,0,L|333:303,1,50
268,326,111422,6,0,P|202:318|150:328,1,100,4|0,0:0|0:0,0:0:0:0:
95,290,111896,1,2,0:0:0:0:
95,290,112054,2,0,P|90:224|99:180,1,100,8|2,0:0|0:0,0:0:0:0:
160,143,112527,2,0,P|166:89|166:85,1,50
89,64,112843,1,2,0:0:0:0:
89,64,113001,2,0,P|83:118|83:122,1,50,2|0,0:0|0:0,0:0:0:0:
165,93,113317,2,0,P|218:101|272:88,1,100,8|0,0:0|0:0,0:0:0:0:
322,37,113791,1,2,0:0:0:0:
322,37,113948,6,0,P|314:92|329:170,1,100,2|0,0:0|0:0,0:0:0:0:
399,138,114422,1,0,0:0:0:0:
399,138,114580,2,0,P|407:193|392:271,1,100,8|2,0:0|0:0,0:0:0:0:
419,316,115054,2,0,P|474:289|481:283,1,50
335,280,115370,1,2,0:0:0:0:
335,280,115527,2,0,P|280:307|273:313,1,50,2|0,0:0|0:0,0:0:0:0:
248,230,115843,2,0,P|202:271|197:278,1,50,8|0,0:0|0:0,0:0:0:0:
159,199,116159,2,0,P|126:251|123:259,1,50
78,301,116475,6,0,P|73:233|50:167,1,100,2|0,0:0|0:0,0:0:0:0:
33,128,116948,1,2,0:0:0:0:
33,128,117106,2,0,P|38:60|61:-6,1,100,8|2,0:0|0:0,0:0:0:0:
117,66,117580,2,0,P|113:88|112:124,1,50
185,163,117896,1,2,0:0:0:0:
185,163,118054,2,0,P|189:141|190:105,1,50,2|0,0:0|0:0,0:0:0:0:
237,48,118370,2,0,P|288:58|343:49,1,100,8|0,0:0|0:0,0:0:0:0:
400,97,118843,1,2,0:0:0:0:
400,97,119001,6,0,P|399:148|417:201,1,100,2|0,0:0|0:0,0:0:0:0:
471,250,119475,1,2,0:0:0:0:
396,278,119633,2,0,B|343:277|343:277|281:286,1,100,8|2,0:0|0:0,0:0:0:0:
151,216,120264,2,0,B|204:217|204:217|266:208,1,100,0|2,0:0|0:0,0:0:0:0:
382,119,120896,2,0,B|329:118|329:118|267:127,1,100,8|0,0:0|0:0,0:0:0:0:
152,31,121527,6,0,P|142:89|165:167,1,100,2|0,0:0|0:0,0:0:0:0:
178,210,122001,1,2,0:0:0:0:
178,210,122159,2,0,P|184:259|174:308,1,100,8|2,0:0|0:0,0:0:0:0:
252,326,122633,2,0,P|261:286|261:262,1,50
343,203,122948,1,2,0:0:0:0:
343,203,123106,2,0,P|334:243|334:267,1,50,2|0,0:0|0:0,0:0:0:0:
398,299,123422,2,0,P|410:236|424:186,1,100,8|0,0:0|0:0,0:0:0:0:
450,128,123896,1,2,0:0:0:0:
450,128,124054,6,0,P|441:78|428:30,1,100,2|0,0:0|0:0,0:0:0:0:
348,30,124527,1,2,0:0:0:0:
348,30,124685,2,0,P|335:78|326:127,1,100,8|2,0:0|0:0,0:0:0:0:
251,97,125159,2,0,P|252:151|254:164,1,50
179,164,125475,1,2,0:0:0:0:
179,164,125633,2,0,P|194:215|200:227,1,50,2|0,0:0|0:0,0:0:0:0:
238,277,125948,2,0,P|160:269|107:287,1,100,8|0,0:0|0:0,0:0:0:0:
287,210,126580,6,0,P|365:218|418:200,1,100,2|0,0:0|0:0,0:0:0:0:
387,133,127054,1,2,0:0:0:0:
387,133,127212,2,0,P|309:125|256:143,1,100,10|2,0:0|0:0,0:0:0:0:
223,82,127685,2,0,P|205:136|205:141,1,50
235,210,128001,1,2,0:0:0:0:
234,209,128159,2,0,P|228:233|216:255,1,50,2|0,0:0|0:0,0:0:0:0:
162,314,128475,2,0,P|142:277|164:193,1,100,8|0,0:0|0:0,0:0:0:0:
173,145,128948,1,2,0:0:0:0:
173,145,129106,5,2,0:0:0:0:
327,76,129423,1,0,0:0:0:0:
327,76,129581,1,2,0:0:0:0:
327,76,129739,2,0,P|347:131|320:193,1,100,8|0,0:0|0:0,0:0:0:0:
314,328,130370,1,0,0:0:0:0:
314,328,130528,1,2,0:0:0:0:
314,328,130686,2,0,P|271:321|238:325,1,50,2|0,0:0|0:0,0:0:0:0:
194,283,131002,2,0,P|209:195|164:150,1,150,8|0,0:0|0:0,0:0:0:0:
131,50,131634,6,0,P|91:102|118:193,1,119.999996337891,6|0,0:0|0:0,0:0:0:0:
137,225,132107,1,2,0:0:0:0:
117,306,132265,2,0,B|187:316|186:293|240:303,1,119.999996337891,8|2,0:0|0:0,0:0:0:0:
308,258,132739,2,0,L|315:175,1,59.9999981689454
396,180,133055,1,2,0:0:0:0:
396,180,133213,2,0,L|391:239,1,59.9999981689454,2|0,0:0|0:0,0:0:0:0:
472,260,133528,2,0,L|480:140,1,119.999996337891,8|0,0:0|0:0,0:0:0:0:
448,62,134002,1,2,0:0:0:0:
448,62,134160,6,0,B|402:65|372:51|372:51|330:58,1,119.999996337891,2|0,0:0|0:0,0:0:0:0:
254,95,134634,1,0,0:0:0:0:
180,55,134791,2,0,L|97:63,1,59.9999981689454,8|0,0:0|0:0,0:0:0:0:
86,139,135107,2,0,L|3:147,2,59.9999981689454,2|0|0,0:0|0:0|0:0,0:0:0:0:
152,191,135581,1,2,0:0:0:0:
152,191,135739,2,0,L|235:183,1,59.9999981689454,2|0,0:0|0:0,0:0:0:0:
254,95,136055,2,0,P|234:168|301:245,1,179.999994506836,8|0,0:0|0:0,0:0:0:0:
378,226,136686,6,0,P|340:258|339:351,1,119.999996337891,6|0,0:0|0:0,0:0:0:0:
410,306,137160,1,2,0:0:0:0:
463,241,137318,2,0,B|472:179|472:179|459:123,1,119.999996337891,8|2,0:0|0:0,0:0:0:0:
401,61,137791,2,0,L|328:57,1,59.9999981689454
260,33,138107,1,2,0:0:0:0:
260,33,138265,2,0,L|187:29,1,59.9999981689454,2|0,0:0|0:0,0:0:0:0:
165,107,138580,2,0,P|167:171|121:221,1,119.999996337891,8|0,0:0|0:0,0:0:0:0:
86,140,139054,1,2,0:0:0:0:
47,214,139213,6,0,B|33:268|71:268|50:332,1,119.999996337891,2|0,0:0|0:0,0:0:0:0:
126,368,139686,1,2,0:0:0:0:
199,326,139844,2,0,L|266:320,1,59.9999981689454,8|0,0:0|0:0,0:0:0:0:
285,240,140160,2,0,P|305:249|331:294,2,59.9999981689454,2|0|0,0:0|0:0|0:0,0:0:0:0:
225,180,140634,1,2,0:0:0:0:
225,180,140791,2,0,P|248:162|278:157,1,59.9999981689454,2|0,0:0|0:0,0:0:0:0:
352,196,141107,2,0,P|342:108|231:83,1,179.999994506836,8|0,0:0|0:0,0:0:0:0:
222,1,141739,6,0,P|216:59|173:99,1,119.999996337891,6|0,0:0|0:0,0:0:0:0:
140,21,142212,1,2,0:0:0:0:
81,81,142370,2,0,B|77:113|77:113|85:162|85:162|82:200,1,119.999996337891,8|2,0:0|0:0,0:0:0:0:
32,268,142844,2,0,L|42:327,1,59.9999981689454
126,333,143160,1,2,0:0:0:0:
126,333,143318,2,0,L|115:271,1,59.9999981689454,2|0,0:0|0:0,0:0:0:0:
190,235,143634,2,0,P|246:202|306:213,1,119.999996337891,8|0,0:0|0:0,0:0:0:0:
259,287,144107,1,2,0:0:0:0:
342,280,144265,6,0,P|383:215|356:153,1,119.999996337891,2|0,0:0|0:0,0:0:0:0:
346,96,144739,1,2,0:0:0:0:
271,56,144897,2,0,L|190:50,1,59.9999981689454,8|0,0:0|0:0,0:0:0:0:
208,136,145212,2,0,L|131:131,2,59.9999981689454,2|0|0,0:0|0:0|0:0,0:0:0:0:
287,164,145686,1,2,0:0:0:0:
287,164,145844,2,0,P|288:193|298:222,1,59.9999981689454,2|0,0:0|0:0,0:0:0:0:
228,269,146160,2,0,P|303:246|387:313,1,179.999994506836,8|0,0:0|0:0,0:0:0:0:
461,327,146791,6,0,B|473:261|440:262|462:197,1,119.999996337891,6|0,0:0|0:0,0:0:0:0:
479,126,147265,1,2,0:0:0:0:
419,66,147422,2,0,B|386:61|386:61|338:67|338:67|289:64,2,119.999996337891,8|2|0,0:0|0:0|0:0,0:0:0:0:
479,126,148212,1,2,0:0:0:0:
479,126,148370,2,0,L|484:205,1,59.9999981689454,2|0,0:0|0:0,0:0:0:0:
433,254,148686,2,0,L|294:245,1,119.999996337891,8|0,0:0|0:0,0:0:0:0:
242,199,149160,1,2,0:0:0:0:
242,199,149318,6,0,P|227:263|255:309,1,119.999996337891,2|0,0:0|0:0,0:0:0:0:
313,246,149791,1,2,0:0:0:0:
327,163,149949,2,0,P|342:99|314:39,2,119.999996337891,8|2|0,0:0|0:0|0:0,0:0:0:0:
258,112,150739,1,2,0:0:0:0:
258,112,150897,2,0,L|180:115,1,59.9999981689454,2|0,0:0|0:0,0:0:0:0:
327,163,151213,2,0,B|385:152|385:177|452:161,1,119.999996337891,8|0,0:0|0:0,0:0:0:0:
308,243,151843,6,0,P|270:241|242:245,1,50,2|0,0:0|0:0,0:0:0:0:
267,322,152159,2,0,P|229:324|201:320,1,50
138,350,152475,2,0,P|140:293|177:250,1,100,8|0,0:0|0:0,0:0:0:0:
203,186,152948,1,0,0:0:0:0:
123,176,153106,2,0,B|68:166|68:191|9:176,1,100
152,83,153738,1,8,0:0:0:0:
152,83,154054,2,0,P|190:81|218:85,1,50
235,155,154370,6,0,P|273:157|301:153,1,50,2|0,0:0|0:0,0:0:0:0:
293,76,154685,2,0,P|331:74|359:78,1,50
367,151,155001,2,0,B|422:141|422:166|481:151,1,100,8|0,0:0|0:0,0:0:0:0:
366,280,155633,2,0,B|321:291|321:266|266:276,1,100
188,292,156106,1,0,0:0:0:0:
188,292,156264,1,8,0:0:0:0:
35,243,156580,2,0,P|33:205|37:177,1,50
114,185,156896,6,0,P|116:147|112:119,1,50,2|0,0:0|0:0,0:0:0:0:
64,71,157212,1,0,0:0:0:0:
64,71,157370,1,0,0:0:0:0:
64,71,157527,2,0,P|126:55|179:77,1,100,8|0,0:0|0:0,0:0:0:0:
214,122,158001,1,0,0:0:0:0:
275,173,158159,2,0,B|261:222|291:219|272:286,1,100
340,319,158633,1,0,0:0:0:0:
402,269,158791,2,0,B|417:216|387:219|401:170,1,100,8|0,0:0|0:0,0:0:0:0:
441,101,159264,1,0,0:0:0:0:
401,31,159422,6,0,L|337:26,1,50,2|0,0:0|0:0,0:0:0:0:
332,105,159738,2,0,L|268:100,1,50
233,165,160054,2,0,L|169:160,1,50,8|0,0:0|0:0,0:0:0:0:
164,239,160370,2,0,L|100:234,1,50
61,174,160685,2,0,P|35:219|49:286,1,100
100,316,161159,1,0,0:0:0:0:
100,316,161317,1,8,0:0:0:0:
259,300,161633,2,0,L|332:296,1,50
380,262,161948,6,0,B|375:209|375:209|381:144,1,100,6|0,0:0|0:0,0:0:0:0:
422,94,162422,1,0,0:0:0:0:
352,54,162580,2,0,L|303:59,1,50,8|0,0:0|0:0,0:0:0:0:
289,138,162896,2,0,L|240:143,2,50,2|0|0,0:0|0:0|0:0,0:0:0:0:
273,217,163370,1,2,0:0:0:0:
273,217,163527,2,0,L|224:222,1,50,2|0,0:0|0:0,0:0:0:0:
143,229,163843,1,8,0:0:0:0:
84,80,164159,1,0,0:0:0:0:
84,80,164317,1,2,0:0:0:0:
84,80,164475,6,0,P|86:144|70:194,1,100,2|0,0:0|0:0,0:0:0:0:
41,250,164948,1,0,0:0:0:0:
120,257,165106,2,0,P|184:255|234:271,2,100,8|2|0,0:0|0:0|0:0,0:0:0:0:
138,335,165896,1,2,0:0:0:0:
138,335,166054,2,0,P|179:339|206:333,1,50,2|0,0:0|0:0,0:0:0:0:
266,320,166370,1,8,0:0:0:0:
341,179,166685,2,0,L|390:184,1,50
461,132,167001,6,0,P|444:189|459:238,1,100,2|0,0:0|0:0,0:0:0:0:
497,294,167475,1,0,0:0:0:0:
417,299,167633,2,0,L|368:294,1,50,8|0,0:0|0:0,0:0:0:0:
288,277,167948,2,0,L|239:272,2,50,2|0|0,0:0|0:0|0:0,0:0:0:0:
300,197,168422,1,2,0:0:0:0:
300,197,168580,2,0,L|251:192,1,50,2|0,0:0|0:0,0:0:0:0:
200,128,168896,2,0,P|190:193|144:234,1,100,8|0,0:0|0:0,0:0:0:0:
93,192,169370,1,2,0:0:0:0:
93,192,169527,6,0,P|103:127|149:86,1,100,2|0,0:0|0:0,0:0:0:0:
191,58,170001,1,0,0:0:0:0:
267,81,170159,2,0,B|314:72|314:98|388:83,2,100,8|2|0,0:0|0:0|0:0,0:0:0:0:
191,58,170948,1,2,0:0:0:0:
191,58,171106,2,0,L|187:122,1,50,2|0,0:0|0:0,0:0:0:0:
236,172,171422,2,0,L|232:236,1,50,8|0,0:0|0:0,0:0:0:0:
171,274,171738,2,0,L|167:338,1,50
256,192,172054,12,4,174580,0:0:0:0:
256,192,192264,12,0,194159,0:0:0:0:
274,33,194791,6,0,B|250:33|222:54|222:54|164:10|99:55,1,179.999994506836,6|2,0:0|0:0,0:0:0:0:
163,119,195423,2,0,P|156:168|168:243,1,119.999996337891,8|2,0:0|0:0,0:0:0:0:
328,282,196054,1,0,0:0:0:0:
328,282,196212,1,2,0:0:0:0:
328,282,196370,2,0,P|284:279|260:286,1,59.9999981689454,2|0,0:0|0:0,0:0:0:0:
381,225,196686,1,8,0:0:0:0:
381,225,196844,2,0,P|425:228|450:220,1,59.9999981689454
479,150,197159,1,2,0:0:0:0:
479,150,197317,6,0,B|479:104|488:82|488:82|473:53|472:20,1,119.999996337891,2|0,0:0|0:0,0:0:0:0:
388,34,197791,1,2,0:0:0:0:
388,34,197949,2,0,L|321:31,1,59.9999981689454,8|0,0:0|0:0,0:0:0:0:
328,115,198265,2,0,L|261:112,2,59.9999981689454,2|0|0,0:0|0:0|0:0,0:0:0:0:
371,186,198738,1,2,0:0:0:0:
371,186,198896,2,0,L|374:253,1,59.9999981689454,2|0,0:0|0:0,0:0:0:0:
292,221,199212,2,0,L|295:288,1,59.9999981689454,8|0,0:0|0:0,0:0:0:0:
213,257,199528,2,0,L|216:324,1,59.9999981689454
133,295,199844,6,0,L|129:163,1,119.999996337891,6|0,0:0|0:0,0:0:0:0:
75,110,200317,1,2,0:0:0:0:
148,70,200475,2,0,P|213:84|272:65,1,119.999996337891,8|2,0:0|0:0,0:0:0:0:
430,44,201107,1,0,0:0:0:0:
430,44,201265,1,2,0:0:0:0:
430,44,201423,2,0,P|386:47|362:40,1,59.9999981689454,2|0,0:0|0:0,0:0:0:0:
335,128,201737,1,8,0:0:0:0:
335,128,201896,2,0,P|379:125|404:133,1,59.9999981689454
471,163,202212,1,2,0:0:0:0:
471,163,202370,6,0,B|470:206|453:231|453:231|478:258|478:301,1,119.999996337891,2|0,0:0|0:0,0:0:0:0:
390,290,202844,1,2,0:0:0:0:
317,331,203002,2,0,L|231:338,1,59.9999981689454,8|0,0:0|0:0,0:0:0:0:
277,254,203317,2,0,L|191:261,2,59.9999981689454,2|0|0,0:0|0:0|0:0,0:0:0:0:
315,178,203791,1,2,0:0:0:0:
315,178,203949,2,0,L|401:185,1,59.9999981689454,2|0,0:0|0:0,0:0:0:0:
350,101,204265,2,0,L|436:108,1,59.9999981689454,8|0,0:0|0:0,0:0:0:0:
400,21,204581,2,0,L|459:25,1,59.9999981689454
291,36,204896,6,0,B|255:74|259:117|259:117|227:86|172:86,1,179.999994506836,6|2,0:0|0:0,0:0:0:0:
111,32,205528,2,0,P|132:107|122:169,1,119.999996337891,8|2,0:0|0:0,0:0:0:0:
127,316,206159,1,0,0:0:0:0:
127,316,206317,1,2,0:0:0:0:
127,316,206475,2,0,P|83:319|59:312,1,59.9999981689454,2|0,0:0|0:0,0:0:0:0:
37,236,206791,1,8,0:0:0:0:
37,236,206949,2,0,P|81:233|106:241,1,59.9999981689454
179,250,207265,1,2,0:0:0:0:
179,250,207423,6,0,P|229:262|314:250,1,119.999996337891,2|0,0:0|0:0,0:0:0:0:
371,216,207896,1,2,0:0:0:0:
410,142,208054,2,0,P|417:73|397:8,1,119.999996337891,8|2,0:0|0:0,0:0:0:0:
320,29,208528,2,0,L|248:28,1,59.9999981689454
258,113,208844,1,2,0:0:0:0:
258,113,209002,2,0,L|186:112,1,59.9999981689454,2|0,0:0|0:0,0:0:0:0:
187,195,209317,2,0,L|259:196,1,59.9999981689454,8|0,0:0|0:0,0:0:0:0:
248,280,209633,2,0,L|320:281,1,59.9999981689454
359,213,209949,6,0,P|343:273|383:340,1,119.999996337891,6|0,0:0|0:0,0:0:0:0:
429,266,210423,1,2,0:0:0:0:
485,203,210581,2,0,B|499:140|471:141|487:84,1,119.999996337891,8|0,0:0|0:0,0:0:0:0:
322,49,211212,1,0,0:0:0:0:
322,49,211370,1,2,0:0:0:0:
322,49,211528,2,0,P|278:46|254:53,1,59.9999981689454,2|0,0:0|0:0,0:0:0:0:
231,129,211844,1,8,0:0:0:0:
231,129,212002,2,0,P|275:132|300:124,1,59.9999981689454
372,113,212317,1,2,0:0:0:0:
445,69,212475,6,0,P|456:127|426:177,1,119.999996337891,2|0,0:0|0:0,0:0:0:0:
346,206,212949,1,2,0:0:0:0:
367,287,213107,2,0,B|300:295|300:267|246:285,1,119.999996337891,8|2,0:0|0:0,0:0:0:0:
179,235,213581,2,0,P|186:203|179:166,1,59.9999981689454
98,167,213896,1,2,0:0:0:0:
98,167,214054,2,0,P|93:138|100:108,1,59.9999981689454,2|0,0:0|0:0,0:0:0:0:
176,69,214370,2,0,L|254:63,1,59.9999981689454,8|0,0:0|0:0,0:0:0:0:
298,121,214686,2,0,L|376:115,1,59.9999981689454
415,60,215001,6,0,B|390:166|435:166|417:261,1,200,4|0,0:0|0:0,0:0:0:0:
305,214,215948,1,2,0:0:0:0:
305,214,217527,6,0,B|231:231|200:211|167:191|88:220,1,200,2|0,0:0|0:0,0:0:0:0:
137,96,218475,1,2,0:0:0:0:
137,96,220054,6,0,P|112:123|220:164,1,200,2|0,0:0|0:0,0:0:0:0:
272,85,221001,1,2,0:0:0:0:
272,85,222580,6,0,B|279:142|279:142|270:225|270:225|278:296,1,200,2|0,0:0|0:0,0:0:0:0:
159,311,223527,1,2,0:0:0:0:
159,311,225106,6,0,P|137:240|219:157,1,200,2|0,0:0|0:0,0:0:0:0:
148,58,226054,1,2,0:0:0:0:
148,58,227633,6,0,B|205:68|244:47|244:47|278:72|356:60,1,200,2|0,0:0|0:0,0:0:0:0:
449,115,228580,1,2,0:0:0:0:
449,115,230159,6,0,B|400:118|364:104|364:104|334:179|268:174,1,200,2|0,0:0|0:0,0:0:0:0:
248,58,231106,1,2,0:0:0:0:
248,58,232685,6,0,P|310:69|279:182,1,200,2|0,0:0|0:0,0:0:0:0:
188,240,233633,1,2,0:0:0:0:
112,67,234580,1,0,0:0:0:0:
112,67,234738,2,0,P|112:126|99:175,1,100
83,203,235212,6,0,P|210:229|183:285,1,209.999993591309
