osu file format v14

[General]
AudioFilename: audio.mp3
AudioLeadIn: 0
PreviewTime: 49843
Countdown: 0
SampleSet: Soft
StackLeniency: 0.7
Mode: 0
LetterboxInBreaks: 0
WidescreenStoryboard: 1

[Editor]
Bookmarks: 170001
DistanceSpacing: 0.8
BeatDivisor: 4
GridSize: 8
TimelineZoom: 1

[Metadata]
Title:Just One Day
TitleUnicode:하루만
Artist:BTS
ArtistUnicode:방탄소년단
Creator:Lilyanna
Version:Easy
Source:
Tags:BigHit Entertainment 로엔 엔터테인먼트 LOEN Skool Luv Affair 2nd mini 랩몬스터 Rap Monster 진 Jin 슈가 Suga 제이홉 J-Hope 지민 Jimin 뷔 V 정국 Jungkook K-pop Kpop Beyond The Scene
BeatmapID:1329016
BeatmapSetID:629526

[Difficulty]
HPDrainRate:2
CircleSize:3
OverallDifficulty:2
ApproachRate:3
SliderMultiplier:1.2
SliderTickRate:1

[Events]
//Background and Video events
Video,0,"Two Days (ezek is such a meme).mp4"
0,0,"aasasasasfiretruckishot.jpg",0,0
//Break Periods
2,152044,160509
2,174781,193352
//Storyboard Layer 0 (Background)
//Storyboard Layer 1 (Fail)
//Storyboard Layer 2 (Pass)
//Storyboard Layer 3 (Foreground)
//Storyboard Sound Samples

[TimingPoints]
10370,631.578947368421,4,2,1,70,1,0
50791,-100,4,2,1,70,0,1
68475,-100,4,2,1,70,0,0
71001,-100,4,2,1,70,0,1
91212,-100,4,2,1,70,0,0
131633,-100,4,2,1,70,0,1
151843,-100,4,2,1,70,0,0
194791,-100,4,2,1,70,0,1
215001,-100,4,2,1,70,0,0
236159,-100,4,2,1,5,0,0

[Colours]
Combo1 : 255,149,98
Combo2 : 143,143,143
Combo3 : 196,196,196
Combo4 : 128,64,64

[HitObjects]
443,47,10370,6,0,P|456:136|332:200,1,240,4|0,0:0|0:0,0:0:0:0:
364,106,12265,1,8,0:0:0:0:
274,140,12897,2,0,B|216:144|216:144|144:128,2,120,2|8|0,0:0|0:0|0:0,0:0:0:0:
364,106,14792,1,8,0:0:0:0:
293,40,15422,5,2,0:0:0:0:
109,94,16685,1,0,0:0:0:0:
83,284,17948,1,2,0:0:0:0:
174,315,18580,2,0,B|291:297|289:336|412:307,1,240,8|8,0:0|0:0,0:0:0:0:
453,220,20476,6,0,L|461:93,2,120,2|8|0,0:0|0:0|0:0,0:0:0:0:
413,308,22370,1,8,0:0:0:0:
370,221,23002,2,0,L|362:94,2,120,2|8|0,0:0|0:0|0:0,0:0:0:0:
387,315,24897,1,8,0:0:0:0:
293,337,25528,6,0,P|247:349|169:344,1,120,2|8,0:0|0:0,0:0:0:0:
4,258,27422,1,8,0:0:0:0:
40,166,28055,2,0,L|32:27,1,120,2|8,0:0|0:0,0:0:0:0:
127,28,29318,2,0,L|133:147,1,120,0|8,0:0|0:0,0:0:0:0:
212,203,30581,6,0,P|301:216|365:92,1,240,6|0,0:0|0:0,0:0:0:0:
271,124,32476,1,8,0:0:0:0:
195,65,33107,2,0,B|143:52|143:52|59:55,2,120,2|8|0,0:0|0:0|0:0,0:0:0:0:
271,124,35002,1,8,0:0:0:0:
350,178,35634,6,0,B|432:191|432:191|468:177|517:123,2,180,2|2|8,0:0|0:0|0:0,0:0:0:0:
271,123,38160,2,0,B|248:184|173:188|173:188|100:191|74:272,1,240,2|0,0:0|0:0,0:0:0:0:
173,280,40055,1,8,0:0:0:0:
255,329,40686,6,0,L|381:328,1,120,2|8,0:0|0:0,0:0:0:0:
338,235,41949,2,0,L|464:234,1,120,0|8,0:0|0:0,0:0:0:0:
475,139,43213,2,0,P|491:79|467:25,1,120,2|8,0:0|0:0,0:0:0:0:
393,88,44476,2,0,P|337:91|265:87,1,120,0|8,0:0|0:0,0:0:0:0:
183,56,45739,6,0,P|163:177|211:284,1,240,2|0,0:0|0:0,0:0:0:0:
300,310,47634,1,8,0:0:0:0:
389,273,48265,2,0,P|435:164|414:47,1,240,2|0,0:0|0:0,0:0:0:0:
318,43,50160,1,8,0:0:0:0:
225,69,50792,6,0,B|155:77|154:78|77:61,1,120,6|8,0:0|0:0,0:0:0:0:
44,141,52055,2,0,B|55:194|45:260,1,120,0|8,0:0|0:0,0:0:0:0:
119,321,53318,2,0,B|249:300|243:348|386:315,1,240,2|0,0:0|0:0,0:0:0:0:
452,307,55213,1,8,0:0:0:0:
467,212,55844,6,0,L|473:84,1,120,6|8,0:0|0:0,0:0:0:0:
384,53,57107,2,0,L|264:47,1,120,0|8,0:0|0:0,0:0:0:0:
168,39,58370,2,0,B|176:113|237:141|237:141|165:153|157:181|137:205,1,240,2|0,0:0|0:0,0:0:0:0:
71,254,60265,1,8,0:0:0:0:
145,314,60897,6,0,P|198:327|288:307,1,120,6|8,0:0|0:0,0:0:0:0:
313,237,62160,2,0,P|372:228|430:241,1,120,0|8,0:0|0:0,0:0:0:0:
482,160,63423,2,0,P|384:133|233:166,1,240,2|0,0:0|0:0,0:0:0:0:
202,240,65318,1,8,0:0:0:0:
115,197,65949,6,0,P|101:128|116:44,2,120,6|8|0,0:0|0:0|0:0,0:0:0:0:
202,240,67844,1,8,0:0:0:0:
256,192,68476,12,6,71002,0:0:0:0:
141,35,73528,6,0,P|165:60|160:146,1,120,2|8,0:0|0:0,0:0:0:0:
77,184,74792,2,0,P|66:241|99:289,1,120,0|8,0:0|0:0,0:0:0:0:
184,336,76055,1,6,0:0:0:0:
275,306,76686,2,0,L|414:294,2,120,8|0|8,0:0|0:0|0:0,0:0:0:0:
196,250,78581,6,0,B|184:181|184:181|191:113,1,120,2|8,0:0|0:0,0:0:0:0:
273,85,79844,2,0,B|285:154|285:154|278:222,1,120,0|8,0:0|0:0,0:0:0:0:
88,182,81738,2,0,P|87:247|137:302,2,120,8|0|8,0:0|0:0|0:0,0:0:0:0:
177,149,83634,6,0,L|312:147,1,120,2|8,0:0|0:0,0:0:0:0:
303,51,84897,2,0,L|438:49,1,120,0|8,0:0|0:0,0:0:0:0:
482,124,86160,1,6,0:0:0:0:
444,212,86792,2,0,P|460:279|457:341,2,120,8|0|8,0:0|0:0|0:0,0:0:0:0:
362,162,88686,6,0,P|295:171|234:164,1,120,2|8,0:0|0:0,0:0:0:0:
221,72,89949,2,0,P|161:67|102:75,1,120,0|8,0:0|0:0,0:0:0:0:
69,166,91213,2,0,P|75:248|66:298,1,120,6|8,0:0|0:0,0:0:0:0:
144,344,92476,2,0,P|226:338|276:347,1,120,0|8,0:0|0:0,0:0:0:0:
338,284,93739,6,0,P|332:202|341:152,1,120,2|8,0:0|0:0,0:0:0:0:
260,108,95002,2,0,P|178:114|128:105,1,120,0|8,0:0|0:0,0:0:0:0:
71,41,96264,2,0,B|49:73|36:112|57:156|57:156|37:194|41:230|62:274,1,240,2|0,0:0|0:0,0:0:0:0:
135,210,98160,1,8,0:0:0:0:
210,269,98791,6,0,B|228:229|232:193|212:155|212:155|233:111|220:72|198:40,1,240,2|0,0:0|0:0,0:0:0:0:
131,108,100686,1,8,0:0:0:0:
214,156,101318,2,0,P|278:150|343:161,1,120,2|8,0:0|0:0,0:0:0:0:
346,253,102581,2,0,P|405:261|464:255,1,120,0|8,0:0|0:0,0:0:0:0:
508,169,103844,5,2,0:0:0:0:
417,139,104476,2,0,P|412:83|445:5,2,120,8|0|8,0:0|0:0|0:0,0:0:0:0:
327,173,106370,2,0,L|208:179,1,120,2|8,0:0|0:0,0:0:0:0:
186,273,107634,2,0,L|67:279,1,120,0|8,0:0|0:0,0:0:0:0:
51,184,108897,6,0,P|69:140|61:66,1,120,2|8,0:0|0:0,0:0:0:0:
151,32,110160,2,0,P|195:50|269:42,1,120,0|8,0:0|0:0,0:0:0:0:
354,79,111422,2,0,B|383:142|383:142|368:259,2,180,6|2|8,0:0|0:0|0:0,0:0:0:0:
257,78,113948,6,0,B|228:141|228:141|243:258,2,180,2|2|8,0:0|0:0|0:0,0:0:0:0:
179,20,116475,2,0,L|113:140,1,120,2|8,0:0|0:0,0:0:0:0:
137,220,117739,2,0,B|131:266|131:266|137:303|137:303|130:338,1,120,0|8,0:0|0:0,0:0:0:0:
225,353,119002,6,0,L|353:347,1,120,2|8,0:0|0:0,0:0:0:0:
379,257,120265,2,0,L|507:251,1,120,0|8,0:0|0:0,0:0:0:0:
481,157,121527,2,0,P|474:108|488:33,2,120,2|8|0,0:0|0:0|0:0,0:0:0:0:
483,253,123423,1,8,0:0:0:0:
387,249,124055,6,0,P|328:237|268:244,2,120,2|8|0,0:0|0:0|0:0,0:0:0:0:
483,253,125949,1,8,0:0:0:0:
443,165,126580,2,0,P|388:145|309:138,1,120,2|8,0:0|0:0,0:0:0:0:
287,50,127844,2,0,P|228:51|152:72,1,120,0|8,0:0|0:0,0:0:0:0:
107,139,129107,5,2,0:0:0:0:
370,274,131002,1,8,0:0:0:0:
429,198,131634,2,0,P|433:151|411:76,1,120,6|8,0:0|0:0,0:0:0:0:
317,84,132897,2,0,P|299:140|301:200,1,120,0|8,0:0|0:0,0:0:0:0:
227,260,134160,6,0,B|179:258|145:311|145:311|89:254|14:268,1,240,2|0,0:0|0:0,0:0:0:0:
12,171,136055,1,8,0:0:0:0:
85,109,136686,2,0,L|211:100,1,120,6|8,0:0|0:0,0:0:0:0:
225,194,137949,2,0,L|105:202,1,120,0|8,0:0|0:0,0:0:0:0:
103,298,139213,6,0,L|350:281,1,240,2|0,0:0|0:0,0:0:0:0:
436,265,141107,1,8,0:0:0:0:
465,173,141739,2,0,B|475:131|475:131|462:51,1,120,6|8,0:0|0:0,0:0:0:0:
366,59,143001,2,0,B|353:134|353:134|363:176,1,120,0|8,0:0|0:0,0:0:0:0:
417,256,144265,6,0,B|315:285|278:206|278:206|235:231|202:223,1,240,2|0,0:0|0:0,0:0:0:0:
218,128,146160,1,8,0:0:0:0:
128,162,146792,2,2,P|105:220|133:292,2,120,6|8|0,0:0|0:0|0:0,0:0:0:0:
218,128,148686,1,8,0:0:0:0:
256,192,149318,12,2,151844,0:0:0:0:
423,60,161949,6,0,P|434:115|401:182,1,120,6|8,0:0|0:0,0:0:0:0:
340,106,163213,2,0,B|302:107|302:107|249:116|249:116|196:109,1,120,0|8,0:0|0:0,0:0:0:0:
126,133,164476,2,0,L|135:261,1,120,2|8,0:0|0:0,0:0:0:0:
43,228,165739,2,0,L|52:356,1,120,0|8,0:0|0:0,0:0:0:0:
146,336,167002,6,0,B|269:358|269:315|388:338,1,240,2|0,0:0|0:0,0:0:0:0:
480,327,168897,1,8,0:0:0:0:
441,239,169528,2,0,P|430:168|445:102,1,120,2|8,0:0|0:0,0:0:0:0:
352,76,170792,2,0,P|281:87|215:72,1,120,0|8,0:0|0:0,0:0:0:0:
256,192,172055,12,4,174581,0:0:0:0:
111,133,194792,5,6,0:0:0:0:
68,218,195423,2,0,L|63:344,2,120,8|0|0,0:0|0:0|0:0,0:0:0:0:
111,133,197318,2,0,L|242:123,1,120,2|0,0:0|0:0,0:0:0:0:
283,43,198581,2,0,L|414:33,1,120,0|8,0:0|0:0,0:0:0:0:
477,94,199844,5,6,0:0:0:0:
429,177,200476,2,0,P|419:251|439:315,2,120,8|0|0,0:0|0:0|0:0,0:0:0:0:
383,92,202371,2,0,P|338:106|264:94,1,120,2|8,0:0|0:0,0:0:0:0:
181,138,203634,2,0,P|122:126|65:141,1,120,0|8,0:0|0:0,0:0:0:0:
64,332,205528,6,0,B|132:329|132:329|199:349,2,120,8|0|8,0:0|0:0|0:0,0:0:0:0:
37,239,207423,2,0,L|162:233,1,120,2|8,0:0|0:0,0:0:0:0:
137,139,208686,2,0,L|262:133,1,120,0|8,0:0|0:0,0:0:0:0:
340,85,209949,5,6,0:0:0:0:
425,137,210580,2,0,P|441:204|424:271,2,120,8|0|8,0:0|0:0|0:0,0:0:0:0:
346,83,212475,2,0,B|279:72|280:107|210:79,1,120,2|8,0:0|0:0,0:0:0:0:
186,171,213738,2,0,B|119:160|120:195|50:167,1,120,0|8,0:0|0:0,0:0:0:0:
100,84,215002,5,4,0:0:0:0:
424,289,217527,5,2,0:0:0:0:
93,93,220054,5,2,0:0:0:0:
476,68,222580,5,2,0:0:0:0:
170,300,225106,5,2,0:0:0:0:
505,113,227633,5,2,0:0:0:0:
124,62,230159,5,2,0:0:0:0:
431,291,232685,5,2,0:0:0:0:
105,87,235212,6,0,P|126:142|95:274,1,180
