osu file format v14

[General]
AudioFilename: Evil.mp3
AudioLeadIn: 0
PreviewTime: 73428
Countdown: 0
SampleSet: Soft
StackLeniency: 0.3
Mode: 0
LetterboxInBreaks: 0
WidescreenStoryboard: 0

[Editor]
Bookmarks: 14795,29564,44333,59102,73872,88641
DistanceSpacing: 1.2
BeatDivisor: 4
GridSize: 4
TimelineZoom: 2.7

[Metadata]
Title:Intro : Boy Meets Evil
TitleUnicode:Intro : Boy Meets Evil
Artist:BTS
ArtistUnicode:방탄소년단
Creator:My Angel Kanan
Version:Xiaotruck's Hard
Source:
Tags:K-pop Kpop BigHit Entertainment 빅히트엔터테인먼트 Bangtan Boys J-Hope 랩몬스터 진 슈가 제이홉 지민 뷔 정국 Wings Trilogy Xiaolin Lapis Aoki Firetruck -_Frontier_- Shockolatte Beyond the Scene
BeatmapID:1323128
BeatmapSetID:623205

[Difficulty]
HPDrainRate:5
CircleSize:4
OverallDifficulty:6
ApproachRate:7.5
SliderMultiplier:1.6
SliderTickRate:1

[Events]
//Background and Video events
0,0,"Jhope[1].jpg",0,0
//Break Periods
//Storyboard Layer 0 (Background)
//Storyboard Layer 1 (Fail)
//Storyboard Layer 2 (Pass)
//Storyboard Layer 3 (Foreground)
//Storyboard Sound Samples

[TimingPoints]
44,461.538461538462,4,2,90,85,1,0
44,-100,4,2,90,85,0,0
14813,-100,4,2,1,60,0,0
14928,-100,4,2,1,60,0,0
15505,-100,4,2,1,60,0,0
43890,-166.666666666667,4,2,1,60,0,0
44351,-100,4,2,1,85,0,0
45274,-100,4,2,1,45,0,0
46197,-125,4,2,1,85,0,0
47120,-125,4,2,1,45,0,0
47813,-125,4,2,1,60,0,0
47928,-125,4,2,1,45,0,0
48044,-125,4,2,1,60,0,0
48967,-125,4,2,1,85,0,0
49890,-125,4,2,1,60,0,0
50467,-125,4,2,1,45,0,0
50582,-125,4,2,1,30,0,0
50697,-125,4,2,1,45,0,0
50813,-125,4,2,1,60,0,0
51736,-125,4,2,1,85,0,0
52428,-125,4,2,1,45,0,0
52659,-125,4,2,1,85,0,0
53351,-125,4,2,1,70,0,0
55428,-125,4,2,1,85,0,0
56236,-125,4,2,1,45,0,0
56351,-125,4,2,1,85,0,0
56928,-125,4,2,1,40,0,0
57274,-100,4,2,90,85,0,0
59120,-100,4,2,1,60,0,0
67428,-100,4,2,1,85,0,0
67890,-100,4,2,1,60,0,0
69274,-100,4,2,1,85,0,0
69620,-100,4,2,1,60,0,0
70197,-100,4,2,90,85,0,0
72967,-100,4,2,90,55,0,0
73890,-83.3333333333333,4,2,90,70,0,1
75736,-83.3333333333333,4,2,99,85,0,1
77120,-83.3333333333333,4,2,90,70,0,1
77582,-83.3333333333333,4,2,99,85,0,1
78505,-83.3333333333333,4,2,90,85,0,1
78967,-83.3333333333333,4,2,90,70,0,1
79428,-83.3333333333333,4,2,90,85,0,1
81274,-83.3333333333333,4,2,99,85,0,1
82197,-83.3333333333333,4,2,90,85,0,1
82659,-83.3333333333333,4,2,1,70,0,1
83120,-83.3333333333333,4,2,99,85,0,1
84505,-83.3333333333333,4,2,90,85,0,1
84967,-83.3333333333333,4,2,99,85,0,1
85890,-83.3333333333333,4,2,90,85,0,1
88197,-83.3333333333333,4,2,90,70,0,1
90505,-83.3333333333333,4,2,99,85,0,1
91890,-83.3333333333333,4,2,90,85,0,1
92351,-83.3333333333333,4,2,99,85,0,1
93274,-83.3333333333333,4,2,90,85,0,1
96044,-83.3333333333333,4,2,99,85,0,1
96967,-83.3333333333333,4,2,90,85,0,1
97428,-83.3333333333333,4,2,1,70,0,1
97890,-83.3333333333333,4,2,90,85,0,1
99736,-83.3333333333333,4,2,99,85,0,1
100659,-83.3333333333333,4,2,90,85,0,1
101582,-83.3333333333333,4,2,99,85,0,1
102044,-83.3333333333333,4,2,90,85,0,1
102505,-83.3333333333333,4,2,99,85,0,1
102967,-83.3333333333333,4,2,90,85,0,1
103428,-100,4,2,99,85,0,0

[Colours]
Combo1 : 81,255,81
Combo2 : 232,0,174
Combo3 : 255,119,53
Combo4 : 255,55,55

[HitObjects]
84,68,44,5,4,0:0:0:0:
448,192,967,1,8,0:0:0:0:
84,68,1890,6,0,L|72:244,2,160,4|0|8,0:0|0:0|0:0,0:0:0:0:
208,32,3120,1,8,0:0:0:0:
208,32,3274,1,0,0:0:0:0:
264,216,3736,6,0,P|300:168|372:320,1,320,4|8,0:0|0:0,0:0:0:0:
96,68,5582,6,0,P|88:128|96:232,1,160,4|0,0:0|0:0,0:0:0:0:
272,304,6505,2,0,P|279:224|270:145,1,160,8|0,0:0|0:0,0:0:0:0:
96,68,7428,5,4,0:0:0:0:
396,304,8351,1,8,0:0:0:0:
96,68,9274,6,0,L|260:60,2,160,4|0|8,0:0|0:0|0:0,0:0:0:0:
56,192,10505,1,8,0:0:0:0:
56,192,10659,1,0,0:0:0:0:
240,252,11120,2,0,P|288:208|456:336,1,320,4|8,0:0|0:0,0:0:0:0:
329,140,12967,6,0,P|281:184|113:56,1,320,4|0,0:0|0:0,0:0:0:0:
112,64,14813,5,2,0:0:0:0:
112,64,15582,2,0,P|124:104|128:124,1,53.3333333333333,0|8,0:0|0:0,0:0:0:0:
84,176,15890,2,0,P|90:201|98:227,1,53.3333333333333
172,236,16197,2,0,L|288:232,1,106.666666666667
340,188,16659,5,2,0:0:0:0:
340,188,17428,2,0,P|360:228|368:236,1,53.3333333333333,0|8,0:0|0:0,0:0:0:0:
332,300,17736,2,0,P|288:290|277:291,1,53.3333333333333,0|8,0:0|0:0,0:0:0:0:
212,256,18044,2,0,P|204:204|156:172,1,106.666666666667
92,200,18505,5,2,0:0:0:0:
92,200,19274,2,0,L|85:139,1,53.3333333333333,0|8,0:0|0:0,0:0:0:0:
112,76,19582,2,0,L|168:68,1,53.3333333333333
240,84,19890,2,0,L|244:197,1,106.666666666667
248,264,20351,6,0,B|292:252|292:252|364:260,1,80,2|0,0:0|0:0,0:0:0:0:
428,300,20813,2,0,L|484:292,2,53.3333333333333,10|8|8,0:0|0:0|0:0,0:0:0:0:
400,232,21274,2,0,L|464:220,2,53.3333333333333,8|8|8,0:0|0:0|0:0,0:0:0:0:
326,255,21736,2,0,B|290:263|290:263|262:251|262:251|226:271|178:255,1,106.666666666667,4|0,0:0|0:0,0:0:0:0:
152,244,22197,5,2,0:0:0:0:
152,244,22967,2,0,L|145:191,1,53.3333333333333,0|8,0:0|0:0,0:0:0:0:
112,124,23274,2,0,L|119:71,1,53.3333333333333,0|8,0:0|0:0,0:0:0:0:
188,40,23582,2,0,L|296:28,1,106.666666666667
360,64,24044,6,0,L|472:48,1,106.666666666667,2|0,0:0|0:0,0:0:0:0:
476,124,24505,2,0,L|468:176,1,53.3333333333333,10|8,0:0|0:0,0:0:0:0:
456,252,24813,1,8,0:0:0:0:
456,252,24967,2,0,L|340:240,1,106.666666666667,10|8,0:0|0:0,0:0:0:0:
280,268,25428,6,0,B|268:224|300:181|300:181|254:179|228:161|228:161|248:113|288:88|288:88|320:96|348:92,1,320,10|0,0:0|0:0,0:0:0:0:
380,198,26582,1,2,0:0:0:0:
345,304,26813,2,0,P|323:328|292:339,1,53.3333333333333,10|8,0:0|0:0,0:0:0:0:
228,336,27120,1,8,0:0:0:0:
172,284,27274,2,0,L|176:212,1,53.3333333333333,10|8,0:0|0:0,0:0:0:0:
172,156,27582,1,8,0:0:0:0:
200,88,27736,6,0,B|188:64|188:64|180:4,1,53.3333333333333,10|0,0:0|0:0,0:0:0:0:
260,40,28044,1,8,0:0:0:0:
336,36,28197,2,0,B|336:58|336:58|324:86,1,53.3333333333333,10|0,0:0|0:0,0:0:0:0:
268,136,28505,1,8,0:0:0:0:
300,204,28659,2,0,L|351:216,1,53.3333333333333,10|0,0:0|0:0,0:0:0:0:
388,284,28967,1,8,0:0:0:0:
324,320,29120,2,0,L|260:304,1,53.3333333333333,10|8,0:0|0:0,0:0:0:0:
200,284,29428,1,8,0:0:0:0:
200,284,29582,6,0,B|123:264|58:305|58:305|98:213|42:215|80:135,1,320,4|0,0:0|0:0,0:0:0:0:
184,32,30813,1,0,0:0:0:0:
184,32,30967,2,0,B|228:26|228:26|262:32|262:32|315:26,1,106.666666666667,10|8,0:0|0:0,0:0:0:0:
360,56,31428,6,0,L|352:144,1,53.3333333333333,10|0,0:0|0:0,0:0:0:0:
400,168,31736,1,8,0:0:0:0:
452,224,31890,2,0,L|524:224,2,53.3333333333333,10|8|8,0:0|0:0|0:0,0:0:0:0:
384,256,32351,2,0,L|292:248,1,53.3333333333333,10|8,0:0|0:0,0:0:0:0:
256,240,32659,1,8,0:0:0:0:
200,188,32813,2,0,P|182:228|180:248,2,53.3333333333333,10|8|8,0:0|0:0|0:0,0:0:0:0:
248,132,33274,6,0,B|298:138|321:111|321:111|357:119|384:138|384:138|440:104|504:128,1,266.666666666667,4|0,0:0|0:0,0:0:0:0:
504,200,34197,1,8,0:0:0:0:
464,304,34428,1,0,0:0:0:0:
352,308,34659,2,0,P|304:320|300:320,2,53.3333333333333,10|8|8,0:0|0:0|0:0,0:0:0:0:
308,248,35120,6,0,P|260:236|256:236,2,53.3333333333333,10|8|8,0:0|0:0|0:0,0:0:0:0:
332,176,35582,2,0,P|307:166|280:164,2,53.3333333333333,10|0|0,0:0|0:0|0:0,0:0:0:0:
384,228,36044,2,0,P|384:254|377:280,1,53.3333333333333,4|0,0:0|0:0,0:0:0:0:
320,328,36351,1,0,0:0:0:0:
248,352,36505,2,0,L|194:357,1,53.3333333333333,4|0,0:0|0:0,0:0:0:0:
120,348,36813,1,0,0:0:0:0:
56,312,36967,6,0,L|2:317,2,53.3333333333333,10|8|8,0:0|0:0|0:0,0:0:0:0:
104,256,37428,2,0,L|158:251,2,53.3333333333333,10|8|0,0:0|0:0|0:0,0:0:0:0:
60,196,37890,2,0,L|6:201,2,53.3333333333333,10|8|0,0:0|0:0|0:0,0:0:0:0:
120,148,38351,2,0,L|174:143,1,53.3333333333333,10|8,0:0|0:0,0:0:0:0:
312,196,38813,6,0,L|248:192,2,53.3333333333333,10|8|8,0:0|0:0|0:0,0:0:0:0:
364,136,39274,2,0,L|396:192,2,53.3333333333333,10|8|8,0:0|0:0|0:0,0:0:0:0:
416,80,39736,2,0,L|448:136,2,53.3333333333333,10|8|0,0:0|0:0|0:0,0:0:0:0:
344,60,40197,2,0,L|276:56,1,53.3333333333333,10|8,0:0|0:0,0:0:0:0:
224,92,40505,1,8,0:0:0:0:
216,168,40659,6,0,P|208:204|204:224,2,53.3333333333333,2|0|0,0:0|0:0|0:0,0:0:0:0:
284,140,41120,2,0,L|339:141,1,53.3333333333333,10|0,0:0|0:0,0:0:0:0:
404,180,41428,1,0,0:0:0:0:
452,236,41582,2,0,L|458:288,2,53.3333333333333,10|0|0,0:0|0:0|0:0,0:0:0:0:
404,180,42044,1,10,0:0:0:0:
376,106,42197,2,0,P|353:119|337:140,1,53.3333333333333
312,212,42505,6,0,P|260:223|212:202,1,106.666666666667,10|0,0:0|0:0,0:0:0:0:
144,172,42967,2,0,P|128:236|176:296,1,106.666666666667,8|0,0:0|0:0,0:0:0:0:
208,308,43428,2,0,P|233:299|259:294,1,53.3333333333333,2|0,0:0|0:0,0:0:0:0:
336,276,43736,1,0,0:0:0:0:
336,276,43890,2,0,L|317:210,1,63.9999980468751,0|0,0:0|0:0,0:0:0:0:
360,144,44351,6,0,P|320:160|64:96,1,320,4|0,0:0|0:0,0:0:0:0:
64,96,46197,2,0,L|76:352,1,256,4|0,0:0|0:0,0:0:0:0:
256,280,47582,1,0,0:0:0:0:
436,344,48044,6,0,L|448:88,1,256,2|4,0:0|0:0,0:0:0:0:
256,64,49428,1,0,0:0:0:0:
88,152,49890,2,0,P|112:200|192:244,1,128,2|0,0:0|0:0,0:0:0:0:
340,336,50813,2,0,P|285:368|259:420,1,85.3333333333333,2|0,0:0|0:0,0:0:0:0:
256,128,51736,6,0,P|248:76|286:12,1,128,4|0,0:0|0:0,0:0:0:0:
340,92,52428,1,0,0:0:0:0:
340,92,52659,2,0,P|374:144|368:206,1,128,4|0,0:0|0:0,0:0:0:0:
304,280,53351,1,0,0:0:0:0:
304,280,53467,1,0,0:0:0:0:
304,280,53582,6,0,P|256:264|184:264,1,96,2|2,0:0|0:0,0:0:0:0:
100,352,54274,1,2,0:0:0:0:
56,268,54505,2,0,L|52:204,1,64,2|2,0:0|0:0,0:0:0:0:
100,120,54967,2,0,L|176:127,1,64,2|2,0:0|0:0,0:0:0:0:
262,122,55428,6,0,P|244:200|239:268,1,128,4|0,0:0|0:0,0:0:0:0:
88,336,56351,2,0,P|81:272|66:210,1,128,4|0,0:0|0:0,0:0:0:0:
196,152,57044,1,2,0:0:0:0:
196,152,57159,1,2,0:0:0:0:
196,152,57274,6,0,L|208:64,1,80,4|0,0:0|0:0,0:0:0:0:
116,140,57736,2,0,L|132:40,1,80,4|0,0:0|0:0,0:0:0:0:
66,210,58197,2,0,L|38:164,2,53.3333333333333,8|8|8,0:0|0:0|0:0,0:0:0:0:
88,248,58659,2,0,B|112:284|112:284|120:340,1,80,4|0,0:0|0:0,0:0:0:0:
208,348,59120,6,0,P|264:328|320:344,1,120,2|0,0:0|0:0,0:0:0:0:
360,368,59582,2,0,L|368:280,1,80,2|8,0:0|0:0,0:0:0:0:
428,212,60044,2,0,L|420:124,1,80,2|0,0:0|0:0,0:0:0:0:
336,84,60505,2,0,P|296:90|258:80,1,80,8|0,0:0|0:0,0:0:0:0:
212,64,60851,1,0,0:0:0:0:
212,64,60967,6,0,L|224:172,1,80,2|8,0:0|0:0,0:0:0:0:
224,192,61313,1,0,0:0:0:0:
224,192,61428,2,0,L|132:180,1,80,2|8,0:0|0:0,0:0:0:0:
168,276,61890,2,0,B|232:288|232:288|300:264,1,120,2|0,0:0|0:0,0:0:0:0:
324,240,62351,2,0,P|364:216|444:252,1,120,2|0,0:0|0:0,0:0:0:0:
472,256,62813,6,0,L|484:148,1,80,2|8,0:0|0:0,0:0:0:0:
432,96,63274,2,0,P|388:84|348:88,1,80,2|8,0:0|0:0,0:0:0:0:
276,144,63736,2,0,P|232:156|192:152,1,80,2|8,0:0|0:0,0:0:0:0:
108,124,64197,2,0,L|116:203,1,80,2|8,0:0|0:0,0:0:0:0:
180,276,64659,6,0,B|216:260|216:260|260:268,1,80,2|2,0:0|0:0,0:0:0:0:
340,312,65120,1,2,0:0:0:0:
340,312,65236,2,0,P|380:292|428:296,1,80,2|2,0:0|0:0,0:0:0:0:
456,312,65582,1,10,0:0:0:0:
464,216,65813,1,10,0:0:0:0:
400,144,66044,2,0,P|360:142|325:124,1,80,2|0,0:0|0:0,0:0:0:0:
248,68,66505,6,0,L|176:76,2,53.3333333333333,8|8|8,0:0|0:0|0:0,0:0:0:0:
236,144,66967,2,0,L|182:149,2,53.3333333333333,8|8|8,0:0|0:0|0:0,0:0:0:0:
260,216,67428,2,0,L|92:236,1,160,4|0,0:0|0:0,0:0:0:0:
232,340,68197,1,0,0:0:0:0:
232,340,68351,6,0,L|304:332,2,53.3333333333333,10|8|8,0:0|0:0|0:0,0:0:0:0:
244,264,68813,2,0,L|297:258,2,53.3333333333333,8|8|8,0:0|0:0|0:0,0:0:0:0:
220,192,69274,2,0,L|388:172,1,160,4|8,0:0|0:0,0:0:0:0:
408,48,69967,1,8,0:0:0:0:
288,40,70197,6,0,L|148:56,1,120,4|0,0:0|0:0,0:0:0:0:
124,68,70659,2,0,L|156:208,1,120,4|0,0:0|0:0,0:0:0:0:
192,212,71120,2,0,L|311:198,1,120,4|0,0:0|0:0,0:0:0:0:
360,192,71582,5,8,0:0:0:0:
452,208,71813,1,8,0:0:0:0:
452,208,72044,6,0,P|438:156|440:108,1,80,8|8,0:0|0:0,0:0:0:0:
392,44,72505,2,0,P|325:55|292:76,1,80,8|8,0:0|0:0,0:0:0:0:
256,136,72967,1,0,0:0:0:0:
174,313,73428,1,0,0:0:0:0:
174,313,73890,6,0,B|124:288|124:288|56:292|56:292|44:256|72:220|72:220|96:176|76:120,1,287.999991210938,8|0,0:0|0:0,0:0:0:0:
32,52,74813,1,2,0:0:0:0:
32,52,75274,1,0,0:0:0:0:
224,72,75736,6,0,L|364:84,1,127.99999609375,4|0,0:0|0:0,0:0:0:0:
364,160,76197,2,0,L|236:148,1,127.99999609375,4|0,0:0|0:0,0:0:0:0:
224,224,76659,2,0,L|352:236,1,127.99999609375,4|0,0:0|0:0,0:0:0:0:
380,308,77120,2,0,L|316:308,1,47.9999985351563,8|0,0:0|0:0,0:0:0:0:
288,337,77351,2,0,L|228:324,1,47.9999985351563,8|0,0:0|0:0,0:0:0:0:
196,316,77582,6,0,B|169:324|154:349|154:349|124:342|90:354|90:354|101:313|87:275|87:275|53:243|53:243|36:180,1,287.999991210938,2|0,0:0|0:0,0:0:0:0:
88,120,78505,1,2,0:0:0:0:
88,120,78967,2,0,L|164:128,1,47.9999985351563,8|0,0:0|0:0,0:0:0:0:
168,160,79197,2,0,L|244:168,1,47.9999985351563,8|0,0:0|0:0,0:0:0:0:
264,172,79428,5,4,0:0:0:0:
452,204,79890,2,0,L|444:260,1,47.9999985351563,8|0,0:0|0:0,0:0:0:0:
460,296,80120,2,0,L|452:352,1,47.9999985351563,8|0,0:0|0:0,0:0:0:0:
412,372,80351,1,4,0:0:0:0:
236,296,80813,1,8,0:0:0:0:
124,140,81274,6,0,B|148:200|184:224|184:224|196:172|232:148|232:148|276:164|276:164|300:148|324:152,1,287.999991210938,2|0,0:0|0:0,0:0:0:0:
412,172,82197,1,2,0:0:0:0:
412,172,82659,1,0,0:0:0:0:
260,284,83120,6,0,P|193:294|124:272,1,127.99999609375,4|0,0:0|0:0,0:0:0:0:
84,220,83582,2,0,P|67:154|81:83,1,127.99999609375,4|0,0:0|0:0,0:0:0:0:
132,40,84044,2,0,P|193:24|256:34,1,127.99999609375,4|0,0:0|0:0,0:0:0:0:
308,92,84505,2,0,L|380:88,1,47.9999985351563,8|0,0:0|0:0,0:0:0:0:
400,104,84736,2,0,L|472:100,1,47.9999985351563
496,108,84967,6,0,B|451:134|439:182|439:182|473:186|489:199|489:199|435:243|433:282|433:282|471:324,1,287.999991210938,2|0,0:0|0:0,0:0:0:0:
376,360,85890,1,2,0:0:0:0:
376,360,86351,2,0,P|327:339|316:336,1,47.9999985351563,8|0,0:0|0:0,0:0:0:0:
300,304,86582,2,0,P|251:283|240:280,1,47.9999985351563,8|0,0:0|0:0,0:0:0:0:
208,280,86813,5,4,0:0:0:0:
44,184,87274,2,0,P|36:132|36:124,1,47.9999985351563,8|0,0:0|0:0,0:0:0:0:
8,96,87505,2,0,P|0:44|0:36,1,47.9999985351563,8|0,0:0|0:0,0:0:0:0:
28,8,87736,1,4,0:0:0:0:
212,60,88197,1,8,0:0:0:0:
292,232,88659,6,0,B|260:203|196:202|153:242|153:242|150:208|113:186|86:199|86:199|85:160|51:131,1,287.999991210938,8|0,0:0|0:0,0:0:0:0:
16,80,89582,1,2,0:0:0:0:
16,80,90044,1,0,0:0:0:0:
208,56,90505,6,0,L|368:52,1,143.999995605469,4|0,0:0|0:0,0:0:0:0:
351,125,90967,2,0,L|191:129,1,143.999995605469,4|0,0:0|0:0,0:0:0:0:
207,201,91428,2,0,L|367:197,1,143.999995605469,4|0,0:0|0:0,0:0:0:0:
423,190,91890,1,8,0:0:0:0:
387,298,92120,1,8,0:0:0:0:
275,318,92351,6,0,B|190:313|190:313|189:321|189:321|82:313,1,191.999994140625,2|0,0:0|0:0,0:0:0:0:
20,136,93274,1,2,0:0:0:0:
20,136,93736,1,8,0:0:0:0:
120,80,93967,1,8,0:0:0:0:
200,132,94197,6,0,P|258:166|340:125,1,143.999995605469,4|0,0:0|0:0,0:0:0:0:
376,92,94659,2,0,P|441:68|502:103,1,143.999995605469,8|0,0:0|0:0,0:0:0:0:
488,172,95120,2,0,P|453:232|477:298,1,143.999995605469,4|0,0:0|0:0,0:0:0:0:
444,364,95582,1,8,0:0:0:0:
252,240,96044,6,0,B|203:249|193:266|193:266|169:250|153:227|153:227|102:240|63:260|63:260|40:234|-18:223,1,287.999991210938,2|0,0:0|0:0,0:0:0:0:
40,120,96967,1,2,0:0:0:0:
40,120,97428,1,0,0:0:0:0:
255,43,97890,6,0,B|309:40|309:40|346:45|346:45|430:40,1,143.999995605469,4|0,0:0|0:0,0:0:0:0:
398,114,98351,2,0,B|344:117|344:117|307:112|307:112|223:117,1,143.999995605469,4|0,0:0|0:0,0:0:0:0:
254,186,98813,2,0,B|308:183|308:183|345:188|345:188|429:183,1,143.999995605469,4|0,0:0|0:0,0:0:0:0:
464,160,99274,1,8,0:0:0:0:
456,276,99505,1,0,0:0:0:0:
340,284,99736,6,0,B|297:287|259:307|241:354|241:354|219:330|161:332,1,191.999994140625,2|0,0:0|0:0,0:0:0:0:
64,136,100659,1,2,0:0:0:0:
64,136,101120,1,8,0:0:0:0:
44,248,101351,1,8,0:0:0:0:
152,208,101582,6,0,L|313:206,1,143.999995605469,4|0,0:0|0:0,0:0:0:0:
292,132,102044,2,0,L|148:133,1,143.999995605469,8|0,0:0|0:0,0:0:0:0:
144,60,102505,2,0,L|305:58,1,143.999995605469,4|0,0:0|0:0,0:0:0:0:
356,84,102967,1,8,0:0:0:0:
432,260,103428,5,8,0:0:0:0:
