osu file format v14

[General]
AudioFilename: Evil.mp3
AudioLeadIn: 0
PreviewTime: 73428
Countdown: 0
SampleSet: Soft
StackLeniency: 0.7
Mode: 0
LetterboxInBreaks: 0
WidescreenStoryboard: 0

[Editor]
DistanceSpacing: 1
BeatDivisor: 4
GridSize: 16
TimelineZoom: 1

[Metadata]
Title:Intro : Boy Meets Evil
TitleUnicode:Intro : Boy Meets Evil
Artist:BTS
ArtistUnicode:방탄소년단
Creator:My Angel Kanan
Version:Easy
Source:
Tags:K-pop Kpop BigHit Entertainment 빅히트엔터테인먼트 Bangtan Boys J-Hope 랩몬스터 진 슈가 제이홉 지민 뷔 정국 Wings Trilogy Xiaolin Lapis Aoki Firetruck -_Frontier_- Shockolatte Beyond the Scene
BeatmapID:1313559
BeatmapSetID:623205

[Difficulty]
HPDrainRate:2
CircleSize:3
OverallDifficulty:2
ApproachRate:3
SliderMultiplier:0.9
SliderTickRate:1

[Events]
//Background and Video events
0,0,"Jhope[1].jpg",0,0
//Break Periods
//Storyboard Layer 0 (Background)
//Storyboard Layer 1 (Fail)
//Storyboard Layer 2 (Pass)
//Storyboard Layer 3 (Foreground)
//Storyboard Sound Samples

[TimingPoints]
44,461.538461538462,4,2,90,85,1,0
44,-100,4,2,90,85,0,0
14120,-100,4,2,1,60,0,0
14236,-100,4,2,1,45,0,0
14813,-100,4,2,1,60,0,0
44351,-100,4,2,1,85,0,0
45274,-100,4,2,1,45,0,0
46197,-100,4,2,1,85,0,0
47120,-100,4,2,1,45,0,0
47813,-100,4,2,1,60,0,0
47928,-100,4,2,1,45,0,0
48044,-100,4,2,1,60,0,0
48967,-100,4,2,1,85,0,0
49890,-100,4,2,1,60,0,0
50467,-100,4,2,1,45,0,0
50582,-100,4,2,1,30,0,0
50697,-100,4,2,1,45,0,0
50813,-100,4,2,1,60,0,0
51736,-100,4,2,1,85,0,0
52428,-100,4,2,1,45,0,0
52659,-100,4,2,1,100,0,0
53351,-100,4,2,1,70,0,0
55428,-100,4,2,1,85,0,0
56236,-100,4,2,1,45,0,0
56351,-100,4,2,1,85,0,0
56928,-100,4,2,1,40,0,0
57274,-100,4,2,90,85,0,0
59120,-100,4,2,1,60,0,0
67428,-100,4,2,1,85,0,0
67890,-100,4,2,1,60,0,0
69274,-100,4,2,1,85,0,0
69620,-100,4,2,1,60,0,0
70197,-100,4,2,90,85,0,0
72967,-100,4,2,90,55,0,0
73890,-100,4,2,90,70,0,1
75736,-100,4,2,99,85,0,1
77120,-100,4,2,90,70,0,1
77582,-100,4,2,99,85,0,1
78505,-100,4,2,90,85,0,1
78967,-100,4,2,90,70,0,1
79428,-100,4,2,90,85,0,1
81274,-100,4,2,99,85,0,1
82197,-100,4,2,90,85,0,1
82659,-100,4,2,1,70,0,1
83120,-100,4,2,99,85,0,1
84505,-100,4,2,90,85,0,1
84967,-100,4,2,99,85,0,1
85890,-100,4,2,90,85,0,1
88197,-100,4,2,90,70,0,1
90505,-100,4,2,99,85,0,1
91890,-100,4,2,90,85,0,1
92351,-100,4,2,99,85,0,1
93274,-100,4,2,90,85,0,1
96044,-100,4,2,99,85,0,1
96967,-100,4,2,90,85,0,1
97428,-100,4,2,1,70,0,1
97890,-100,4,2,90,85,0,1
99736,-100,4,2,99,85,0,1
100659,-100,4,2,90,85,0,1
101582,-100,4,2,99,85,0,1
102044,-100,4,2,90,85,0,1
102505,-100,4,2,99,85,0,1
102967,-100,4,2,90,85,0,1
103428,-100,4,2,99,85,0,0

[Colours]
Combo1 : 81,255,81
Combo2 : 232,0,174
Combo3 : 255,119,53
Combo4 : 255,55,55

[HitObjects]
31,49,44,6,0,P|80:38|129:47,1,90,4|0,0:0|0:0,0:0:0:0:
194,91,967,2,0,P|258:99|293:91,1,90,8|0,0:0|0:0,0:0:0:0:
371,79,1890,2,0,B|381:119|381:119|370:179,2,90,4|0|8,0:0|0:0|0:0,0:0:0:0:
289,40,3274,1,0,0:0:0:0:
209,82,3736,6,0,P|196:131|205:183,1,90,4|0,0:0|0:0,0:0:0:0:
191,259,4659,2,0,P|241:250|294:265,1,90,8|0,0:0|0:0,0:0:0:0:
335,327,5582,2,0,B|427:346|427:346|525:326,1,180,4|8,0:0|0:0,0:0:0:0:
499,239,6967,1,0,0:0:0:0:
459,158,7428,6,0,P|412:147|355:158,1,90,4|0,0:0|0:0,0:0:0:0:
294,199,8351,2,0,P|240:211|193:199,1,90,8|0,0:0|0:0,0:0:0:0:
133,151,9274,2,0,B|142:107|142:107|133:47,2,90,4|0|8,0:0|0:0|0:0,0:0:0:0:
65,210,10659,1,0,0:0:0:0:
110,287,11120,6,0,P|161:297|212:286,1,90,4|0,0:0|0:0,0:0:0:0:
281,255,12044,2,0,P|328:244|374:254,1,90,8|0,0:0|0:0,0:0:0:0:
450,287,12967,2,0,B|465:237|465:237|443:98,1,180,4|0,0:0|0:0,0:0:0:0:
265,117,14813,6,0,P|234:110|164:119,1,90,2|0,0:0|0:0,0:0:0:0:
90,141,15736,2,0,L|86:236,1,90,8|0,0:0|0:0,0:0:0:0:
114,316,16659,2,0,P|160:327|206:322,2,90,2|0|8,0:0|0:0|0:0,0:0:0:0:
212,165,18505,6,0,P|258:156|303:162,1,90,2|0,0:0|0:0,0:0:0:0:
367,220,19428,2,0,P|434:231|469:222,1,90,8|0,0:0|0:0,0:0:0:0:
511,156,20351,1,2,0:0:0:0:
438,103,20813,2,0,B|352:103|352:103|279:33,1,180,10|4,0:0|0:0,0:0:0:0:
196,18,22197,6,0,P|146:12|101:21,1,90,2|0,0:0|0:0,0:0:0:0:
42,84,23120,1,8,0:0:0:0:
73,261,24044,1,2,0:0:0:0:
144,206,24505,1,10,0:0:0:0:
217,253,24967,2,0,L|307:254,1,90,10|10,0:0|0:0,0:0:0:0:
379,200,25890,6,0,P|392:159|382:106,1,90,4|0,0:0|0:0,0:0:0:0:
311,61,26813,1,10,0:0:0:0:
228,97,27274,1,10,0:0:0:0:
141,71,27736,2,0,L|36:70,2,90,10|10|10,0:0|0:0|0:0,0:0:0:0:
228,97,29120,1,10,0:0:0:0:
161,157,29582,6,0,P|147:206|156:251,1,90,4|0,0:0|0:0,0:0:0:0:
213,311,30505,1,0,0:0:0:0:
357,202,31428,2,0,L|262:200,2,90,10|10|10,0:0|0:0|0:0,0:0:0:0:
344,112,32813,1,10,0:0:0:0:
265,62,33274,6,0,L|164:62,1,90,4|0,0:0|0:0,0:0:0:0:
89,84,34197,2,0,P|102:136|90:183,1,90,8|10,0:0|0:0,0:0:0:0:
67,256,35120,2,0,B|203:256|203:256|243:238,1,180,10|4,0:0|0:0,0:0:0:0:
389,133,36967,6,0,P|434:125|494:137,1,90,10|10,0:0|0:0,0:0:0:0:
482,220,37890,2,0,P|437:225|392:220,1,90,10|10,0:0|0:0,0:0:0:0:
303,206,38813,2,0,P|315:240|306:301,2,90,10|10|10,0:0|0:0|0:0,0:0:0:0:
272,121,40197,1,10,0:0:0:0:
320,45,40659,6,0,P|234:17|144:43,1,180,2|10,0:0|0:0,0:0:0:0:
99,114,42044,1,10,0:0:0:0:
144,191,42505,2,0,P|229:214|320:190,1,180,10|2,0:0|0:0,0:0:0:0:
495,171,44351,6,0,L|495:75,2,90,4|0|0,0:0|0:0|0:0,0:0:0:0:
382,311,46197,2,0,L|290:313,1,90,4|0,0:0|0:0,0:0:0:0:
202,311,47120,1,0,0:0:0:0:
47,218,48044,6,0,B|77:137|77:137|72:37,1,180,2|4,0:0|0:0,0:0:0:0:
156,12,49428,1,0,0:0:0:0:
241,42,49890,2,0,P|290:33|340:42,1,90,2|0,0:0|0:0,0:0:0:0:
402,91,50813,2,0,P|449:101|495:92,1,90,2|2,0:0|0:0,0:0:0:0:
496,183,51736,6,0,P|485:231|502:287,1,90,4|0,0:0|0:0,0:0:0:0:
431,336,52659,2,0,L|334:333,1,90,4|0,0:0|0:0,0:0:0:0:
259,293,53582,2,0,L|156:294,2,90,2|0|2,0:0|0:0|0:0,0:0:0:0:
294,210,54967,1,2,0:0:0:0:
252,130,55428,6,0,P|246:103|254:34,1,90,4|0,0:0|0:0,0:0:0:0:
163,20,56351,1,4,0:0:0:0:
3,103,57274,1,4,0:0:0:0:
68,167,57736,2,0,L|68:269,1,90,4|8,0:0|0:0,0:0:0:0:
221,294,59120,6,0,L|323:295,1,90,2|2,0:0|0:0,0:0:0:0:
390,251,60044,2,0,L|481:253,1,90,2|8,0:0|0:0,0:0:0:0:
470,163,60967,2,0,P|451:120|461:64,1,90,2|2,0:0|0:0,0:0:0:0:
380,27,61890,1,2,0:0:0:0:
210,79,62813,6,0,L|106:79,1,90,2|2,0:0|0:0,0:0:0:0:
88,163,63736,2,0,L|192:164,1,90,2|2,0:0|0:0,0:0:0:0:
255,209,64659,2,0,P|303:219|357:209,1,90,2|2,0:0|0:0,0:0:0:0:
431,230,65582,1,10,0:0:0:0:
304,358,66505,6,0,P|221:329|120:365,1,180,8|4,0:0|0:0,0:0:0:0:
61,302,67890,1,0,0:0:0:0:
90,217,68351,2,0,L|88:34,1,180,10|4,0:0|0:0,0:0:0:0:
176,21,69736,1,8,0:0:0:0:
265,21,70197,6,0,P|282:78|275:109,2,90,4|4|4,0:0|0:0|0:0,0:0:0:0:
176,21,71582,1,8,0:0:0:0:
129,98,72044,2,0,L|24:98,2,90,8|8|0,0:0|0:0|0:0,0:0:0:0:
289,178,73890,6,0,B|328:285|271:285|303:362,1,180,8|2,0:0|0:0,0:0:0:0:
210,351,75274,1,0,0:0:0:0:
131,306,75736,2,0,P|87:317|43:305,2,90,4|4|4,0:0|0:0|0:0,0:0:0:0:
191,239,77120,1,8,0:0:0:0:
258,179,77582,6,0,B|358:158|357:214|451:180,1,180,2|2,0:0|0:0,0:0:0:0:
484,113,78967,1,8,0:0:0:0:
420,50,79428,2,0,L|322:51,1,90,4|8,0:0|0:0,0:0:0:0:
251,95,80351,2,0,L|156:94,1,90,4|8,0:0|0:0,0:0:0:0:
79,131,81274,6,0,B|54:229|101:233|76:314,1,180,2|2,0:0|0:0,0:0:0:0:
165,328,82659,1,0,0:0:0:0:
246,289,83120,2,0,P|291:299|350:290,2,90,4|4|4,0:0|0:0|0:0,0:0:0:0:
187,220,84505,1,8,0:0:0:0:
234,143,84967,6,0,B|316:99|328:171|414:131,1,180,2|2,0:0|0:0,0:0:0:0:
475,73,86351,1,8,0:0:0:0:
501,159,86813,2,0,P|511:209|496:249,1,90,4|8,0:0|0:0,0:0:0:0:
425,298,87736,2,0,P|377:286|335:295,1,90,4|8,0:0|0:0,0:0:0:0:
249,304,88659,6,0,B|275:220|209:212|242:121,1,180,8|2,0:0|0:0,0:0:0:0:
244,38,90044,1,0,0:0:0:0:
158,65,90505,2,0,P|108:73|56:65,2,90,4|4|4,0:0|0:0|0:0,0:0:0:0:
244,38,91890,1,8,0:0:0:0:
312,96,92351,6,0,B|399:75|398:119|493:97,1,180,2|2,0:0|0:0,0:0:0:0:
500,187,93736,1,8,0:0:0:0:
410,185,94197,2,0,P|357:176|306:185,1,90,4|8,0:0|0:0,0:0:0:0:
237,212,95120,2,0,P|188:218|136:204,1,90,4|8,0:0|0:0,0:0:0:0:
75,156,96044,6,0,B|31:245|88:246|59:332,1,180,2|2,0:0|0:0,0:0:0:0:
147,319,97428,1,0,0:0:0:0:
235,304,97890,2,0,P|280:313|330:304,2,90,4|4|4,0:0|0:0|0:0,0:0:0:0:
179,233,99274,1,8,0:0:0:0:
253,183,99736,6,0,B|214:95|278:95|241:-4,1,180,2|2,0:0|0:0,0:0:0:0:
163,44,101120,1,8,0:0:0:0:
94,102,101582,2,0,L|-2:102,1,90,4|8,0:0|0:0,0:0:0:0:
26,189,102505,2,0,L|134:188,1,90,4|8,0:0|0:0,0:0:0:0:
206,190,103428,5,8,0:0:0:0:
