osu file format v14

[General]
AudioFilename: Evil.mp3
AudioLeadIn: 0
PreviewTime: 73428
Countdown: 0
SampleSet: Soft
StackLeniency: 0.7
Mode: 0
LetterboxInBreaks: 0
WidescreenStoryboard: 0

[Editor]
DistanceSpacing: 1
BeatDivisor: 4
GridSize: 32
TimelineZoom: 1.2

[Metadata]
Title:Intro : Boy Meets Evil
TitleUnicode:Intro : Boy Meets Evil
Artist:BTS
ArtistUnicode:방탄소년단
Creator:My Angel Kanan
Version:Normal
Source:
Tags:K-pop Kpop BigHit Entertainment 빅히트엔터테인먼트 Bangtan Boys J-Hope 랩몬스터 진 슈가 제이홉 지민 뷔 정국 Wings Trilogy Xiaolin Lapis Aoki Firetruck -_Frontier_- Shockolatte Beyond the Scene
BeatmapID:1313560
BeatmapSetID:623205

[Difficulty]
HPDrainRate:3
CircleSize:3.5
OverallDifficulty:4
ApproachRate:5
SliderMultiplier:1
SliderTickRate:1

[Events]
//Background and Video events
0,0,"Jhope[1].jpg",0,0
//Break Periods
//Storyboard Layer 0 (Background)
//Storyboard Layer 1 (Fail)
//Storyboard Layer 2 (Pass)
//Storyboard Layer 3 (Foreground)
//Storyboard Sound Samples

[TimingPoints]
44,461.538461538462,4,2,90,85,1,0
44,-100,4,2,90,85,0,0
14005,-100,4,2,90,85,0,0
14120,-100,4,2,1,60,0,0
14236,-100,4,2,1,45,0,0
44351,-100,4,2,1,85,0,0
45274,-100,4,2,1,45,0,0
46197,-100,4,2,1,85,0,0
46428,-100,4,2,1,85,0,0
47120,-100,4,2,1,45,0,0
47813,-100,4,2,1,60,0,0
47928,-100,4,2,1,45,0,0
48044,-100,4,2,1,60,0,0
48967,-100,4,2,1,85,0,0
49082,-100,4,2,1,85,0,0
49169,-100,4,2,1,85,0,0
49284,-100,4,2,1,85,0,0
49370,-100,4,2,1,85,0,0
49890,-100,4,2,1,60,0,0
50467,-100,4,2,1,45,0,0
50582,-100,4,2,1,30,0,0
50697,-100,4,2,1,45,0,0
50813,-100,4,2,1,60,0,0
50928,-100,4,2,1,60,0,0
51736,-100,4,2,1,85,0,0
52428,-100,4,2,1,45,0,0
52659,-100,4,2,1,85,0,0
53351,-100,4,2,1,70,0,0
55428,-100,4,2,1,85,0,0
56236,-100,4,2,1,45,0,0
56351,-100,4,2,1,85,0,0
56928,-100,4,2,1,40,0,0
57274,-100,4,2,90,85,0,0
59120,-100,4,2,1,60,0,0
67428,-100,4,2,1,85,0,0
67890,-100,4,2,1,60,0,0
69274,-100,4,2,1,85,0,0
69620,-100,4,2,1,60,0,0
70197,-100,4,2,90,85,0,0
72967,-100,4,2,90,55,0,0
73890,-100,4,2,90,70,0,1
75736,-100,4,2,99,85,0,1
77120,-100,4,2,90,70,0,1
77582,-100,4,2,99,85,0,1
78505,-100,4,2,90,85,0,1
78967,-100,4,2,90,70,0,1
79428,-100,4,2,90,85,0,1
81274,-100,4,2,99,85,0,1
82197,-100,4,2,90,85,0,1
82659,-100,4,2,1,70,0,1
83120,-100,4,2,99,85,0,1
84505,-100,4,2,90,85,0,1
84967,-100,4,2,99,85,0,1
85890,-100,4,2,90,85,0,1
88197,-100,4,2,90,70,0,1
90505,-100,4,2,99,85,0,1
91890,-100,4,2,90,85,0,1
92351,-100,4,2,99,85,0,1
93274,-100,4,2,90,85,0,1
96044,-100,4,2,99,85,0,1
96967,-100,4,2,90,85,0,1
97428,-100,4,2,1,70,0,1
97890,-100,4,2,90,85,0,1
99736,-100,4,2,99,85,0,1
100659,-100,4,2,90,85,0,1
101582,-100,4,2,99,85,0,1
102044,-100,4,2,90,85,0,1
102505,-100,4,2,99,85,0,1
102967,-100,4,2,90,85,0,1
103428,-100,4,2,99,85,0,0

[Colours]
Combo1 : 81,255,81
Combo2 : 232,0,174
Combo3 : 255,119,53
Combo4 : 255,55,55

[HitObjects]
60,90,44,6,0,P|43:120|49:189,1,100,4|0,0:0|0:0,0:0:0:0:
120,251,967,2,0,L|231:252,1,100,8|0,0:0|0:0,0:0:0:0:
317,235,1890,2,0,P|325:270|316:348,1,100,4|0,0:0|0:0,0:0:0:0:
220,325,2813,1,8,0:0:0:0:
187,230,3274,1,0,0:0:0:0:
253,154,3736,6,0,P|206:132|147:137,1,100,4|0,0:0|0:0,0:0:0:0:
60,152,4659,2,0,L|61:257,1,100,8|0,0:0|0:0,0:0:0:0:
5,335,5582,2,0,B|112:334,1,100,4|8,0:0|0:0,0:0:0:0:
199,368,6505,1,8,0:0:0:0:
292,332,6967,1,0,0:0:0:0:
344,247,7428,6,0,P|306:234|238:250,1,100,4|0,0:0|0:0,0:0:0:0:
153,276,8351,2,0,L|143:167,1,100,8|0,0:0|0:0,0:0:0:0:
171,80,9274,2,0,P|222:95|275:81,1,100,4|0,0:0|0:0,0:0:0:0:
352,33,10197,1,8,0:0:0:0:
427,99,10659,1,0,0:0:0:0:
342,152,11120,6,0,P|354:215|330:264,1,100,4|0,0:0|0:0,0:0:0:0:
270,316,12044,2,0,P|222:301|175:315,1,100,8|0,0:0|0:0,0:0:0:0:
76,331,12967,2,0,P|83:273|72:226,1,100
41,138,13890,2,0,P|31:84|41:32,1,100
81,15,14582,1,0,0:0:0:0:
128,29,14813,6,0,P|180:18|227:31,1,100,2|0,0:0|0:0,0:0:0:0:
303,91,15736,1,8,0:0:0:0:
359,173,16197,1,0,0:0:0:0:
351,272,16659,2,0,L|251:271,1,100,2|0,0:0|0:0,0:0:0:0:
155,298,17582,1,8,0:0:0:0:
91,220,18044,1,0,0:0:0:0:
134,131,18505,6,0,P|147:76|125:20,1,100,2|0,0:0|0:0,0:0:0:0:
233,18,19428,1,8,0:0:0:0:
326,54,19890,1,0,0:0:0:0:
302,151,20351,2,0,B|367:151|367:151|398:166,1,100,2|10,0:0|0:0,0:0:0:0:
436,198,21044,1,0,0:0:0:0:
461,240,21274,2,0,L|459:340,1,100,8|4,0:0|0:0,0:0:0:0:
359,327,22197,6,0,P|310:317|262:329,1,100,2|0,0:0|0:0,0:0:0:0:
164,349,23120,2,0,P|114:356|66:344,1,100,8|0,0:0|0:0,0:0:0:0:
38,302,23813,1,0,0:0:0:0:
44,252,24044,2,0,P|56:188|47:153,1,100,2|10,0:0|0:0,0:0:0:0:
123,89,24967,2,0,P|170:100|221:87,1,100,10|10,0:0|0:0,0:0:0:0:
281,166,25890,6,0,P|262:231|274:282,1,100,4|0,0:0|0:0,0:0:0:0:
303,295,26582,1,0,0:0:0:0:
345,323,26813,2,0,L|444:324,1,100,10|10,0:0|0:0,0:0:0:0:
477,230,27736,2,0,L|477:162,1,50,10|0,0:0|0:0,0:0:0:0:
444,142,28197,2,0,L|444:91,1,50,10|0,0:0|0:0,0:0:0:0:
418,48,28659,1,10,0:0:0:0:
319,66,29120,1,10,0:0:0:0:
222,40,29582,6,0,L|122:39,1,100,4|0,0:0|0:0,0:0:0:0:
48,106,30505,1,0,0:0:0:0:
96,193,30967,1,10,0:0:0:0:
50,281,31428,2,0,P|98:292|146:280,1,100,10|10,0:0|0:0,0:0:0:0:
193,263,32120,1,0,0:0:0:0:
227,226,32351,2,0,P|276:218|324:228,1,100,10|10,0:0|0:0,0:0:0:0:
418,265,33274,6,0,L|416:159,1,100,4|0,0:0|0:0,0:0:0:0:
362,80,34197,2,0,P|313:67|265:78,1,100,8|10,0:0|0:0,0:0:0:0:
224,107,34890,1,0,0:0:0:0:
176,122,35120,2,0,P|127:131|79:118,1,100,10|10,0:0|0:0,0:0:0:0:
29,205,36044,1,4,0:0:0:0:
108,265,36505,2,0,L|172:255,1,50
206,247,36967,6,0,L|205:147,1,100,10|10,0:0|0:0,0:0:0:0:
298,110,37890,2,0,L|298:209,1,100,10|10,0:0|0:0,0:0:0:0:
353,293,38813,2,0,P|401:302|449:290,1,100,10|10,0:0|0:0,0:0:0:0:
398,203,39736,1,0,0:0:0:0:
298,209,40197,1,10,0:0:0:0:
226,279,40659,6,0,P|173:288|120:279,1,100,2|10,0:0|0:0,0:0:0:0:
91,247,41351,1,0,0:0:0:0:
78,198,41582,2,0,P|98:158|96:97,1,100,10|10,0:0|0:0,0:0:0:0:
109,55,42274,1,0,0:0:0:0:
153,29,42505,2,0,P|207:38|262:29,1,100,10|8,0:0|0:0,0:0:0:0:
354,33,43428,2,0,P|345:90|351:139,1,100,2|0,0:0|0:0,0:0:0:0:
336,231,44351,6,0,P|279:209|205:220,1,125,4|0,0:0|0:0,0:0:0:0:
207,289,45274,2,0,P|260:314|330:306,1,125
378,256,46197,2,0,P|391:213|382:155,1,100,4|0,0:0|0:0,0:0:0:0:
334,72,47120,2,0,P|285:82|225:70,1,100
137,92,48044,6,0,L|137:151,1,50,2|0,0:0|0:0,0:0:0:0:
132,192,48505,2,0,L|133:245,1,50,0|0,0:0|0:0,0:0:0:0:
146,290,48967,2,0,P|193:303|226:290,1,75,4|0,0:0|0:0,0:0:0:0:
336,257,49890,2,0,L|337:199,1,50,2|0,0:0|0:0,0:0:0:0:
309,164,50351,2,0,L|309:88,1,75,0|2,0:0|0:0,0:0:0:0:
391,49,51120,1,0,0:0:0:0:
487,144,51736,6,0,P|430:189|432:261,1,150,4|0,0:0|0:0,0:0:0:0:
453,306,52659,2,0,L|341:306,1,100,4|0,0:0|0:0,0:0:0:0:
254,325,53582,2,0,L|166:321,2,75,2|2|2,0:0|0:0|0:0,0:0:0:0:
281,283,54505,1,2,0:0:0:0:
358,219,54967,1,2,0:0:0:0:
417,299,55428,6,0,P|463:308|486:219,1,150,4|0,0:0|0:0,0:0:0:0:
468,182,56351,2,0,P|451:125|456:76,1,100,4|0,0:0|0:0,0:0:0:0:
380,17,57274,2,0,P|343:21|313:14,1,50,4|0,0:0|0:0,0:0:0:0:
281,8,57736,2,0,P|251:0|226:3,1,50,4|0,0:0|0:0,0:0:0:0:
190,28,58197,2,0,P|178:87|201:131,1,100,8|4,0:0|0:0,0:0:0:0:
219,218,59120,6,0,L|114:219,1,100,2|2,0:0|0:0,0:0:0:0:
41,155,60044,1,2,0:0:0:0:
95,71,60505,1,8,0:0:0:0:
142,56,60736,1,0,0:0:0:0:
188,73,60967,2,0,P|200:137|188:185,1,100,2|2,0:0|0:0,0:0:0:0:
132,248,61890,2,0,P|117:293|131:347,1,100,2|2,0:0|0:0,0:0:0:0:
227,360,62813,6,0,P|275:350|324:359,1,100,2|2,0:0|0:0,0:0:0:0:
373,369,63505,1,8,0:0:0:0:
418,347,63736,2,0,P|438:302|432:253,1,100,2|2,0:0|0:0,0:0:0:0:
372,172,64659,2,0,L|272:172,1,100,2|2,0:0|0:0,0:0:0:0:
184,221,65582,1,10,0:0:0:0:
253,293,66044,1,2,0:0:0:0:
345,255,66505,6,0,P|392:239|441:248,1,100,8|8,0:0|0:0,0:0:0:0:
483,274,67197,1,0,0:0:0:0:
507,230,67428,2,0,L|509:112,1,100,4|0,0:0|0:0,0:0:0:0:
444,52,68351,2,0,L|344:52,1,100,10|8,0:0|0:0,0:0:0:0:
295,66,69044,1,0,0:0:0:0:
249,86,69274,2,0,L|149:86,1,100,4|8,0:0|0:0,0:0:0:0:
95,171,70197,6,0,P|104:216|86:268,1,100,4|4,0:0|0:0,0:0:0:0:
3,211,71120,1,0,0:0:0:0:
3,110,71582,2,0,L|55:75,1,50
88,58,72044,2,0,P|143:47|191:55,1,100,8|8,0:0|0:0,0:0:0:0:
235,61,72736,1,0,0:0:0:0:
282,77,72967,1,0,0:0:0:0:
367,129,73428,1,0,0:0:0:0:
323,220,73890,6,0,L|320:319,1,100,8|8,0:0|0:0,0:0:0:0:
222,340,74813,1,2,0:0:0:0:
142,279,75274,1,0,0:0:0:0:
202,201,75736,2,0,L|251:200,1,50,4|0,0:0|0:0,0:0:0:0:
297,222,76197,2,0,L|346:221,1,50,4|0,0:0|0:0,0:0:0:0:
391,245,76659,2,0,L|497:246,1,100,4|8,0:0|0:0,0:0:0:0:
505,198,77351,1,8,0:0:0:0:
473,159,77582,6,0,P|485:104|475:58,1,100,2|0,0:0|0:0,0:0:0:0:
389,11,78505,1,2,0:0:0:0:
303,63,78967,1,8,0:0:0:0:
256,44,79197,1,8,0:0:0:0:
206,49,79428,2,0,L|88:48,1,100,4|8,0:0|0:0,0:0:0:0:
59,65,80120,1,8,0:0:0:0:
22,99,80351,2,0,P|10:140|21:203,1,100,4|8,0:0|0:0,0:0:0:0:
101,251,81274,6,0,B|152:240|152:240|211:254,1,100,2|0,0:0|0:0,0:0:0:0:
291,288,82197,1,2,0:0:0:0:
360,216,82659,1,0,0:0:0:0:
290,143,83120,2,0,L|233:141,1,50,4|0,0:0|0:0,0:0:0:0:
191,155,83582,2,0,L|134:155,1,50,4|0,0:0|0:0,0:0:0:0:
100,184,84044,2,0,P|90:146|110:78,1,100,4|8,0:0|0:0,0:0:0:0:
147,63,84736,1,0,0:0:0:0:
196,60,84967,6,0,P|245:74|295:61,1,100,2|0,0:0|0:0,0:0:0:0:
384,26,85890,1,2,0:0:0:0:
439,109,86351,1,8,0:0:0:0:
406,146,86582,1,8,0:0:0:0:
370,181,86813,2,0,P|311:193|264:182,1,100,4|8,0:0|0:0,0:0:0:0:
227,164,87505,1,8,0:0:0:0:
179,147,87736,2,0,B|124:133|124:133|71:151,1,100,4|8,0:0|0:0,0:0:0:0:
86,246,88659,6,0,B|136:258|136:258|183:242,1,100,8|8,0:0|0:0,0:0:0:0:
267,189,89582,1,2,0:0:0:0:
268,289,90044,1,0,0:0:0:0:
342,356,90505,2,0,L|393:358,1,50,4|0,0:0|0:0,0:0:0:0:
432,327,90967,2,0,L|493:327,1,50,4|0,0:0|0:0,0:0:0:0:
509,285,91428,2,0,P|519:229|509:183,1,100,4|8,0:0|0:0,0:0:0:0:
475,93,92351,6,0,P|420:103|361:88,1,100,2|0,0:0|0:0,0:0:0:0:
291,42,93274,1,2,0:0:0:0:
193,65,93736,1,8,0:0:0:0:
143,56,93967,1,8,0:0:0:0:
96,73,94197,2,0,L|97:180,1,100,4|8,0:0|0:0,0:0:0:0:
94,223,94890,1,8,0:0:0:0:
137,246,95120,2,0,L|247:244,1,100,4|8,0:0|0:0,0:0:0:0:
324,194,96044,6,0,B|374:208|374:208|434:188,1,100,2|0,0:0|0:0,0:0:0:0:
491,120,96967,1,2,0:0:0:0:
432,38,97428,1,0,0:0:0:0:
365,113,97890,2,0,L|302:113,1,50,4|0,0:0|0:0,0:0:0:0:
273,141,98351,2,0,L|221:140,1,50,4|0,0:0|0:0,0:0:0:0:
188,176,98813,2,0,L|66:176,1,100,4|8,0:0|0:0,0:0:0:0:
38,183,99505,1,0,0:0:0:0:
10,141,99736,6,0,P|6:93|30:32,1,100,2|0,0:0|0:0,0:0:0:0:
117,13,100659,1,2,0:0:0:0:
204,60,101120,1,8,0:0:0:0:
251,43,101351,1,8,0:0:0:0:
297,24,101582,2,0,P|350:14|403:24,1,100,4|8,0:0|0:0,0:0:0:0:
444,28,102274,1,8,0:0:0:0:
466,72,102505,2,0,P|474:126|466:174,1,100,4|8,0:0|0:0,0:0:0:0:
457,219,103197,1,0,0:0:0:0:
433,263,103428,5,8,0:0:0:0:
