osu file format v14

[General]
AudioFilename: Evil.mp3
AudioLeadIn: 0
PreviewTime: 73428
Countdown: 0
SampleSet: Soft
StackLeniency: 0.3
Mode: 0
LetterboxInBreaks: 0
WidescreenStoryboard: 0

[Editor]
DistanceSpacing: 1.1
BeatDivisor: 4
GridSize: 16
TimelineZoom: 3.599999

[Metadata]
Title:Intro : Boy Meets Evil
TitleUnicode:Intro : Boy Meets Evil
Artist:BTS
ArtistUnicode:방탄소년단
Creator:My Angel Kanan
Version:Frontier's Insane
Source:
Tags:K-pop Kpop BigHit Entertainment 빅히트엔터테인먼트 Bangtan Boys J-Hope 랩몬스터 진 슈가 제이홉 지민 뷔 정국 Wings Trilogy Xiaolin Lapis Aoki Firetruck -_Frontier_- Shockolatte Beyond the Scene
BeatmapID:1324385
BeatmapSetID:623205

[Difficulty]
HPDrainRate:6
CircleSize:4.5
OverallDifficulty:7
ApproachRate:8.5
SliderMultiplier:2.4
SliderTickRate:1

[Events]
//Background and Video events
0,0,"Jhope[1].jpg",0,0
//Break Periods
//Storyboard Layer 0 (Background)
//Storyboard Layer 1 (Fail)
//Storyboard Layer 2 (Pass)
//Storyboard Layer 3 (Foreground)
//Storyboard Sound Samples

[TimingPoints]
44,461.538461538462,4,2,90,85,1,0
44,-200,4,2,90,85,0,0
14005,-133.333333333333,4,2,90,85,0,0
14120,-133.333333333333,4,2,1,60,0,0
14236,-133.333333333333,4,2,1,60,0,0
14813,-117.647058823529,4,2,1,60,0,0
18044,-86.9565217391304,4,2,1,60,0,0
18505,-117.647058823529,4,2,1,60,0,0
21736,-86.9565217391304,4,2,1,60,0,0
22197,-117.647058823529,4,2,1,60,0,0
24044,-80,4,2,1,60,0,0
24505,-117.647058823529,4,2,1,60,0,0
34197,-74.0740740740741,4,2,1,60,0,0
34659,-117.647058823529,4,2,1,60,0,0
40659,-100,4,2,1,60,0,0
44351,-200,4,2,1,85,0,0
45274,-200,4,2,1,45,0,0
46197,-200,4,2,1,85,0,0
47120,-200,4,2,1,45,0,0
47813,-200,4,2,1,60,0,0
47928,-200,4,2,1,45,0,0
48044,-200,4,2,1,60,0,0
48967,-200,4,2,1,85,0,0
49890,-133.333333333333,4,2,1,60,0,0
50467,-133.333333333333,4,2,1,45,0,0
50582,-133.333333333333,4,2,1,30,0,0
50697,-133.333333333333,4,2,1,45,0,0
50813,-133.333333333333,4,2,1,60,0,0
51736,-153.846153846154,4,2,1,85,0,0
52428,-153.846153846154,4,2,1,45,0,0
52659,-153.846153846154,4,2,1,85,0,0
53351,-153.846153846154,4,2,1,70,0,0
55428,-153.846153846154,4,2,1,85,0,0
56236,-153.846153846154,4,2,1,45,0,0
56351,-153.846153846154,4,2,1,85,0,0
56928,-153.846153846154,4,2,1,40,0,0
57274,-80,4,2,90,85,0,0
59120,-80,4,2,1,60,0,0
66044,-100,4,2,1,60,0,0
66505,-133.333333333333,4,2,1,60,0,0
67428,-133.333333333333,4,2,1,85,0,0
67890,-133.333333333333,4,2,1,60,0,0
69274,-133.333333333333,4,2,1,85,0,0
69620,-133.333333333333,4,2,1,60,0,0
70197,-80,4,2,1,60,0,0
72044,-100,4,2,90,85,0,0
72967,-200,4,2,90,55,0,0
73890,-160,4,2,90,70,0,1
74813,-80,4,2,90,70,0,1
75736,-80,4,2,99,85,0,1
77120,-80,4,2,90,70,0,1
77582,-160,4,2,99,85,0,1
78505,-160,4,2,90,85,0,1
78967,-80,4,2,90,70,0,1
79428,-80,4,2,90,85,0,1
80813,-160,4,2,90,85,0,1
81274,-160,4,2,99,85,0,1
82197,-160,4,2,90,85,0,1
82659,-80,4,2,1,70,0,1
83120,-80,4,2,99,85,0,1
84505,-80,4,2,90,85,0,1
84967,-100,4,2,99,85,0,1
85890,-100,4,2,90,85,0,1
86351,-80,4,2,90,85,0,1
88197,-160,4,2,90,70,0,1
89582,-80,4,2,90,70,0,1
90505,-80,4,2,99,85,0,1
91890,-80,4,2,90,85,0,1
92351,-160,4,2,99,85,0,1
93274,-160,4,2,90,85,0,1
93736,-80,4,2,90,85,0,1
95582,-160,4,2,90,85,0,1
96044,-160,4,2,99,85,0,1
96967,-160,4,2,90,85,0,1
97428,-80,4,2,1,70,0,1
97890,-80,4,2,90,85,0,1
99736,-100,4,2,99,85,0,1
100659,-100,4,2,90,85,0,1
101120,-80,4,2,90,85,0,1
101582,-80,4,2,99,85,0,1
102044,-80,4,2,90,85,0,1
102505,-80,4,2,99,85,0,1
102967,-160,4,2,90,85,0,1
103428,-80,4,2,99,85,0,0

[Colours]
Combo1 : 81,255,81
Combo2 : 232,0,174
Combo3 : 255,119,53
Combo4 : 255,55,55

[HitObjects]
64,64,44,6,0,P|129:157|242:139,1,240,4|8,0:0|0:0,0:0:0:0:
248,136,1890,2,0,L|239:255,1,120,4|0,0:0|0:0,0:0:0:0:
340,320,2813,2,0,B|354:281|354:281|348:242,1,80,8|8,0:0|0:0,0:0:0:0:
343,203,3274,1,0,0:0:0:0:
429,119,3736,6,0,B|306:149|320:66|196:94,1,240,4|8,0:0|0:0,0:0:0:0:
187,99,5582,2,0,L|198:218,1,120,4|0,0:0|0:0,0:0:0:0:
101,288,6505,2,0,L|108:208,1,80,8|8,0:0|0:0,0:0:0:0:
96,170,6967,1,0,0:0:0:0:
187,99,7428,6,0,B|247:135|247:135|416:119,1,240,4|8,0:0|0:0,0:0:0:0:
424,118,9274,2,0,P|388:165|390:224,1,120,4|0,0:0|0:0,0:0:0:0:
447,329,10197,2,0,P|410:344|371:339,1,80,8|8,0:0|0:0,0:0:0:0:
334,322,10659,1,0,0:0:0:0:
228,379,11120,6,0,L|238:139,1,240,4|8,0:0|0:0,0:0:0:0:
236,132,12967,6,0,B|169:152|124:113|124:113|127:160|166:193|209:178,1,240,4|0,0:0|0:0,0:0:0:0:
305,232,14005,6,0,L|349:229,1,45.0000017166138,0|0,0:0|0:0,0:0:0:0:
441,192,14236,1,0,0:0:0:0:
491,277,14351,5,0,0:0:0:0:
480,320,14467,1,0,0:0:0:0:
451,353,14582,1,0,0:0:0:0:
409,368,14697,1,0,0:0:0:0:
365,361,14813,6,0,B|306:343|306:343|165:363,1,204.000003890991,2|0,0:0|0:0,0:0:0:0:
73,262,15582,1,0,0:0:0:0:
130,213,15736,2,0,B|197:222,2,68.0000012969971,8|0|0,0:0|0:0|0:0,0:0:0:0:
73,262,16197,2,0,P|54:215|68:167,1,102.000001945496,0|2,0:0|0:0,0:0:0:0:
0,77,16659,6,0,B|103:102|91:32|197:55,1,204.000003890991,2|0,0:0|0:0,0:0:0:0:
291,172,17428,1,0,0:0:0:0:
224,209,17582,2,0,P|193:220|160:211,2,68.0000012969971,8|0|0,0:0|0:0|0:0,0:0:0:0:
291,248,18044,6,0,L|428:240,1,138.000002632141,0|2,0:0|0:0,0:0:0:0:
394,134,18505,6,0,L|190:123,1,204.000003890991,2|0,0:0|0:0,0:0:0:0:
82,227,19274,1,0,0:0:0:0:
134,280,19428,2,0,L|201:276,2,68.0000012969971,8|0|0,0:0|0:0|0:0,0:0:0:0:
81,227,19890,2,0,P|59:271|70:320,1,102.000001945496,0|2,0:0|0:0,0:0:0:0:
201,275,20351,6,0,P|218:211|195:148,1,136.000002593994,2|0,0:0|0:0,0:0:0:0:
129,112,20813,2,0,L|61:116,2,68.0000012969971,10|8|8,0:0|0:0|0:0,0:0:0:0:
195,74,21274,2,0,L|225:13,2,68.0000012969971,8|8|8,0:0|0:0|0:0,0:0:0:0:
195,148,21736,6,0,L|332:138,1,138.000002632141,4|0,0:0|0:0,0:0:0:0:
419,67,22197,6,0,P|351:138|367:236,1,204.000003890991,2|0,0:0|0:0,0:0:0:0:
461,351,22967,1,0,0:0:0:0:
502,289,23120,2,0,L|497:221,2,68.0000012969971,8|0|0,0:0|0:0|0:0,0:0:0:0:
461,351,23582,2,0,L|325:341,1,136.000002593994
293,247,24044,6,0,B|308:234|320:192|320:192|357:232|365:298|325:339,1,225,2|0,0:0|0:0,0:0:0:0:
254,316,24505,6,0,L|186:311,2,68.0000012969971,10|8|8,0:0|0:0|0:0,0:0:0:0:
292,247,24967,2,0,L|224:242,2,68.0000012969971,10|8|8,0:0|0:0|0:0,0:0:0:0:
330,178,25428,2,0,L|228:170,1,102.000001945496,10|8,0:0|0:0,0:0:0:0:
126,112,25890,6,0,P|247:114|164:202,1,306.000005836487,4|2,0:0|0:0,0:0:0:0:
68,189,26813,6,0,L|0:184,2,68.0000012969971,10|8|8,0:0|0:0|0:0,0:0:0:0:
127,112,27274,2,0,L|165:55,2,68.0000012969971,10|8|8,0:0|0:0|0:0,0:0:0:0:
164,202,27736,6,0,L|195:265,1,68.0000012969971,10|0,0:0|0:0,0:0:0:0:
226,329,28044,1,8,0:0:0:0:
304,210,28197,2,0,L|233:205,1,68.0000012969971,10|0,0:0|0:0,0:0:0:0:
164,202,28505,1,8,0:0:0:0:
226,329,28659,2,0,L|264:269,1,68.0000012969971,10|0,0:0|0:0,0:0:0:0:
303,210,28967,1,8,0:0:0:0:
367,337,29120,2,0,L|296:332,2,68.0000012969971,10|8|8,0:0|0:0|0:0,0:0:0:0:
303,210,29582,6,0,L|514:223,1,204.000003890991,4|0,0:0|0:0,0:0:0:0:
354,53,30505,1,0,0:0:0:0:
224,128,30813,1,0,0:0:0:0:
174,71,30967,2,0,L|106:66,2,68.0000012969971,10|8|8,0:0|0:0|0:0,0:0:0:0:
224,128,31428,6,0,L|292:123,2,68.0000012969971,10|8|8,0:0|0:0|0:0,0:0:0:0:
150,143,31890,2,0,L|120:204,2,68.0000012969971,10|8|8,0:0|0:0|0:0,0:0:0:0:
174,71,32351,2,0,L|135:14,2,68.0000012969971,10|8|8,0:0|0:0|0:0,0:0:0:0:
200,200,32813,2,0,L|238:256,2,68.0000012969971,10|8|8,0:0|0:0|0:0,0:0:0:0:
299,113,33274,6,0,L|502:98,1,204.000003890991,4|0,0:0|0:0,0:0:0:0:
318,202,34197,2,0,B|267:202|240:170|240:170|260:243|229:298,1,216.000000823975,8|0,0:0|0:0,0:0:0:0:
255,373,34659,6,0,L|322:377,2,68.0000012969971,10|8|8,0:0|0:0|0:0,0:0:0:0:
308,306,35120,2,0,L|312:238,2,68.0000012969971,10|8|8,0:0|0:0|0:0,0:0:0:0:
190,249,35582,5,10,0:0:0:0:
190,249,35697,2,0,L|139:245,2,51.0000009727478,8|8|8,0:0|0:0|0:0,0:0:0:0:
75,321,36044,6,0,P|44:253|64:181,1,153.000002918243,4|0,0:0|0:0,0:0:0:0:
31,109,36505,2,0,B|108:90|99:142|178:125,1,153.000002918243,4|0,0:0|0:0,0:0:0:0:
241,80,36967,6,0,L|236:12,2,68.0000012969971,10|8|8,0:0|0:0|0:0,0:0:0:0:
248,156,37428,2,0,L|310:186,1,68.0000012969971,10|8,0:0|0:0,0:0:0:0:
448,96,37774,5,0,0:0:0:0:
448,96,37890,2,0,P|415:88|382:95,2,68.0000012969971,10|8|8,0:0|0:0|0:0,0:0:0:0:
492,156,38351,2,0,L|487:224,1,68.0000012969971,10|8,0:0|0:0,0:0:0:0:
383,333,38813,6,0,L|378:265,2,68.0000012969971,10|8|8,0:0|0:0|0:0,0:0:0:0:
298,287,39274,2,0,L|303:219,2,68.0000012969971,10|8|8,0:0|0:0|0:0,0:0:0:0:
213,333,39736,2,0,L|208:265,2,68.0000012969971,10|8|8,0:0|0:0|0:0,0:0:0:0:
128,287,40197,2,0,L|133:219,2,68.0000012969971,10|8|8,0:0|0:0|0:0,0:0:0:0:
55,322,40659,6,0,L|46:203,1,120,2|8,0:0|0:0,0:0:0:0:
133,140,41005,1,8,0:0:0:0:
133,139,41120,2,0,P|190:125|245:146,1,120,10|0,0:0|0:0,0:0:0:0:
301,202,41467,1,8,0:0:0:0:
322,126,41582,6,0,L|317:66,1,60,10|0,0:0|0:0,0:0:0:0:
384,25,41813,2,0,L|392:144,1,120,8|10,0:0|0:0,0:0:0:0:
445,202,42159,1,0,0:0:0:0:
445,202,42274,2,0,P|460:176|466:147,1,60,0|0,0:0|0:0,0:0:0:0:
384,25,42505,5,10,0:0:0:0:
384,25,42620,1,8,0:0:0:0:
384,25,42736,2,0,L|324:29,1,60,8|0,0:0|0:0,0:0:0:0:
262,121,42967,1,8,0:0:0:0:
262,121,43082,1,8,0:0:0:0:
262,121,43198,2,0,L|321:125,1,60,8|0,0:0|0:0,0:0:0:0:
445,202,43428,6,0,L|385:206,3,60,2|2|2|2,0:0|0:0|0:0|0:0,0:0:0:0:
429,278,43890,2,0,L|369:282,3,60,0|2|2|2,0:0|0:0|0:0|0:0,0:0:0:0:
413,354,44351,6,0,B|292:387|303:304|179:336,1,240,4|0,0:0|0:0,0:0:0:0:
170,339,46197,2,0,P|251:288|254:149,1,240,4|0,0:0|0:0,0:0:0:0:
256,153,47813,2,0,L|252:194,1,30,0|0,0:0|0:0,0:0:0:0:
275,79,48044,6,0,B|243:75|219:85|219:85|187:67|187:67|144:105|107:104|80:82|80:82|94:73|105:73,1,240,2|4,0:0|0:0,0:0:0:0:
109,80,49890,2,0,B|102:153|102:153|116:210|116:210|108:302,1,225.000008583069,2|0,0:0|0:0,0:0:0:0:
107,301,50582,6,0,P|85:299|63:301,1,45.0000017166138,2|2,0:0|0:0,0:0:0:0:
175,366,50813,6,0,P|242:371|302:369,1,120.000004577637,2|0,0:0|0:0,0:0:0:0:
287,278,51274,2,0,P|242:273|198:275,1,90.0000034332277,2|0,0:0|0:0,0:0:0:0:
107,300,51736,6,0,P|185:220|162:110,1,233.999989288331,4|0,0:0|0:0,0:0:0:0:
121,28,52659,2,0,B|242:1|228:81|346:53,1,233.999989288331,4|0,0:0|0:0,0:0:0:0:
418,22,53467,1,0,0:0:0:0:
418,22,53582,6,0,L|411:99,1,77.9999964294435,2|0,0:0|0:0,0:0:0:0:
356,155,53928,2,0,L|362:232,1,77.9999964294435,2|0,0:0|0:0,0:0:0:0:
418,288,54274,2,0,L|414:326,1,38.9999982147218,2|2,0:0|0:0,0:0:0:0:
341,354,54505,6,0,P|304:341|265:343,1,77.9999964294435,2|2,0:0|0:0,0:0:0:0:
195,378,54851,1,2,0:0:0:0:
195,378,54967,2,0,L|191:339,1,38.9999982147218,2|0,0:0|0:0,0:0:0:0:
228,239,55197,2,0,L|232:278,1,38.9999982147218,2|0,0:0|0:0,0:0:0:0:
96,363,55428,6,0,P|46:263|158:273,1,272.999987503052,4|0,0:0|0:0,0:0:0:0:
164,285,56351,6,0,P|137:192|160:96,1,194.999991073609,4|0,0:0|0:0,0:0:0:0:
227,62,57044,2,0,L|266:66,1,38.9999982147218,2|2,0:0|0:0,0:0:0:0:
366,28,57274,6,0,P|273:118|296:209,1,225,4|0,0:0|0:0,0:0:0:0:
349,274,57736,2,0,B|206:302|252:221|133:238,1,225,4|0,0:0|0:0,0:0:0:0:
50,310,58197,6,0,L|56:365,1,50,8|0,0:0|0:0,0:0:0:0:
134,239,58351,2,0,L|133:292,1,50,8|0,0:0|0:0,0:0:0:0:
45,166,58505,2,0,L|52:221,1,50,8|0,0:0|0:0,0:0:0:0:
128,94,58659,6,0,B|127:144|127:144|81:112|84:58,1,150,4|0,0:0|0:0,0:0:0:0:
242,25,59120,6,0,P|290:80|277:153,1,150,2|8,0:0|0:0,0:0:0:0:
157,128,59467,1,0,0:0:0:0:
141,121,59582,2,0,P|174:104|212:104,1,75,2|0,0:0|0:0,0:0:0:0:
295,220,59813,2,0,P|257:219|225:202,1,75,8|0,0:0|0:0,0:0:0:0:
358,141,60044,5,2,0:0:0:0:
377,125,60159,2,0,B|372:173|372:173|381:212|381:212|376:274,1,150,0|0,0:0|0:0,0:0:0:0:
307,346,60505,2,0,P|266:287|295:219,1,150,8|0,0:0|0:0,0:0:0:0:
277,152,60851,1,0,0:0:0:0:
262,141,60967,6,0,B|186:147,1,75,2|0,0:0|0:0,0:0:0:0:
147,51,61197,2,0,B|222:57,1,75,8|0,0:0|0:0,0:0:0:0:
277,152,61428,2,0,B|125:165,1,150,2|8,0:0|0:0,0:0:0:0:
57,159,61774,1,0,0:0:0:0:
59,185,61890,1,2,0:0:0:0:
62,212,62005,6,0,P|132:230|194:192,1,150,0|0,0:0|0:0,0:0:0:0:
147,51,62351,2,0,B|153:125,1,75,2|0,0:0|0:0,0:0:0:0:
190,245,62582,1,8,0:0:0:0:
191,218,62697,1,0,0:0:0:0:
194,192,62813,6,0,P|230:185|266:196,1,75,2|0,0:0|0:0,0:0:0:0:
372,284,63044,2,0,P|336:295|299:290,1,75,8|0,0:0|0:0,0:0:0:0:
218,165,63274,6,0,P|254:158|290:169,1,75,2|0,0:0|0:0,0:0:0:0:
397,257,63505,2,0,P|361:268|324:263,1,75,8|0,0:0|0:0,0:0:0:0:
242,139,63736,6,0,B|279:135|279:135|316:144,1,75,2|0,0:0|0:0,0:0:0:0:
421,230,63967,2,0,B|384:238|384:238|346:235,1,75,8|0,0:0|0:0,0:0:0:0:
267,112,64197,6,0,B|304:108|304:108|341:117,1,75,2|0,0:0|0:0,0:0:0:0:
446,203,64428,2,0,B|409:211|409:211|371:208,1,75,8|0,0:0|0:0,0:0:0:0:
300,189,64659,6,0,P|352:239|344:311,2,150,2|2|2,0:0|0:0|0:0,0:0:0:0:
238,153,65236,2,0,B|388:165,1,150,2|2,0:0|0:0,0:0:0:0:
430,100,65582,2,0,P|397:86|361:93,1,75,10|0,0:0|0:0,0:0:0:0:
349,232,65813,2,0,P|383:246|420:238,1,75,10|0,0:0|0:0,0:0:0:0:
510,127,66044,6,0,P|468:206|482:293,1,180.000006866455,2|0,0:0|0:0,0:0:0:0:
488,306,66505,6,0,L|428:301,2,60.0000022888184,8|8|8,0:0|0:0|0:0,0:0:0:0:
349,232,66967,2,0,L|289:236,2,60.0000022888184,8|8|8,0:0|0:0|0:0,0:0:0:0:
208,183,67428,2,0,P|279:232|281:319,1,180.000006866455,4|0,0:0|0:0,0:0:0:0:
161,374,68197,1,0,0:0:0:0:
188,337,68351,6,0,L|193:278,2,60.0000022888184,10|8|8,0:0|0:0|0:0,0:0:0:0:
111,276,68813,2,0,L|106:216,2,60.0000022888184,8|8|8,0:0|0:0|0:0,0:0:0:0:
165,160,69274,2,0,B|208:183|208:183|308:176,1,135.000005149841,4|0,0:0|0:0,0:0:0:0:
373,72,69736,5,8,0:0:0:0:
369,92,69851,1,8,0:0:0:0:
365,112,69966,1,8,0:0:0:0:
200,340,70197,6,0,B|241:273|241:273|209:131,1,225,4|0,0:0|0:0,0:0:0:0:
131,115,70659,2,0,P|181:205|279:170,1,225,4|0,0:0|0:0,0:0:0:0:
436,58,71120,2,0,B|374:21|374:21|222:33,1,225,4|0,0:0|0:0,0:0:0:0:
279,169,71582,6,0,P|284:132|272:96,1,75,8|0,0:0|0:0,0:0:0:0:
222,32,71813,1,8,0:0:0:0:
213,51,71928,1,8,0:0:0:0:
205,71,72044,6,0,L|209:131,1,60,8|0,0:0|0:0,0:0:0:0:
275,228,72274,2,0,L|279:169,1,60,8|0,0:0|0:0,0:0:0:0:
342,41,72505,2,0,L|345:100,1,60,8|0,0:0|0:0,0:0:0:0:
384,256,72736,2,0,L|387:196,1,60,8|0,0:0|0:0,0:0:0:0:
480,12,72967,6,0,B|496:38|496:38|481:63,3,60
380,96,73890,6,0,L|383:146,2,50,8|8|8,0:0|0:0|0:0,0:0:0:0:
324,199,74351,2,0,L|327:249,2,50,8|8|8,0:0|0:0|0:0,0:0:0:0:
391,295,74813,6,0,B|336:336|336:336|204:323,1,200,2|0,0:0|0:0,0:0:0:0:
143,271,75274,1,0,0:0:0:0:
143,271,75736,6,0,P|113:178|141:83,1,200,4|0,0:0|0:0,0:0:0:0:
305,95,76197,2,0,P|239:168|144:192,1,200,4|0,0:0|0:0,0:0:0:0:
72,43,76659,2,0,P|168:63|236:134,1,200,4|0,0:0|0:0,0:0:0:0:
240,240,77120,6,0,L|233:315,1,75,8|0,0:0|0:0,0:0:0:0:
320,224,77351,2,0,L|313:299,1,75,8|0,0:0|0:0,0:0:0:0:
399,209,77582,6,0,B|394:283|394:283|456:232|467:148|381:96,1,300,2|2,0:0|0:0,0:0:0:0:
381,96,78967,6,0,P|415:111|452:111,1,75,8|0,0:0|0:0,0:0:0:0:
284,114,79197,2,0,P|297:148|323:175,1,75,8|0,0:0|0:0,0:0:0:0:
202,58,79428,2,0,P|155:160|153:271,1,225,4|0,0:0|0:0,0:0:0:0:
214,330,79890,6,0,L|289:324,1,75,8|0,0:0|0:0,0:0:0:0:
320,224,80120,2,0,L|245:218,1,75,8|0,0:0|0:0,0:0:0:0:
214,118,80351,2,0,L|438:100,1,225,4|0,0:0|0:0,0:0:0:0:
466,183,80813,2,0,L|416:186,2,50,8|8|8,0:0|0:0|0:0,0:0:0:0:
432,288,81274,6,0,P|356:196|340:314,1,300,2|2,0:0|0:0,0:0:0:0:
340,314,82659,6,0,L|338:339,1,18.75,0|0,0:0|0:0,0:0:0:0:
337,353,83120,6,0,B|292:332|292:332|143:356,1,200,4|0,0:0|0:0,0:0:0:0:
116,257,83582,2,0,B|161:236|161:236|309:260,1,200,4|0,0:0|0:0,0:0:0:0:
337,161,84044,2,0,B|292:140|292:140|143:164,1,200,4|0,0:0|0:0,0:0:0:0:
54,25,84505,2,0,B|87:9|87:9|124:15,1,75,8|0,0:0|0:0,0:0:0:0:
194,72,84736,2,0,B|160:87|160:87|123:81,1,75,8|0,0:0|0:0,0:0:0:0:
40,113,84967,6,0,B|-61:158|-23:297|88:302|149:256|143:165|143:165|147:243|210:275,1,480,2|2,0:0|0:0,0:0:0:0:
195,266,86351,6,0,L|269:260,1,75,8|0,0:0|0:0,0:0:0:0:
284,157,86582,2,0,L|340:206,1,75,8|0,0:0|0:0,0:0:0:0:
424,142,86813,2,0,L|440:366,1,225,4|0,0:0|0:0,0:0:0:0:
359,342,87274,6,0,B|354:285|354:285|340:296,1,75,8|0,0:0|0:0,0:0:0:0:
199,367,87505,2,0,B|255:362|255:362|244:348,1,75,8|0,0:0|0:0,0:0:0:0:
195,266,87736,2,0,B|25:278|25:278|59:322,1,225,4|0,0:0|0:0,0:0:0:0:
111,194,88197,2,0,B|61:197,2,50,8|8|8,0:0|0:0|0:0,0:0:0:0:
195,266,88659,6,0,B|223:307,2,50,8|8|8,0:0|0:0|0:0,0:0:0:0:
215,157,89120,2,0,B|236:111,2,50,8|8|8,0:0|0:0|0:0,0:0:0:0:
195,266,89582,6,0,B|298:291|286:221|388:243,1,200,2|0,0:0|0:0,0:0:0:0:
453,289,90044,1,0,0:0:0:0:
453,289,90505,6,0,L|442:89,1,200,4|0,0:0|0:0,0:0:0:0:
352,40,90967,2,0,L|341:239,1,200,4|0,0:0|0:0,0:0:0:0:
251,289,91428,2,0,L|240:89,1,200,4|0,0:0|0:0,0:0:0:0:
149,39,91890,6,0,P|114:29|76:32,1,75,8|0,0:0|0:0,0:0:0:0:
143,164,92120,2,0,P|181:167|217:157,1,75,8|0,0:0|0:0,0:0:0:0:
284,0,92351,6,0,B|321:153|217:135|250:290,1,300,2|2,0:0|0:0,0:0:0:0:
250,290,93736,6,0,L|324:282,1,75,8|0,0:0|0:0,0:0:0:0:
420,168,93967,2,0,L|389:236,1,75,8|0,0:0|0:0,0:0:0:0:
440,376,94197,2,0,L|308:193,1,225,4|0,0:0|0:0,0:0:0:0:
242,130,94659,6,0,P|222:161|219:198,1,75,8|0,0:0|0:0,0:0:0:0:
227,358,94890,2,0,P|246:327|250:290,1,75,8|0,0:0|0:0,0:0:0:0:
25,273,95120,2,0,B|178:304|178:304|142:245,1,225,4|0,0:0|0:0,0:0:0:0:
50,147,95582,2,0,B|0:156,2,50,8|8|8,0:0|0:0|0:0,0:0:0:0:
142,245,96044,6,0,B|295:282|277:177|435:212,1,300,2|2,0:0|0:0,0:0:0:0:
432,211,97428,6,0,L|434:230,1,18.75,0|0,0:0|0:0,0:0:0:0:
435,248,97890,6,0,P|338:223|241:244,1,200,4|0,0:0|0:0,0:0:0:0:
188,328,98351,2,0,P|212:231|191:134,1,200,4|0,0:0|0:0,0:0:0:0:
108,81,98813,2,0,P|204:105|301:84,1,200,4|0,0:0|0:0,0:0:0:0:
381,53,99274,6,0,P|418:47|453:60,1,75,8|0,0:0|0:0,0:0:0:0:
483,150,99505,2,0,P|506:179|512:216,1,75,8|0,0:0|0:0,0:0:0:0:
481,284,99736,6,0,B|540:185|421:105|338:155|327:207|333:256|333:256|300:156|219:169,1,480,2|2,0:0|0:0,0:0:0:0:
218,169,101120,6,0,L|223:243,1,75,8|0,0:0|0:0,0:0:0:0:
144,225,101351,2,0,L|139:151,1,75,8|0,0:0|0:0,0:0:0:0:
60,133,101582,2,0,L|75:357,1,225,4|0,0:0|0:0,0:0:0:0:
162,377,102044,6,0,P|197:364|234:363,1,75,8|0,0:0|0:0,0:0:0:0:
314,256,102274,2,0,P|277:255|242:243,1,75,8|0,0:0|0:0,0:0:0:0:
139,151,102505,2,0,P|244:112|356:109,1,225,4|0,0:0|0:0,0:0:0:0:
417,164,102967,6,0,L|411:213,2,50,8|8|8,0:0|0:0|0:0,0:0:0:0:
434,84,103428,5,8,0:0:0:0:
