osu file format v14

[General]
AudioFilename: audio.mp3
AudioLeadIn: 0
PreviewTime: 44689
Countdown: 0
SampleSet: Normal
StackLeniency: 0.7
Mode: 0
LetterboxInBreaks: 0
WidescreenStoryboard: 0

[Editor]
Bookmarks: 2546,2665,2784,4451,4570,4689,6356,6475,6594,8260,8379,8499,10165,10284,10403,12070,12189,12308,12784,13737,13856,13975,14094,14213,15165,15641,16118,17427,25403,25522,25641,26356,27070,27308,27427,27546,28260,28856,29213,29332,29451,30165,30760,30879,31118,31237,31356,31594,31832,32070,32308,33022,33141,33260
DistanceSpacing: 1
BeatDivisor: 8
GridSize: 4
TimelineZoom: 3.399999

[Metadata]
Title:IDOL
TitleUnicode:IDOL
Artist:BTS
ArtistUnicode:BTS
Creator:Cyrax
Version:Idol
Source:
Tags:kpop bts bangtanboys jin suga hoseok rm namjoon jimin v kimtaehyung kookie jung jungkook
BeatmapID:1870716
BeatmapSetID:895288

[Difficulty]
HPDrainRate:6
CircleSize:4.1
OverallDifficulty:8
ApproachRate:9.4
SliderMultiplier:2
SliderTickRate:1

[Events]
//Background and Video events
0,0,"offie.jpg",0,0
//Break Periods
//Storyboard Layer 0 (Background)
//Storyboard Layer 1 (Fail)
//Storyboard Layer 2 (Pass)
//Storyboard Layer 3 (Foreground)
//Storyboard Sound Samples

[TimingPoints]
880,476.190476190476,4,1,0,100,1,0
880,-133.333333333333,4,3,0,100,0,0
939,-133.333333333333,4,3,0,40,0,0
2487,-133.333333333333,4,3,0,80,0,0
2844,-133.333333333333,4,3,0,40,0,0
4391,-133.333333333333,4,3,0,80,0,0
4749,-133.333333333333,4,3,0,40,0,0
6296,-133.333333333333,4,3,0,80,0,0
6653,-133.333333333333,4,3,0,40,0,0
8201,-133.333333333333,4,3,0,80,0,0
8558,-133.333333333333,4,3,0,40,0,0
10106,-133.333333333333,4,3,0,80,0,0
10463,-133.333333333333,4,3,0,40,0,0
16118,-133.333333333333,4,2,0,80,0,0
16177,-133.333333333333,4,3,0,40,0,0
17249,-133.333333333333,4,1,0,80,0,0
17546,-133.333333333333,4,3,0,80,0,0
23677,-76.9230769230769,4,2,0,80,0,0
23796,-100,4,3,0,80,0,0
26534,-142.857142857143,4,3,0,80,0,0
26653,-100,4,3,0,80,0,0
31534,-100,4,2,0,80,0,0
32368,-100,4,3,0,50,0,0
46594,-71.4285714285714,4,2,0,100,0,1
61832,-133.333333333333,4,3,0,40,0,0

[HitObjects]
56,118,880,6,0,P|68:155|71:207,1,75.0000028610231,12|0,0:0|0:0,0:0:0:0:
156,294,1237,2,0,P|168:256|177:204,1,75.0000028610231
92,141,1653,1,0,0:0:0:0:
164,64,1832,2,0,P|187:94|189:147,1,75.0000028610231
73,174,2189,2,0,P|77:211|112:250,1,75.0000028610231
198,237,2546,1,8,0:0:0:0:
289,177,2665,1,8,0:0:0:0:
406,140,2784,6,0,P|418:164|434:226,1,75.0000028610231
461,341,3141,2,0,P|482:307|493:268,1,75.0000028610231
394,172,3558,1,0,0:0:0:0:
296,236,3737,2,0,P|311:259|355:282,1,75.0000028610231
443,213,4213,1,0,0:0:0:0:
434,99,4451,2,0,L|398:59,1,37.5000014305115,8|8,0:0|0:0,0:0:0:0:
289,58,4689,6,0,P|266:69|238:110,1,75.0000028610231,12|0,0:0|0:0,0:0:0:0:
369,195,5046,2,0,P|398:175|421:141,1,75.0000028610231
304,118,5463,1,0,0:0:0:0:
177,170,5641,2,0,P|167:135|172:84,1,75.0000028610231
335,105,5999,2,0,P|331:68|309:27,1,75.0000028610231
163,69,6356,2,8,L|122:95,1,37.5000014305115
115,182,6594,6,0,P|149:199|191:194,1,75.0000028610231,4|0,0:0|0:0,0:0:0:0:
334,99,6951,2,0,P|300:82|253:85,1,75.0000028610231
163,162,7368,1,0,0:0:0:0:
240,261,7546,2,0,P|276:281|317:275,1,75.0000028610231
114,177,8022,2,0,P|139:163|163:164,1,37.5000014305115
282,159,8260,2,8,L|323:183,1,37.5000014305115
390,309,8499,6,0,P|430:293|451:253,1,75.0000028610231,12|0,0:0|0:0,0:0:0:0:
314,203,8856,2,0,P|338:171|385:157,1,75.0000028610231
503,176,9272,1,0,0:0:0:0:
488,296,9451,2,0,P|464:319|419:331,1,75.0000028610231
274,318,9927,2,0,P|282:302|305:277,1,37.5000014305115
373,195,10165,2,8,L|402:165,1,37.5000014305115
492,187,10403,6,0,P|494:157|468:105,1,75.0000028610231,4|0,0:0|0:0,0:0:0:0:
408,173,10760,2,0,P|406:203|434:250,1,75.0000028610231
488,296,11177,1,0,0:0:0:0:
435,370,11356,2,0,P|410:352|388:310,1,75.0000028610231
471,294,11832,2,0,P|458:267|445:250,1,37.5000014305115
368,200,12070,2,8,L|334:178,1,37.5000014305115
252,257,12308,6,0,L|221:288,3,37.5000014305115,12|8|8|4,0:0|0:0|0:0|0:0,0:0:0:0:
162,337,12784,2,0,P|133:326|102:283,1,75.0000028610231
146,177,13260,2,0,P|185:186|208:214,1,75.0000028610231
207,319,13737,2,0,L|170:330,3,37.5000014305115,12|8|8|12,0:0|0:0|0:0|0:0,0:0:0:0:
55,350,14213,6,0,P|40:323|47:266,1,75.0000028610231
163,289,14570,2,0,P|167:258|144:207,1,75.0000028610231
116,108,14987,1,0,0:0:0:0:
50,194,15165,2,8,L|0:193,3,37.5000014305115
131,240,15641,2,0,L|176:237,3,37.5000014305115,8|8|8|12,0:0|0:0|0:0|0:0,0:0:0:0:
220,303,16118,6,0,P|234:283|244:265,1,37.5000014305115,4|0,0:0|0:0,0:0:0:0:
263,191,16356,2,0,P|269:156|256:103,1,75.0000028610231
153,60,16832,2,0,P|139:80|124:103,1,37.5000014305115,12|0,0:0|0:0,0:0:0:0:
106,177,17129,1,8,0:0:0:0:
164,257,17308,2,0,P|193:261|242:246,2,75.0000028610231,2|0|0,0:0|0:0|0:0,0:0:0:0:
83,207,18022,6,0,P|99:183|116:167,1,37.5000014305115,8|0,0:0|0:0,0:0:0:0:
160,127,18260,2,0,P|188:108|243:96,1,75.0000028610231,8|0,0:0|0:0,0:0:0:0:
337,131,18737,2,0,P|342:159|334:217,1,75.0000028610231
242,291,19213,2,0,L|197:306,2,37.5000014305115
286,212,19689,1,12,0:0:0:0:
208,104,19927,6,0,P|166:99|121:108,2,75.0000028610231
324,143,20641,1,12,0:0:0:0:
333,265,20879,1,12,0:0:0:0:
236,342,21118,2,0,P|206:354|184:352,2,37.5000014305115
330,272,21594,2,12,P|352:249|362:232,1,37.5000014305115
418,147,21832,6,0,P|427:119|417:69,1,75.0000028610231,12|0,0:0|0:0,0:0:0:0:
327,9,22308,1,0,0:0:0:0:
236,86,22546,2,0,P|247:118|291:145,1,75.0000028610231
375,153,23022,2,12,L|413:148,2,37.5000014305115
311,212,23499,1,12,0:0:0:0:
171,109,23737,6,0,P|194:174|201:236,1,129.999994049073,4|0,0:0|0:0,0:0:0:0:
274,288,24094,2,0,P|283:252|315:198,1,100
365,125,24451,1,0,0:0:0:0:
393,204,24689,2,0,P|372:231|262:290,2,150,0|0|12,0:0|0:0|0:0,0:0:0:0:
375,82,25522,1,12,0:0:0:0:
273,30,25641,6,0,P|231:66|203:124,1,100,12|0,0:0|0:0,0:0:0:0:
357,150,25999,1,0,0:0:0:0:
499,186,26118,2,0,P|466:244|427:279,1,100,0|12,0:0|0:0,0:0:0:0:
311,283,26475,1,0,0:0:0:0:
217,179,26594,2,0,L|257:118,1,69.9999978637696
387,45,26951,1,0,0:0:0:0:
323,145,27070,2,0,P|354:163|381:167,1,50
446,209,27308,1,12,0:0:0:0:
474,290,27427,1,12,0:0:0:0:
412,348,27546,6,0,P|382:338|291:266,2,150,12|0|12,0:0|0:0|0:0,0:0:0:0:
451,285,28499,2,0,P|426:244|374:194,1,100
390,206,28856,1,12,0:0:0:0:
390,206,28975,2,0,L|341:229,1,50
258,267,29213,2,0,L|214:294,1,50
130,343,29451,6,0,P|58:322|-6:259,2,150,12|0|12,0:0|0:0|0:0,0:0:0:0:
221,308,30403,1,0,0:0:0:0:
301,254,30641,1,0,0:0:0:0:
352,173,30760,1,4,0:0:0:0:
330,88,30879,2,0,L|286:57,1,50,8|0,0:0|0:0,0:0:0:0:
204,46,31118,2,12,L|147:57,2,50
297,71,31594,5,8,0:0:0:0:
453,198,31832,1,8,0:0:0:0:
296,71,32070,1,8,0:0:0:0:
454,200,32308,2,0,P|463:227|458:267,1,50
419,320,32546,5,0,0:0:0:0:
358,351,32665,2,0,P|322:340|302:319,1,50
289,197,32903,2,0,P|325:208|344:224,1,50,0|12,0:0|0:0,0:0:0:0:
207,283,33141,2,12,P|171:272|152:247,1,50
168,151,33379,5,0,0:0:0:0:
168,151,33499,1,0,0:0:0:0:
264,185,33618,2,0,P|255:227|238:250,1,50
169,299,33856,1,0,0:0:0:0:
99,219,33975,2,0,P|99:188|113:161,1,50
247,92,34213,2,0,P|247:123|235:151,1,50
137,222,34451,1,0,0:0:0:0:
137,222,34570,1,0,0:0:0:0:
31,163,34689,2,0,P|24:132|34:98,1,50
130,62,34927,1,12,0:0:0:0:
130,62,35046,1,12,0:0:0:0:
207,102,35165,6,0,P|233:131|240:158,1,50
161,178,35403,1,0,0:0:0:0:
114,252,35522,2,0,P|159:273|223:265,1,100
276,222,35879,2,0,P|320:203|381:206,1,100
397,263,36475,1,0,0:0:0:0:
361,348,36594,2,0,P|327:339|290:283,2,100,0|12|12,0:0|0:0|0:0,0:0:0:0:
442,359,37189,6,0,P|463:335|458:297,1,50
328,209,37427,2,0,P|307:233|308:273,1,50
386,328,37665,1,0,0:0:0:0:
476,273,37784,2,0,B|489:244|489:244|485:204,1,50
452,140,38022,2,0,P|436:102|429:81,1,50
311,45,38260,2,0,P|290:86|289:106,1,50
317,185,38499,2,0,P|322:213|316:249,1,50
312,313,38737,1,12,0:0:0:0:
224,351,38856,1,12,0:0:0:0:
130,352,38975,6,0,P|78:329|32:290,1,100,12|0,0:0|0:0,0:0:0:0:
27,248,39332,2,0,P|22:222|30:178,1,50
23,198,39570,1,0,0:0:0:0:
69,101,39689,1,0,0:0:0:0:
139,48,39808,1,0,0:0:0:0:
223,17,39927,2,0,P|291:6|338:10,1,100
428,63,40284,2,0,L|472:94,1,50
430,186,40522,1,0,0:0:0:0:
358,264,40641,1,12,0:0:0:0:
275,316,40760,1,12,0:0:0:0:
179,328,40879,6,0,P|132:291|103:239,1,100,12|0,0:0|0:0,0:0:0:0:
103,135,41237,2,0,L|146:104,1,50
249,54,41475,1,0,0:0:0:0:
341,62,41594,1,0,0:0:0:0:
419,97,41713,1,0,0:0:0:0:
469,176,41832,6,0,P|491:235|487:279,1,100
271,348,42189,2,0,L|213:361,2,50
339,215,42546,2,12,P|342:169|332:145,1,50
261,46,42784,6,0,P|216:68|186:111,1,100,12|0,0:0|0:0,0:0:0:0:
281,244,43141,2,0,L|326:271,2,50
182,200,43499,2,0,P|158:190|115:179,1,50
24,160,43737,2,0,P|5:187|11:270,1,100
104,332,44094,2,0,L|161:346,2,50
51,231,44451,2,0,P|40:201|41:164,1,50
65,66,44689,5,0,0:0:0:0:
19,13,45879,6,12,L|59:51,1,50
203,84,46118,2,12,L|241:126,1,50
367,144,46356,2,12,L|404:179,1,50
490,219,46594,6,0,P|435:262|364:269,1,139.999995727539,4|0,0:0|0:0,0:0:0:0:
342,367,46951,2,0,P|272:367|211:337,1,139.999995727539
70,296,47308,2,0,P|57:268|61:204,1,69.9999978637696
356,119,47546,2,0,P|369:147|360:258,1,139.999995727539
238,332,47903,1,0,0:0:0:0:
129,255,48022,2,8,P|116:227|126:117,1,139.999995727539
244,68,48379,1,0,0:0:0:0:
325,172,48499,6,0,P|311:232|245:277,1,139.999995727539
474,276,48856,2,0,P|439:312|329:344,1,139.999995727539
99,207,49213,2,0,P|123:189|180:175,1,69.9999978637696
324,225,49451,2,0,P|300:243|243:255,1,69.9999978637696,8|0,0:0|0:0,0:0:0:0:
287,115,49689,2,0,P|311:97|373:85,1,69.9999978637696,8|0,0:0|0:0,0:0:0:0:
455,188,49927,2,0,P|431:206|318:224,1,139.999995727539,8|0,0:0|0:0,0:0:0:0:
173,166,50284,1,0,0:0:0:0:
305,91,50403,6,0,P|324:133|325:229,1,139.999995727539,4|0,0:0|0:0,0:0:0:0:
498,160,50760,2,0,P|485:204|417:278,1,139.999995727539
291,355,51118,2,0,P|250:354|200:323,1,69.9999978637696
186,195,51356,2,0,P|227:196|309:263,1,139.999995727539
344,335,51713,1,0,0:0:0:0:
247,339,51832,2,0,P|237:298|242:250,1,69.9999978637696,8|0,0:0|0:0,0:0:0:0:
333,156,52070,2,0,P|343:197|336:243,1,69.9999978637696,8|0,0:0|0:0,0:0:0:0:
258,327,52308,6,0,P|221:331|126:297,1,139.999995727539
27,181,52784,2,0,P|64:177|168:212,1,139.999995727539
264,274,53141,1,0,0:0:0:0:
373,342,53260,2,0,L|433:382,2,69.9999978637696
218,358,53618,2,0,P|204:319|265:242,1,139.999995727539
341,210,53975,2,0,P|349:250|326:304,1,69.9999978637696
218,358,54213,6,0,P|199:320|193:214,1,139.999995727539,12|0,0:0|0:0,0:0:0:0:
53,317,54570,2,0,P|61:275|109:189,1,139.999995727539
60,86,54927,2,0,P|104:55|148:45,1,69.9999978637696,8|0,0:0|0:0,0:0:0:0:
255,164,55165,2,0,P|211:212|126:248,1,139.999995727539
51,231,55522,1,8,0:0:0:0:
69,129,55641,2,0,P|113:81|196:51,1,139.999995727539,8|8,0:0|0:0,0:0:0:0:
266,67,55999,1,0,0:0:0:0:
322,135,56118,6,0,P|299:179|198:242,1,139.999995727539,12|0,0:0|0:0,0:0:0:0:
463,217,56475,2,0,P|437:255|328:303,1,139.999995727539
228,326,56832,2,0,P|203:286|196:233,1,69.9999978637696
272,133,57070,2,0,P|297:173|301:224,1,69.9999978637696,8|0,0:0|0:0,0:0:0:0:
163,165,57308,2,0,P|138:125|135:72,1,69.9999978637696,8|0,0:0|0:0,0:0:0:0:
233,19,57546,2,0,P|250:47|258:85,1,69.9999978637696,8|0,0:0|0:0,0:0:0:0:
132,64,57784,2,0,P|115:36|109:-4,1,69.9999978637696,8|0,0:0|0:0,0:0:0:0:
225,62,58022,6,0,P|230:103|199:199,1,139.999995727539,12|0,0:0|0:0,0:0:0:0:
446,171,58379,2,0,P|423:205|335:261,1,139.999995727539
232,343,58737,2,0,P|193:344|136:318,1,69.9999978637696
103,230,58975,2,0,P|154:216|181:217,1,69.9999978637696
289,278,59213,2,0,P|238:292|211:288,1,69.9999978637696,0|8,0:0|0:0,0:0:0:0:
299,130,59451,2,0,P|350:116|372:120,1,69.9999978637696,8|0,0:0|0:0,0:0:0:0:
512,265,59689,2,0,P|461:279|435:279,1,69.9999978637696,8|0,0:0|0:0,0:0:0:0:
408,349,59927,6,0,P|382:321|363:264,1,69.9999978637696,8|0,0:0|0:0,0:0:0:0:
234,302,60165,2,0,P|222:265|227:205,1,69.9999978637696
100,184,60403,2,0,P|104:146|130:100,1,69.9999978637696
0,78,60641,2,0,P|4:40|33:-8,1,69.9999978637696
186,70,60879,1,0,0:0:0:0:
279,128,60999,1,0,0:0:0:0:
356,225,61118,1,0,0:0:0:0:
425,309,61237,1,0,0:0:0:0:
186,70,61356,2,0,P|206:107|210:206,1,139.999995727539
139,295,61713,1,0,0:0:0:0:
17,223,61832,6,0,P|6:197|1:137,1,75.0000028610231
178,25,62189,2,0,P|194:63|191:110,1,75.0000028610231
96,235,62546,2,0,P|61:212|47:179,1,75.0000028610231
95,65,63022,1,0,0:0:0:0:
224,140,63141,2,0,P|238:160|242:225,1,75.0000028610231
136,318,63499,2,0,P|118:298|110:241,1,75.0000028610231
71,151,63975,5,0,0:0:0:0:
189,81,64094,2,0,P|225:89|272:118,1,75.0000028610231
331,178,64451,2,0,L|356:218,1,37.5000014305115
285,323,64689,2,0,P|259:321|233:311,1,37.5000014305115
192,113,64927,2,0,P|218:115|237:127,1,37.5000014305115
92,250,65165,2,0,P|74:253|52:252,1,37.5000014305115
0,47,65403,2,0,P|17:43|41:42,1,37.5000014305115
256,192,65641,5,0,0:0:0:0:
256,192,65760,12,14,68975,0:0:0:0:
