osu file format v14

[General]
AudioFilename: audio.mp3
AudioLeadIn: 0
PreviewTime: 47542
Countdown: 0
SampleSet: Soft
StackLeniency: 0.7
Mode: 0
LetterboxInBreaks: 0
WidescreenStoryboard: 0

[Editor]
Bookmarks: 12415
DistanceSpacing: 0.9
BeatDivisor: 4
GridSize: 8
TimelineZoom: 1.4

[Metadata]
Title:I NEED U
TitleUnicode:I NEED U
Artist:BTS
ArtistUnicode:방탄소년단
Creator:arnoldusj
Version:Easy
Source:
Tags:화양연화 pt.1 The Most Beautiful Moment in Life, Part 1 BigHit Entertainment Bangtan Boys Jin Suga J-Hope Rap Monster V Jimin Jungkook kpop k-pop short ver Bakari -bakari- Ora
BeatmapID:1240575
BeatmapSetID:585687

[Difficulty]
HPDrainRate:3
CircleSize:3
OverallDifficulty:0.9
ApproachRate:1.3
SliderMultiplier:0.8
SliderTickRate:1

[Events]
//Background and Video events
0,0,"BG (2).jpg",0,0
//Break Periods
//Storyboard Layer 0 (Background)
//Storyboard Layer 1 (Fail)
//Storyboard Layer 2 (Pass)
//Storyboard Layer 3 (Foreground)
//Storyboard Sound Samples

[TimingPoints]
264,379.746835443038,4,2,0,60,1,0
264,-125,4,2,1,60,0,0
36719,-100,4,2,4,75,0,0
48871,-90.9090909090909,4,2,6,80,0,1
71656,-133.333333333333,4,2,0,50,0,0
73175,-90.9090909090909,4,2,6,80,0,0
83808,-90.9090909090909,4,2,5,70,0,0

[Colours]
Combo1 : 0,255,64
Combo2 : 0,255,255

[HitObjects]
104,136,264,6,0,L|120:264,1,128,2|0,0:0|0:0,0:0:0:0:
232,272,1782,2,0,L|216:144,1,128,2|0,0:0|0:0,0:0:0:0:
304,72,3301,2,0,P|352:64|400:72,2,96,2|0|0,0:0|0:0|0:0,0:0:0:0:
248,56,4820,2,0,P|192:72|128:48,1,128,2|0,0:0|0:0,0:0:0:0:
88,160,6339,6,0,B|104:208|104:208|104:288,1,128,2|0,0:0|0:0,0:0:0:0:
216,312,7858,2,0,B|216:232|216:232|240:184,1,128,2|0,0:0|0:0,0:0:0:0:
344,144,9377,2,0,P|400:152|440:144,2,96,2|0|0,0:0|0:0|0:0,0:0:0:0:
312,96,10896,2,0,P|248:80|184:104,1,128,2|0,0:0|0:0,0:0:0:0:
144,208,12415,6,0,P|128:264|160:336,1,128,2|8,0:0|0:0,0:0:0:0:
240,256,13934,2,0,L|376:256,1,128,0|8,0:0|0:0,0:0:0:0:
416,152,15453,2,0,P|432:112|416:64,2,96,2|0|0,0:0|0:0|0:0,0:0:0:0:
360,152,16972,2,0,B|328:144|296:152|296:152|264:160|224:152,1,128,0|8,0:0|0:0,0:0:0:0:
136,216,18491,6,0,P|120:152|136:88,1,128,2|8,0:0|0:0,0:0:0:0:
232,32,20010,2,0,L|368:32,1,128,0|8,0:0|0:0,0:0:0:0:
408,136,21529,2,0,P|456:120|504:136,2,96,2|0|0,0:0|0:0|0:0,0:0:0:0:
376,184,23048,2,0,P|312:200|248:184,1,128,0|8,0:0|0:0,0:0:0:0:
144,152,24567,6,0,L|152:280,1,128,4|8,0:0|0:0,0:0:0:0:
248,336,26086,2,0,P|288:328|376:336,1,128,0|8,0:0|0:0,0:0:0:0:
440,240,27605,6,0,P|456:184|440:112,1,128,2|8,0:0|0:0,0:0:0:0:
352,48,29124,2,0,L|216:48,1,128,0|8,0:0|0:0,0:0:0:0:
112,88,30643,6,0,B|112:160|112:160|136:224,1,128,2|8,0:0|0:0,0:0:0:0:
224,288,32162,2,0,B|288:280|288:280|352:296,1,128,0|8,0:0|0:0,0:0:0:0:
448,232,33681,6,0,L|440:96,1,128,2|8,0:0|0:0,0:0:0:0:
336,48,35200,2,0,L|344:176,1,128,0|8,0:0|0:0,0:0:0:0:
216,240,36719,6,0,B|176:264|136:240|136:240|88:280|40:256|40:256|64:240|72:208,1,240,4|8,0:0|0:0,0:0:0:0:
80,144,38238,6,0,B|104:136|128:112|128:112|160:136|192:128|192:128|192:96|224:72|224:72|240:96|280:96,1,240,2|8,0:0|0:0,0:0:0:0:
328,64,39757,6,0,B|360:88|416:88|416:88|392:128|432:160|432:160|408:192|376:160,1,240,2|8,0:0|0:0,0:0:0:0:
328,216,41276,6,0,B|312:272|344:320|344:320|304:312|264:344|264:344|272:320|248:288,1,240,2|8,0:0|0:0,0:0:0:0:
192,336,42795,6,0,B|136:344|96:304|96:304|72:336|104:376|104:376|48:344|0:352|0:352|16:296|-16:232|-16:232|24:248|56:232|56:232|80:200|120:208,1,560,8|8,3:0|3:0,0:0:0:0:
256,192,45833,12,8,47162,3:0:0:0:
88,288,48871,6,0,B|160:280|160:280|192:288|192:288|264:280,1,176.000005371094,4|8,0:0|0:0,0:0:0:0:
328,320,50010,1,0,1:0:0:0:
384,264,50390,2,0,P|424:256|480:264,2,88.000002685547,2|0|8,0:0|1:0|0:0,0:0:0:0:
320,216,51529,1,0,1:0:0:0:
392,176,51909,6,0,P|424:120|376:24,1,176.000005371094,2|8,0:0|0:0,0:0:0:0:
304,56,53048,2,0,L|240:56,1,44.0000013427735,0|8,1:0|0:0,0:0:0:0:
264,136,53618,2,0,L|120:136,1,132.00000402832,8|8,0:0|0:0,0:0:0:0:
88,200,54567,1,2,3:0:0:0:
112,280,54947,6,0,B|152:264|200:288|200:288|240:304|296:280,1,176.000005371094,6|8,0:0|0:0,0:0:0:0:
352,240,56086,1,0,1:0:0:0:
304,176,56466,2,0,L|208:184,2,88.000002685547,2|0|8,0:0|1:0|0:0,0:0:0:0:
352,240,57605,1,0,1:0:0:0:
424,200,57985,6,0,B|448:152|440:88|440:88|432:128|408:144,1,176.000005371094,2|8,0:0|0:0,0:0:0:0:
352,88,59124,2,0,L|304:96,1,44.0000013427735,0|8,1:0|0:0,0:0:0:0:
248,40,59694,2,0,P|200:32|112:48,1,132.00000402832,8|8,0:0|0:0,0:0:0:0:
64,104,60643,1,0,1:0:0:0:
64,184,61023,6,0,B|80:320|80:320|112:288,1,176.000005371094,4|8,0:0|0:0,0:0:0:0:
168,344,62162,2,0,L|216:344,1,44.0000013427735,0|8,1:0|0:0,0:0:0:0:
288,312,62732,2,0,B|384:320|384:320|360:280,1,132.00000402832,8|8,0:0|0:0,0:0:0:0:
440,264,63681,1,0,1:0:0:0:
392,200,64061,6,0,B|376:144|376:144|392:24,1,176.000005371094,6|8,0:0|0:0,0:0:0:0:
312,24,65200,2,0,L|304:80,1,44.0000013427735,0|8,1:0|0:0,0:0:0:0:
240,112,65770,2,0,P|168:128|96:112,1,132.00000402832,8|8,0:0|0:0,0:0:0:0:
40,152,66719,1,2,3:0:0:0:
72,224,67099,6,0,L|256:224,1,176.000005371094,6|8,0:0|0:0,0:0:0:0:
296,288,68238,2,0,L|344:288,1,44.0000013427735,0|8,1:0|0:0,0:0:0:0:
416,256,68808,2,0,P|440:192|408:128,1,132.00000402832,8|8,0:0|0:0,0:0:0:0:
256,136,70137,6,0,L|160:136,2,88.000002685547,0|0|8,1:0|1:0|0:0,0:0:0:0:
312,80,71276,1,8,0:0:0:0:
272,40,71656,6,0,L|144:40,1,120.000004577637,2|2,0:0|0:0,0:0:0:0:
152,40,73175,6,0,P|120:120|160:208,1,176.000005371094,4|8,0:0|0:0,0:0:0:0:
224,240,74314,2,0,L|280:240,1,44.0000013427735,0|8,1:0|0:0,0:0:0:0:
296,312,74884,2,0,P|232:344|168:328,1,132.00000402832,8|8,0:0|0:0,0:0:0:0:
104,296,75833,1,0,1:0:0:0:
56,232,76213,6,0,L|72:48,1,176.000005371094,2|8,0:0|0:0,0:0:0:0:
144,24,77352,2,0,L|208:16,1,44.0000013427735,0|8,1:0|0:0,0:0:0:0:
248,72,77922,2,0,L|392:64,1,132.00000402832,8|8,0:0|0:0,0:0:0:0:
440,120,78871,1,2,3:0:0:0:
392,184,79251,6,0,P|432:264|392:352,1,176.000005371094,6|8,0:0|0:0,0:0:0:0:
344,288,80390,2,0,L|280:288,1,44.0000013427735,0|8,1:0|0:0,0:0:0:0:
240,344,80960,6,0,L|104:344,1,132.00000402832,8|8,0:0|0:0,0:0:0:0:
48,296,81909,1,0,1:0:0:0:
104,240,82289,6,0,P|96:200|104:152,2,88.000002685547,0|0|8,1:0|1:0|0:0,0:0:0:0:
184,256,83428,1,8,0:0:0:0:
256,224,83808,6,0,L|352:208,2,88.000002685547,2|2|2,1:0|1:0|1:0,0:0:0:0:
208,160,84947,2,0,L|200:96,1,58.6666684570313,8|8,3:0|3:0,0:0:0:0:
