osu file format v14

[General]
AudioFilename: audio.mp3
AudioLeadIn: 0
PreviewTime: 166041
Countdown: 0
SampleSet: Soft
StackLeniency: 0.3
Mode: 0
LetterboxInBreaks: 0
WidescreenStoryboard: 0

[Editor]
DistanceSpacing: 1.2
BeatDivisor: 4
GridSize: 4
TimelineZoom: 1.4

[Metadata]
Title:House Of Cards (full length edition)
TitleUnicode:House Of Cards (full length edition)
Artist:BTS
ArtistUnicode:방탄소년단
Creator:Lapis Aoki
Version:Easy
Source:
Tags:Bangtan Boys BigHit Entertainment 화양연화 Young Forever 진 Jin 슈가 Suga 랩 몬스터 Rap Monster 제이 홉 J-Hope 지민 Jimin 뷔 V 정국 Jungkook K-pop Kpop
BeatmapID:1068446
BeatmapSetID:502024

[Difficulty]
HPDrainRate:1
CircleSize:2.5
OverallDifficulty:1
ApproachRate:1.2
SliderMultiplier:1.42
SliderTickRate:1

[Events]
//Background and Video events
0,0,"BG.jpg",0,0
//Break Periods
2,73375,89808
2,166895,181241
//Storyboard Layer 0 (Background)
//Storyboard Layer 1 (Fail)
//Storyboard Layer 2 (Pass)
//Storyboard Layer 3 (Foreground)
//Storyboard Sound Samples

[TimingPoints]
26,1142.9659967616,4,2,1,50,1,0
26314,-100,4,2,2,50,0,0
27457,-100,4,2,1,50,0,0
35457,-100,4,2,2,50,0,0
36600,-100,4,2,1,50,0,0
44601,-100,4,2,2,50,0,0
45744,-100,4,2,1,50,0,0
51459,-100,4,2,2,50,0,0
52602,-100,4,2,1,50,0,0
99464,-100,4,2,2,50,0,0
100607,-100,4,2,1,50,0,0
108607,-100,4,2,2,50,0,0
109750,-100,4,2,1,50,0,0
117751,-100,4,2,2,50,0,0
118894,-100,4,2,1,50,0,0
124609,-100,4,2,2,50,0,0
125752,-100,4,2,1,50,0,0
146325,-100,4,2,3,50,0,0
154326,-100,4,2,1,50,0,0
155469,-100,4,2,1,50,0,1
157755,-100,4,2,3,50,0,1
158898,-100,4,2,1,50,0,1
162612,-100,4,2,1,40,0,1
162898,-100,4,2,1,30,0,1
163184,-100,4,2,1,20,0,1
163470,-100,4,2,1,10,0,1
164613,-100,4,2,3,50,0,0
166895,1142.9659967616,4,2,1,50,1,0
182896,-100,4,2,1,50,0,1
184610,-100,4,2,1,50,0,0
185182,-100,4,2,1,60,0,1
194326,-100,4,2,1,50,0,0

[Colours]
Combo1 : 74,74,74
Combo2 : 111,172,169
Combo3 : 53,91,89
Combo4 : 176,79,79
Combo5 : 86,39,39
Combo6 : 178,178,178

[HitObjects]
40,116,18313,6,0,P|76:140|128:136,1,71,4|0,0:0|0:0,0:0:0:0:
188,128,19456,2,0,P|222:133|250:154,1,71,8|0,0:0|0:0,0:0:0:0:
272,236,20599,2,0,P|308:260|360:256,1,71,6|0,0:0|0:0,0:0:0:0:
337,177,21742,1,0,0:0:0:0:
404,124,22313,1,0,0:0:0:0:
456,192,22885,6,0,L|456:268,1,71,6|0,0:0|0:0,0:0:0:0:
416,336,24028,1,8,0:0:0:0:
252,288,25171,2,0,L|252:212,1,71,6|0,0:0|0:0,0:0:0:0:
188,160,26314,2,0,P|156:120|156:72,1,71,8|0,0:0|0:0,0:0:0:0:
236,92,27457,70,0,L|320:72,1,71,6|0,0:0|0:0,0:0:0:0:
384,48,28600,1,8,0:0:0:0:
400,216,29743,2,0,P|408:284|428:308,1,71,6|0,0:0|0:0,0:0:0:0:
484,320,30886,1,8,0:0:0:0:
416,368,31457,1,0,0:0:0:0:
336,336,32029,6,0,P|308:314|274:304,1,71,6|0,0:0|0:0,0:0:0:0:
188,304,33172,1,8,0:0:0:0:
68,184,34314,2,0,P|102:174|129:152,1,71,6|0,0:0|0:0,0:0:0:0:
156,72,35457,2,0,L|240:64,1,71,8|0,0:0|0:0,0:0:0:0:
300,112,36600,70,0,P|324:156|328:192,1,71,2|0,0:0|0:0,0:0:0:0:
376,248,37743,1,8,0:0:0:0:
424,316,38315,1,0,0:0:0:0:
340,328,38886,2,0,P|280:344|244:336,1,71,2|0,0:0|0:0,0:0:0:0:
204,292,40029,2,0,L|192:208,1,71,8|0,0:0|0:0,0:0:0:0:
256,160,41172,6,0,L|332:180,1,71,2|0,0:0|0:0,0:0:0:0:
404,204,42315,1,8,0:0:0:0:
432,284,42887,1,0,0:0:0:0:
356,320,43458,2,0,L|260:328,1,71,2|0,0:0|0:0,0:0:0:0:
204,300,44601,2,0,P|192:252|196:216,1,71,8|0,0:0|0:0,0:0:0:0:
120,188,45744,70,0,P|72:200|48:216,1,71,2|0,0:0|0:0,0:0:0:0:
4,144,46887,2,0,P|34:104|43:77,1,71,8|0,0:0|0:0,0:0:0:0:
120,52,48030,1,2,0:0:0:0:
188,100,48602,1,0,0:0:0:0:
252,156,49173,2,0,L|240:236,1,71,8|0,0:0|0:0,0:0:0:0:
320,260,50316,6,0,L|332:188,1,71,2|0,0:0|0:0,0:0:0:0:
340,104,51459,1,8,0:0:0:0:
260,132,52030,1,0,0:0:0:0:
180,104,52602,2,0,P|132:112|96:108,1,71,2|0,0:0|0:0,0:0:0:0:
40,160,53745,2,0,P|37:208|44:243,1,71,8|0,0:0|0:0,0:0:0:0:
108,284,54888,6,0,L|204:288,1,71,4|0,0:0|0:0,0:0:0:0:
244,232,56031,1,8,0:0:0:0:
388,140,57174,2,0,L|292:144,1,71,2|0,0:0|0:0,0:0:0:0:
248,92,58317,2,0,L|152:96,1,71,8|0,0:0|0:0,0:0:0:0:
164,180,59460,6,0,P|192:243|192:272,1,71,2|0,0:0|0:0,0:0:0:0:
200,328,60603,2,0,P|268:326|295:338,1,71,8|0,0:0|0:0,0:0:0:0:
352,344,61746,2,0,L|360:264,1,71,2|0,0:0|0:0,0:0:0:0:
404,200,62889,1,8,0:0:0:0:
384,116,63460,1,0,0:0:0:0:
300,132,64032,70,0,L|228:140,1,71,2|0,0:0|0:0,0:0:0:0:
168,84,65175,2,0,L|97:76,1,71,8|0,0:0|0:0,0:0:0:0:
32,132,66318,2,0,L|28:204,1,71,2|0,0:0|0:0,0:0:0:0:
96,252,67460,2,0,L|166:244,1,71,8|0,0:0|0:0,0:0:0:0:
225,182,68603,6,0,P|249:224|251:252,1,71,2|0,0:0|0:0,0:0:0:0:
208,320,69746,1,8,0:0:0:0:
352,228,70889,2,0,P|328:186|326:158,1,71,2|0,0:0|0:0,0:0:0:0:
369,90,72032,1,8,0:0:0:0:
284,88,72604,1,0,0:0:0:0:
328,16,73175,5,2,0:0:0:0:
122,238,91463,22,0,P|144:173|140:144,1,71,4|0,0:0|0:0,0:0:0:0:
88,108,92606,2,0,P|66:43|70:14,1,71,8|0,0:0|0:0,0:0:0:0:
152,48,93749,2,0,L|244:52,1,71,6|0,0:0|0:0,0:0:0:0:
304,80,94892,2,0,L|374:76,1,71,8|0,0:0|0:0,0:0:0:0:
408,156,96035,6,0,L|356:216,1,71,6|0,0:0|0:0,0:0:0:0:
360,296,97178,2,0,L|282:311,1,71,8|0,0:0|0:0,0:0:0:0:
216,352,98321,2,0,L|169:298,1,71,6|0,0:0|0:0,0:0:0:0:
172,212,99464,1,0,0:0:0:0:
228,148,100035,1,0,0:0:0:0:
296,96,100607,70,0,P|340:92|376:96,1,71,6|0,0:0|0:0,0:0:0:0:
420,160,101749,2,0,B|416:196|416:196|420:240,1,71,8|0,0:0|0:0,0:0:0:0:
364,296,102892,2,0,P|320:300|284:296,1,71,6|0,0:0|0:0,0:0:0:0:
240,232,104035,2,0,B|244:196|244:196|240:152,1,71,8|0,0:0|0:0,0:0:0:0:
228,76,105178,6,0,P|284:88|308:104,1,71,6|0,0:0|0:0,0:0:0:0:
344,164,106321,2,0,B|380:168|380:168|424:160,1,71,8|0,0:0|0:0,0:0:0:0:
484,112,107464,1,6,0:0:0:0:
428,48,108036,1,0,0:0:0:0:
344,52,108607,2,0,P|288:64|264:80,1,71,8|0,0:0|0:0,0:0:0:0:
212,124,109750,70,0,P|188:168|184:204,1,71,2|0,0:0|0:0,0:0:0:0:
132,256,110893,1,8,0:0:0:0:
80,324,111465,1,0,0:0:0:0:
164,336,112036,2,0,P|224:352|260:344,1,71,2|0,0:0|0:0,0:0:0:0:
300,300,113179,2,0,L|312:216,1,71,8|0,0:0|0:0,0:0:0:0:
256,164,114322,6,0,L|180:184,1,71,2|0,0:0|0:0,0:0:0:0:
104,204,115465,1,8,0:0:0:0:
80,284,116037,1,0,0:0:0:0:
156,320,116608,2,0,L|252:328,1,71,2|0,0:0|0:0,0:0:0:0:
308,300,117751,2,0,P|320:252|316:216,1,71,8|0,0:0|0:0,0:0:0:0:
392,188,118894,70,0,P|440:200|464:216,1,71,2|0,0:0|0:0,0:0:0:0:
496,136,120037,2,0,P|466:96|457:69,1,71,8|0,0:0|0:0,0:0:0:0:
380,44,121180,1,2,0:0:0:0:
320,104,121751,1,0,0:0:0:0:
272,176,122323,2,0,L|284:256,1,71,8|0,0:0|0:0,0:0:0:0:
200,264,123466,6,0,L|190:193,1,71,2|0,0:0|0:0,0:0:0:0:
172,108,124609,1,8,0:0:0:0:
252,132,125180,1,0,0:0:0:0:
332,104,125752,2,0,P|380:112|416:108,1,71,2|0,0:0|0:0,0:0:0:0:
472,160,126895,2,0,P|475:208|468:243,1,71,8|0,0:0|0:0,0:0:0:0:
404,284,128038,6,0,L|308:288,1,71,4|0,0:0|0:0,0:0:0:0:
268,232,129181,1,8,0:0:0:0:
124,140,130324,2,0,L|220:144,1,71,2|0,0:0|0:0,0:0:0:0:
264,92,131467,2,0,L|360:96,1,71,8|0,0:0|0:0,0:0:0:0:
348,180,132610,6,0,P|320:243|320:272,1,71,2|0,0:0|0:0,0:0:0:0:
312,328,133753,2,0,P|244:326|217:338,1,71,8|0,0:0|0:0,0:0:0:0:
160,344,134895,2,0,L|152:264,1,71,2|0,0:0|0:0,0:0:0:0:
108,200,136038,1,8,0:0:0:0:
128,116,136610,1,0,0:0:0:0:
212,132,137181,70,0,L|284:140,1,71,2|0,0:0|0:0,0:0:0:0:
344,84,138324,2,0,L|415:76,1,71,8|0,0:0|0:0,0:0:0:0:
480,132,139467,2,0,L|484:204,1,71,2|0,0:0|0:0,0:0:0:0:
416,252,140610,2,0,L|346:244,1,71,8|0,0:0|0:0,0:0:0:0:
287,182,141753,6,0,P|263:224|261:252,1,71,2|0,0:0|0:0,0:0:0:0:
304,320,142896,1,8,0:0:0:0:
160,228,144039,2,0,P|184:186|186:158,1,71,2|0,0:0|0:0,0:0:0:0:
143,90,145182,1,8,0:0:0:0:
228,88,145754,1,0,0:0:0:0:
184,16,146325,5,2,0:0:0:0:
320,120,147468,1,2,0:0:0:0:
252,276,148611,1,2,0:0:0:0:
172,124,149754,1,2,0:0:0:0:
64,256,150897,5,2,0:0:0:0:
224,316,152040,1,2,0:0:0:0:
252,148,153183,1,2,0:0:0:0:
272,316,154326,2,0,P|320:304|364:312,1,71,8|0,0:0|0:0,0:0:0:0:
396,240,155469,38,0,P|414:193|404:144,1,71,4|0,0:0|0:0,0:0:0:0:
356,112,156612,1,8,0:0:0:0:
192,64,157755,2,0,L|104:56,1,71,2|0,0:0|0:0,0:0:0:0:
40,84,158898,1,8,0:0:0:0:
164,200,160041,6,0,L|252:192,1,71,2|0,0:0|0:0,0:0:0:0:
316,220,161184,1,8,0:0:0:0:
256,192,162327,12,2,164613,0:0:0:0:
440,40,182896,70,0,P|475:77|493:122,1,71,4|4,0:0|0:0,0:0:0:0:
457,174,184039,1,4,0:0:0:0:
459,259,184610,1,4,0:0:0:0:
384,300,185182,6,0,L|288:304,1,71,4|0,0:0|0:0,0:0:0:0:
268,232,186325,1,8,0:0:0:0:
124,140,187468,2,0,L|220:144,1,71,2|0,0:0|0:0,0:0:0:0:
264,92,188611,2,0,L|360:96,1,71,8|0,0:0|0:0,0:0:0:0:
348,180,189754,70,0,P|320:243|320:272,1,71,2|0,0:0|0:0,0:0:0:0:
312,328,190897,2,0,P|244:326|217:338,1,71,8|0,0:0|0:0,0:0:0:0:
160,344,192040,2,0,L|152:264,1,71,2|0,0:0|0:0,0:0:0:0:
108,200,193183,1,8,0:0:0:0:
128,116,193754,1,0,0:0:0:0:
212,132,194326,6,0,L|284:140,1,71,2|0,0:0|0:0,0:0:0:0:
344,84,195469,2,0,L|415:76,1,71,8|0,0:0|0:0,0:0:0:0:
480,132,196612,2,0,L|484:204,1,71,2|0,0:0|0:0,0:0:0:0:
416,252,197755,2,0,L|346:244,1,71,8|0,0:0|0:0,0:0:0:0:
287,182,198898,70,0,P|263:224|261:252,1,71,2|0,0:0|0:0,0:0:0:0:
304,320,200041,1,8,0:0:0:0:
160,228,201183,2,0,P|184:186|186:158,1,71,2|0,0:0|0:0,0:0:0:0:
143,90,202326,1,8,0:0:0:0:
228,88,202898,1,0,0:0:0:0:
184,16,203469,21,2,0:0:0:0:
