osu file format v14

[General]
AudioFilename: audio.mp3
AudioLeadIn: 0
PreviewTime: 166041
Countdown: 0
SampleSet: Soft
StackLeniency: 0.3
Mode: 0
LetterboxInBreaks: 0
WidescreenStoryboard: 0

[Editor]
DistanceSpacing: 1.3
BeatDivisor: 4
GridSize: 4
TimelineZoom: 1.4

[Metadata]
Title:House Of Cards (full length edition)
TitleUnicode:House Of Cards (full length edition)
Artist:BTS
ArtistUnicode:방탄소년단
Creator:Lapis Aoki
Version:Collapsing
Source:
Tags:Bangtan Boys BigHit Entertainment 화양연화 Young Forever 진 Jin 슈가 Suga 랩 몬스터 Rap Monster 제이 홉 J-Hope 지민 Jimin 뷔 V 정국 Jungkook K-pop Kpop
BeatmapID:1068447
BeatmapSetID:502024

[Difficulty]
HPDrainRate:3
CircleSize:3.2
OverallDifficulty:3
ApproachRate:3.2
SliderMultiplier:1.62
SliderTickRate:1

[Events]
//Background and Video events
0,0,"BG.jpg",0,0
//Break Periods
2,73376,80905
2,166895,181481
//Storyboard Layer 0 (Background)
//Storyboard Layer 1 (Fail)
//Storyboard Layer 2 (Pass)
//Storyboard Layer 3 (Foreground)
//Storyboard Sound Samples

[TimingPoints]
26,1142.9659967616,4,2,1,50,1,0
21456,-100,4,2,1,25,0,0
21742,-100,4,2,1,50,0,0
26028,-100,4,2,1,25,0,0
26314,-100,4,2,2,50,0,0
27457,-100,4,2,1,50,0,0
32886,-100,4,2,1,25,0,0
33172,-100,4,2,1,50,0,0
35172,-100,4,2,1,25,0,0
35457,-100,4,2,2,50,0,0
36600,-100,4,2,1,50,0,0
44315,-100,4,2,1,25,0,0
44601,-100,4,2,2,50,0,0
45744,-100,4,2,1,50,0,0
51459,-100,4,2,2,50,0,0
52602,-100,4,2,1,50,0,0
60317,-100,4,2,1,25,0,0
60603,-100,4,2,1,50,0,0
71747,-100,4,2,1,25,0,0
72032,-100,4,2,1,50,0,0
96892,-100,4,2,1,25,0,0
97178,-100,4,2,1,50,0,0
99178,-100,4,2,1,25,0,0
99464,-100,4,2,2,50,0,0
100607,-100,4,2,1,50,0,0
106036,-100,4,2,1,25,0,0
106321,-100,4,2,1,50,0,0
108322,-100,4,2,1,25,0,0
108607,-100,4,2,2,50,0,0
109750,-100,4,2,1,50,0,0
117465,-100,4,2,1,25,0,0
117751,-100,4,2,2,50,0,0
118894,-100,4,2,1,50,0,0
124609,-100,4,2,2,50,0,0
125752,-100,4,2,1,50,0,0
131181,-100,4,2,1,25,0,0
131467,-100,4,2,1,50,0,0
140325,-100,4,2,1,25,0,0
140610,-100,4,2,1,50,0,0
144896,-100,4,2,1,25,0,0
145182,-100,4,2,1,50,0,0
146325,-100,4,2,3,50,0,0
151754,-100,4,2,3,25,0,0
152040,-100,4,2,3,50,0,0
154040,-100,4,2,3,25,0,0
154326,-100,4,2,1,50,0,0
155469,-100,4,2,1,50,0,1
156326,-100,4,2,1,25,0,1
156612,-100,4,2,1,50,0,1
157755,-100,4,2,3,50,0,1
158612,-100,4,2,3,25,0,1
158898,-100,4,2,1,50,0,1
160898,-100,4,2,1,25,0,1
161184,-100,4,2,1,50,0,1
163470,-100,4,2,3,50,0,1
164613,-100,4,2,3,50,0,0
166895,1142.9659967616,4,2,1,50,1,0
182896,-100,4,2,1,50,0,1
184610,-100,4,2,1,50,0,0
185182,-100,4,2,1,60,0,1
186039,-100,4,2,1,25,0,1
186325,-100,4,2,1,60,0,1
188325,-100,4,2,1,25,0,1
188611,-100,4,2,1,60,0,1
190611,-100,4,2,1,25,0,1
190897,-100,4,2,1,60,0,1
192897,-100,4,2,1,25,0,1
193183,-100,4,2,1,60,0,1
194326,-100,4,2,1,50,0,0

[Colours]
Combo1 : 74,74,74
Combo2 : 111,172,169
Combo3 : 53,91,89
Combo4 : 176,79,79
Combo5 : 86,39,39
Combo6 : 178,178,178

[HitObjects]
16,180,18313,6,0,P|72:196|104:192,1,81,4|0,0:0|0:0,0:0:0:0:
152,116,19456,2,0,P|208:100|240:104,1,81,8|0,0:0|0:0,0:0:0:0:
308,160,20599,2,0,B|288:196|308:236|308:236|284:268|296:288,1,121.5,6|0,0:0|0:0,0:0:0:0:
300,320,21742,2,0,L|388:316,1,81,8|0,0:0|0:0,0:0:0:0:
424,220,22885,6,0,P|400:176|356:156,1,81,6|0,0:0|0:0,0:0:0:0:
272,176,24028,2,0,P|239:153|223:116,1,81,8|0,0:0|0:0,0:0:0:0:
148,52,25171,2,0,B|140:104|104:128|104:128|72:104,1,121.5,6|0,0:0|0:0,0:0:0:0:
32,100,26314,2,0,L|28:192,1,81,8|0,0:0|0:0,0:0:0:0:
32,232,27171,1,0,0:0:0:0:
60,276,27457,70,0,P|112:284|148:276,1,81,6|0,0:0|0:0,0:0:0:0:
216,208,28600,2,0,P|255:202|295:210,1,81,8|0,0:0|0:0,0:0:0:0:
384,264,29743,2,0,L|388:176,1,81,6|0,0:0|0:0,0:0:0:0:
488,148,30886,2,0,L|491:228,1,81,8|0,0:0|0:0,0:0:0:0:
416,304,32029,6,0,B|340:332|340:332|336:292|316:264,1,121.5,6|0,0:0|0:0,0:0:0:0:
292,256,33172,1,8,0:0:0:0:
144,204,34029,1,0,0:0:0:0:
144,204,34314,2,0,B|136:156|144:140|144:140|192:116|208:128,1,121.5,6|0,0:0|0:0,0:0:0:0:
244,152,35457,2,0,P|292:164|328:160,1,81,8|0,0:0|0:0,0:0:0:0:
388,80,36601,70,0,L|472:92,1,81,2|0,0:0|0:0,0:0:0:0:
492,140,37458,1,0,0:0:0:0:
488,192,37743,2,0,L|407:180,1,81,8|0,0:0|0:0,0:0:0:0:
316,232,38887,2,0,P|268:244|224:232,1,81,2|0,0:0|0:0,0:0:0:0:
204,196,39744,1,0,0:0:0:0:
228,148,40030,2,0,P|268:136|312:144,1,81,8|0,0:0|0:0,0:0:0:0:
376,220,41173,6,0,L|372:328,1,81,2|0,0:0|0:0,0:0:0:0:
268,316,42316,2,0,L|272:228,1,81,8|0,0:0|0:0,0:0:0:0:
172,204,43459,2,0,L|164:360,1,121.5,2|0,0:0|0:0,0:0:0:0:
204,364,44601,2,0,L|292:372,1,81,8|0,0:0|0:0,0:0:0:0:
356,296,45744,70,0,L|348:208,1,81,2|0,0:0|0:0,0:0:0:0:
304,188,46601,1,0,0:0:0:0:
272,148,46887,2,0,L|280:60,1,81,8|0,0:0|0:0,0:0:0:0:
380,32,48031,2,0,B|424:29|424:29|487:55,1,81,2|0,0:0|0:0,0:0:0:0:
480,92,48887,1,0,0:0:0:0:
468,148,49174,2,0,B|448:184|448:184|448:256,1,81,8|0,0:0|0:0,0:0:0:0:
356,276,50317,6,0,L|264:264,1,81,2|0,0:0|0:0,0:0:0:0:
284,160,51460,2,0,L|380:172,1,81,8|0,0:0|0:0,0:0:0:0:
360,64,52602,2,0,L|256:48,1,81,2|0,0:0|0:0,0:0:0:0:
228,56,53459,1,0,0:0:0:0:
176,68,53745,2,0,P|152:108|148:144,1,81,8|0,3:2|0:0,0:0:0:0:
156,192,54602,1,0,0:0:0:0:
192,232,54888,6,0,P|200:284|172:340,1,81,4|0,0:0|0:0,0:0:0:0:
88,316,56031,2,0,P|79:276|88:237,1,81,8|0,0:0|0:0,0:0:0:0:
192,232,57174,2,0,L|276:224,1,81,2|0,0:0|0:0,0:0:0:0:
328,136,58317,2,0,L|412:128,1,81,8|0,0:0|0:0,0:0:0:0:
472,212,59460,6,0,B|484:268|484:268|472:348,1,121.5,2|0,0:0|0:0,0:0:0:0:
424,348,60603,2,0,P|380:328|352:292,1,81,8|0,0:0|0:0,0:0:0:0:
264,348,61746,2,0,B|212:368|212:368|172:352,1,81,2|0,0:0|0:0,0:0:0:0:
220,260,62889,2,0,B|196:250|196:250|144:270,1,81,8|0,0:0|0:0,0:0:0:0:
76,192,64032,70,0,L|80:84,1,81,2|0,0:0|0:0,0:0:0:0:
180,80,65175,2,0,L|176:176,1,81,8|0,0:0|0:0,0:0:0:0:
148,264,66318,2,0,L|228:264,1,81,2|0,0:0|0:0,0:0:0:0:
212,368,67460,2,0,L|132:368,1,81,8|0,0:0|0:0,0:0:0:0:
88,336,68318,1,0,0:0:0:0:
64,288,68604,6,0,P|62:247|76:210,1,81,2|0,0:0|0:0,0:0:0:0:
168,180,69747,2,0,P|180:141|177:101,1,81,8|0,0:0|0:0,0:0:0:0:
200,56,70604,1,0,0:0:0:0:
252,56,70890,2,0,B|272:88|264:128|264:128|292:148|328:124,1,121.5,2|0,0:0|0:0,0:0:0:0:
344,96,72032,2,0,P|368:52|400:32,1,81,8|0,0:0|0:0,0:0:0:0:
445,126,73176,5,2,0:0:0:0:
420,276,82320,5,2,0:0:0:0:
356,200,82891,2,0,P|311:191|271:203,1,81
204,276,84034,1,0,0:0:0:0:
100,284,84605,1,2,0:0:0:0:
92,180,85177,2,0,L|104:96,1,81
188,52,86320,1,0,0:0:0:0:
268,108,86891,70,0,P|304:128|360:124,1,81,2|0,0:0|0:0,0:0:0:0:
344,228,88034,2,0,P|303:229|268:249,1,81
257,345,89177,2,0,P|201:321|175:225,1,162,2|2,0:0|0:0,0:0:0:0:
237,156,90892,1,0,0:0:0:0:
315,212,91463,22,0,L|400:212,1,81,4|0,0:0|0:0,0:0:0:0:
412,116,92606,2,0,L|296:116,1,81,8|0,0:0|0:0,0:0:0:0:
237,156,93749,2,0,P|220:208|224:240,1,81,6|0,0:0|0:0,0:0:0:0:
312,268,94892,2,0,P|329:320|325:352,1,81,8|0,0:0|0:0,0:0:0:0:
276,360,95749,1,0,0:0:0:0:
232,328,96035,6,0,L|104:336,1,121.5,2|0,0:0|0:0,0:0:0:0:
92,288,97178,2,0,L|112:184,1,81,8|0,0:0|0:0,0:0:0:0:
148,112,98321,2,0,B|176:144|220:144|220:144|224:80|236:68,1,121.5,2|0,0:0|0:0,0:0:0:0:
260,68,99464,2,0,L|348:60,1,81,8|0,0:0|0:0,0:0:0:0:
396,152,100607,70,0,L|392:240,1,81,6|0,0:0|0:0,0:0:0:0:
324,312,101750,2,0,B|285:298|285:298|248:311,1,81,8|0,0:0|0:0,0:0:0:0:
176,232,102893,2,0,L|172:151,1,81,6|0,0:0|0:0,0:0:0:0:
248,80,104036,2,0,B|285:92|285:92|324:78,1,81,8|0,0:0|0:0,0:0:0:0:
364,44,104893,1,0,0:0:0:0:
412,60,105178,6,0,B|448:92|448:120|448:120|404:152|412:192,1,121.5,6|0,0:0|0:0,0:0:0:0:
388,200,106321,2,0,B|352:196|352:196|296:216,1,81,8|0,0:0|0:0,0:0:0:0:
288,260,107179,1,0,0:0:0:0:
244,292,107464,2,0,B|200:284|180:244|180:244|136:232|128:200,1,121.5,6|0,0:0|0:0,0:0:0:0:
112,188,108607,2,0,L|120:96,1,81,8|0,0:0|0:0,0:0:0:0:
224,108,109750,70,0,L|304:119,1,81,2|0,0:0|0:0,0:0:0:0:
348,152,110607,1,0,0:0:0:0:
328,200,110893,2,0,L|247:211,1,81,8|0,0:0|0:0,0:0:0:0:
170,282,112036,2,0,P|148:247|143:208,1,81,2|0,0:0|0:0,0:0:0:0:
164,160,112893,1,0,0:0:0:0:
204,124,113179,2,0,P|239:104|278:101,1,81,8|0,0:0|0:0,0:0:0:0:
352,176,114322,6,0,L|349:256,1,81,2|0,0:0|0:0,0:0:0:0:
252,300,115465,2,0,L|255:219,1,81,8|0,0:0|0:0,0:0:0:0:
152,244,116608,2,0,L|158:122,1,121.5,2|0,0:0|0:0,0:0:0:0:
180,76,117750,2,0,L|260:83,1,81,8|0,0:0|0:0,0:0:0:0:
352,136,118893,70,0,L|359:216,1,81,2|0,0:0|0:0,0:0:0:0:
408,236,119751,1,0,0:0:0:0:
456,216,120036,2,0,L|463:135,1,81,8|0,0:0|0:0,0:0:0:0:
388,60,121180,2,0,B|354:46|354:46|310:49,1,81,2|0,0:0|0:0,0:0:0:0:
268,80,122037,1,0,0:0:0:0:
240,124,122323,2,0,B|220:164|220:164|220:200,1,81,8|0,0:0|0:0,0:0:0:0:
180,296,123466,6,0,L|99:285,1,81,2|0,0:0|0:0,0:0:0:0:
140,188,124609,2,0,L|220:198,1,81,8|0,0:0|0:0,0:0:0:0:
272,104,125751,2,0,L|191:91,1,81,2|0,0:0|0:0,0:0:0:0:
140,80,126608,1,0,0:0:0:0:
88,96,126894,2,0,P|66:129|59:169,1,81,8|0,3:2|0:0,0:0:0:0:
72,220,127752,1,0,0:0:0:0:
108,260,128038,6,0,L|188:248,1,81,4|0,0:0|0:0,0:0:0:0:
272,188,129181,2,0,L|352:200,1,81,8|0,0:0|0:0,0:0:0:0:
452,228,130324,2,0,B|424:252|424:296|424:296|396:288|372:292,1,121.5,2|0,0:0|0:0,0:0:0:0:
332,312,131467,1,8,0:0:0:0:
272,224,132039,1,0,0:0:0:0:
224,320,132610,6,0,L|128:308,1,81,2|0,0:0|0:0,0:0:0:0:
108,268,133467,1,0,0:0:0:0:
84,220,133753,2,0,L|164:209,1,81,8|0,0:0|0:0,0:0:0:0:
252,150,134896,2,0,P|272:198|268:230,1,81,2|0,0:0|0:0,0:0:0:0:
240,268,135753,1,0,0:0:0:0:
192,292,136039,2,0,P|172:340|176:372,1,81,8|0,0:0|0:0,0:0:0:0:
80,320,137181,70,0,P|100:272|96:240,1,81,2|0,0:0|0:0,0:0:0:0:
64,144,138324,2,0,P|44:96|48:64,1,81,8|0,0:0|0:0,0:0:0:0:
152,48,139467,2,0,B|184:36|228:48|228:48|260:36|284:48,1,121.5,2|0,0:0|0:0,0:0:0:0:
312,80,140610,2,0,P|324:136|324:168,1,81,8|0,0:0|0:0,0:0:0:0:
256,240,141754,6,0,L|340:260,1,81,2|0,0:0|0:0,0:0:0:0:
344,312,142611,1,0,0:0:0:0:
312,352,142897,2,0,L|232:332,1,81,8|0,0:0|0:0,0:0:0:0:
160,256,144039,2,0,B|192:204|192:204|160:164|184:116,1,121.5,2|0,0:0|0:0,0:0:0:0:
200,104,145182,2,0,P|224:68|276:44,1,81,8|0,0:0|0:0,0:0:0:0:
294,146,146326,21,2,0:0:0:0:
448,288,147469,1,2,0:0:0:0:
236,300,148612,1,2,0:0:0:0:
68,172,149755,1,2,0:0:0:0:
164,128,150326,1,0,0:0:0:0:
124,32,150897,70,0,P|96:72|4:72,1,121.5,2|0,0:0|0:0,0:0:0:0:
8,132,152040,2,0,P|20:188|20:224,1,81,2|0,0:0|0:0,0:0:0:0:
120,252,153183,2,0,P|176:230|236:224,1,121.5,2|0,0:0|0:0,0:0:0:0:
276,188,154326,2,0,L|284:88,1,81,8|0,3:2|0:0,0:0:0:0:
384,80,155469,54,0,L|396:220,1,121.5,4|0,0:0|0:0,0:0:0:0:
416,248,156612,1,8,0:0:0:0:
276,320,157469,1,0,0:0:0:0:
276,320,157755,2,0,P|216:276|152:316,1,121.5,2|0,0:0|0:0,0:0:0:0:
132,316,158898,1,8,0:0:0:0:
84,224,159469,1,0,0:0:0:0:
84,224,159755,1,0,0:0:0:0:
84,224,160041,6,0,P|131:166|94:100,1,121.5,2|0,0:0|0:0,0:0:0:0:
124,72,161184,2,0,P|164:48|200:40,1,81,8|0,0:0|0:0,0:0:0:0:
296,76,162327,70,0,B|306:169|404:156|372:271|372:271|318:200|273:207,1,324,2|2,0:0|0:0,0:0:0:0:
320,276,182896,5,4,0:0:0:0:
376,196,183468,1,4,0:0:0:0:
320,116,184039,1,4,0:0:0:0:
228,148,184610,1,4,0:0:0:0:
228,244,185182,70,0,P|228:288|135:315,1,121.5,4|0,0:0|0:0,0:0:0:0:
118,308,186325,1,0,0:0:0:0:
84,208,186896,1,0,0:0:0:0:
164,152,187468,2,0,B|224:120|224:120|272:116|308:144,1,121.5,2|0,0:0|0:0,0:0:0:0:
316,160,188611,1,8,0:0:0:0:
388,84,189182,1,0,0:0:0:0:
440,176,189754,6,0,B|428:212|448:256|448:256|384:252,1,121.5,2|0,0:0|0:0,0:0:0:0:
356,244,190897,1,8,0:0:0:0:
320,144,191468,1,0,0:0:0:0:
240,212,192040,2,0,L|96:236,1,121.5,2|0,0:0|0:0,0:0:0:0:
68,224,193183,1,8,0:0:0:0:
8,136,193754,1,0,0:0:0:0:
84,64,194326,70,0,L|176:72,1,81,2|0,0:0|0:0,0:0:0:0:
192,172,195469,2,0,L|284:164,1,81,8|0,0:0|0:0,0:0:0:0:
328,76,196612,2,0,P|372:128|372:176,1,81,2|0,0:0|0:0,0:0:0:0:
360,244,197755,2,0,P|306:286|258:284,1,81,8|0,0:0|0:0,0:0:0:0:
192,280,198898,6,0,P|140:264|108:264,1,81,2|0,0:0|0:0,0:0:0:0:
48,180,200041,2,0,P|88:177|126:163,1,81,8|0,0:0|0:0,0:0:0:0:
216,108,201183,2,0,B|256:104|288:68|288:68|308:104|324:112,1,121.5,2|0,0:0|0:0,0:0:0:0:
340,140,202326,2,0,P|344:188|340:228,1,81,8|0,0:0|0:0,0:0:0:0:
264,292,203469,5,2,0:0:0:0:
