osu file format v14

[General]
AudioFilename: audio.mp3
AudioLeadIn: 0
PreviewTime: 85069
Countdown: 0
SampleSet: Soft
StackLeniency: 0.4
Mode: 0
LetterboxInBreaks: 0
WidescreenStoryboard: 0

[Editor]
DistanceSpacing: 1.4
BeatDivisor: 4
GridSize: 4
TimelineZoom: 3.199999

[Metadata]
Title:Go Go
TitleUnicode:고민보다
Artist:BTS
ArtistUnicode:방탄소년단
Creator:Lilyanna
Version:YOLO
Source:
Tags:k-pop kpop bangtan boys sonyeondan beyond the scene love yourself ly her Hari
BeatmapID:1687778
BeatmapSetID:804063

[Difficulty]
HPDrainRate:6
CircleSize:4.6
OverallDifficulty:7
ApproachRate:9
SliderMultiplier:2.2
SliderTickRate:1

[Events]
//Background and Video events
0,0,"yolo.jpg",0,0
//Break Periods
2,184037,190296
//Storyboard Layer 0 (Background)
//Storyboard Layer 1 (Fail)
//Storyboard Layer 2 (Pass)
//Storyboard Layer 3 (Foreground)
//Storyboard Sound Samples

[TimingPoints]
14426,441.176470588235,4,2,1,50,1,0
14866,-166.666666666667,4,2,1,50,0,0
15307,-100,4,2,1,50,0,0
18396,-166.666666666667,4,2,1,50,0,0
18837,-100,4,2,1,50,0,0
21925,-166.666666666667,4,2,1,50,0,0
22366,-100,4,2,1,50,0,0
23690,-166.666666666667,4,2,1,50,0,0
24131,-100,4,2,1,50,0,0
25455,-166.666666666667,4,2,1,50,0,0
25896,-100,4,2,1,50,0,0
26778,-125,4,2,1,50,0,0
27219,-166.666666666667,4,2,1,50,0,0
28543,-100,4,2,1,60,0,0
29425,-125,4,2,1,60,0,0
29866,-100,4,2,1,60,0,0
41337,-1000,4,2,1,60,0,0
41668,-1000,4,2,1,5,0,0
41778,-125,4,2,1,60,0,0
43543,-250,4,2,1,60,0,0
43984,-76.9230769230769,4,2,1,60,0,0
44425,-125,4,2,1,60,0,0
45307,-250,4,2,1,60,0,0
45748,-76.9230769230769,4,2,1,60,0,0
46189,-125,4,2,1,60,0,0
48837,-250,4,2,1,60,0,0
49278,-76.9230769230769,4,2,1,60,0,0
49719,-125,4,2,1,60,0,0
50602,-76.9230769230769,4,2,1,60,0,0
51043,-125,4,2,1,60,0,0
52366,-76.9230769230769,4,2,1,60,0,0
52807,-125,4,2,1,60,0,0
55013,-50,4,2,1,60,0,0
56778,-50,4,2,1,25,0,0
57660,-125,4,2,1,60,0,0
58543,-250,4,2,1,60,0,0
58984,-125,4,2,1,60,0,0
60307,-250,4,2,1,60,0,0
60748,-125,4,2,1,60,0,0
62955,-100,4,2,1,60,0,0
63396,-76.9230769230769,4,2,1,60,0,0
63837,-76.9230769230769,4,2,1,25,0,0
64719,-125,4,2,1,60,0,0
65602,-250,4,2,1,60,0,0
66043,-125,4,2,1,60,0,0
67366,-250,4,2,1,60,0,0
67807,-125,4,2,1,60,0,0
69131,-250,4,2,1,60,0,0
69572,-125,4,2,1,60,0,0
71337,-166.666666666667,4,2,1,60,0,0
71778,-125,4,2,1,60,0,0
74866,-166.666666666667,4,2,1,60,0,0
75307,-125,4,2,1,60,0,0
78396,-166.666666666667,4,2,1,60,0,0
78837,-125,4,2,1,60,0,0
80602,-100,4,2,1,60,0,0
81043,-50,4,2,1,60,0,0
81484,-125,4,2,1,60,0,0
82366,-100,4,2,1,60,0,0
82807,-50,4,2,1,60,0,0
83249,-71.4285714285714,4,2,1,60,0,0
83690,-125,4,2,1,60,0,0
84131,-100,4,2,1,60,0,0
85014,-500,4,2,1,70,0,1
86337,-100,4,2,1,70,0,1
87219,-500,4,2,1,70,0,1
88543,-50,4,2,1,70,0,1
90307,-166.666666666667,4,2,1,70,0,1
91190,-100,4,2,1,70,0,1
92072,-500,4,2,1,70,0,1
93396,-76.9230769230769,4,2,1,70,0,1
93616,-100,4,2,1,70,0,1
95602,-50,4,2,1,70,0,1
97366,-166.666666666667,4,2,1,70,0,1
98249,-100,4,2,1,70,0,1
99131,-500,4,2,1,70,0,1
100455,-76.9230769230769,4,2,1,70,0,1
100675,-100,4,2,1,70,0,1
101337,-500,4,2,1,70,0,1
102660,-50,4,2,1,70,0,1
104425,-166.666666666667,4,2,1,70,0,1
105308,-100,4,2,1,70,0,1
106190,-500,4,2,1,70,0,1
107513,-76.9230769230769,4,2,1,70,0,1
107734,-100,4,2,1,70,0,1
109719,-50,4,2,1,70,0,1
111484,-166.666666666667,4,2,1,70,0,1
113249,-100,4,2,1,55,0,0
114131,-125,4,2,1,55,0,0
114572,-66.6666666666667,4,2,1,55,0,0
115013,-100,4,2,1,55,0,0
115896,-125,4,2,1,55,0,0
116337,-66.6666666666667,4,2,1,55,0,0
116778,-100,4,2,1,55,0,0
118543,-66.6666666666667,4,2,1,55,0,0
118874,-83.3333333333333,4,2,1,55,0,0
119205,-111.111111111111,4,2,1,55,0,0
119535,-166.666666666667,4,2,1,55,0,0
120307,-100,4,2,1,55,0,0
121190,-125,4,2,1,55,0,0
121630,-66.6666666666667,4,2,1,55,0,0
122071,-100,4,2,1,55,0,0
122955,-125,4,2,1,55,0,0
123395,-66.6666666666667,4,2,1,55,0,0
123836,-100,4,2,1,55,0,0
127366,-100,4,2,1,60,0,0
141043,-50,4,2,1,55,0,0
141263,-125,4,2,1,60,0,0
141925,-166.666666666667,4,2,1,60,0,0
142366,-125,4,2,1,60,0,0
145454,-166.666666666667,4,2,1,60,0,0
145895,-125,4,2,1,60,0,0
148984,-166.666666666667,4,2,1,60,0,0
149425,-125,4,2,1,60,0,0
151190,-100,4,2,1,60,0,0
151631,-50,4,2,1,60,0,0
152072,-125,4,2,1,60,0,0
152954,-100,4,2,1,60,0,0
153395,-50,4,2,1,60,0,0
153837,-71.4285714285714,4,2,1,60,0,0
154278,-125,4,2,1,60,0,0
154719,-100,4,2,1,60,0,0
155602,-500,4,2,1,70,0,1
156925,-100,4,2,1,70,0,1
157807,-500,4,2,1,70,0,1
159131,-50,4,2,1,70,0,1
160895,-166.666666666667,4,2,1,70,0,1
161778,-100,4,2,1,70,0,1
162660,-500,4,2,1,70,0,1
163984,-76.9230769230769,4,2,1,70,0,1
164205,-100,4,2,1,70,0,1
166190,-50,4,2,1,70,0,1
167954,-166.666666666667,4,2,1,70,0,1
168837,-100,4,2,1,70,0,1
169719,-500,4,2,1,70,0,1
171043,-76.9230769230769,4,2,1,70,0,1
171263,-100,4,2,1,70,0,1
171925,-500,4,2,1,70,0,1
173248,-50,4,2,1,70,0,1
175013,-166.666666666667,4,2,1,70,0,1
175896,-100,4,2,1,70,0,1
176778,-500,4,2,1,70,0,1
178101,-76.9230769230769,4,2,1,70,0,1
178322,-100,4,2,1,70,0,1
180307,-50,4,2,1,70,0,1
182072,-166.666666666667,4,2,1,70,0,1
183837,-100,4,2,1,60,0,0
196631,-142.857142857143,4,2,1,60,0,0
197072,-100,4,2,1,60,0,0
212073,-100,4,2,1,70,0,1
224425,-100,4,2,1,60,0,0
226190,-166.666666666667,4,2,1,40,0,0
227072,-166.666666666667,4,2,1,5,0,0
227513,-166.666666666667,4,2,1,40,0,0
228837,-166.666666666667,4,2,1,5,0,0
229057,-166.666666666667,4,2,1,40,0,0
230602,-166.666666666667,4,2,1,5,0,0
230822,-166.666666666667,4,2,1,40,0,0
232366,-166.666666666667,4,2,1,5,0,0

[Colours]
Combo1 : 255,128,128
Combo2 : 255,255,60
Combo3 : 255,21,21
Combo4 : 36,184,255
Combo5 : 43,255,43
Combo6 : 255,149,43

[HitObjects]
326,81,14426,6,0,P|366:124|340:244,1,165,2|0,0:0|0:0,0:0:0:0:
358,224,14867,6,0,P|340:251|313:269,1,65.9999979858399,2|0,0:0|0:0,0:0:0:0:
269,167,15308,1,8,0:0:0:0:
269,167,15749,1,0,0:0:0:0:
191,106,15970,1,8,0:0:0:0:
164,212,16190,6,0,B|116:198|116:198|62:153|91:68,1,165,2|0,0:0|0:0,0:0:0:0:
191,106,16631,2,0,B|231:111|257:128|257:128|273:181,1,110,2|0,0:0|0:0,0:0:0:0:
198,26,17073,2,0,B|266:37|311:65|311:65|334:115,1,165,8|0,0:0|0:0,0:0:0:0:
269,166,17514,1,2,0:0:0:0:
163,218,17734,1,0,0:0:0:0:
77,275,17955,6,0,P|120:315|240:289,1,165,2|0,0:0|0:0,0:0:0:0:
220,307,18396,6,0,P|247:289|265:262,1,65.9999979858399,2|0,0:0|0:0,0:0:0:0:
163,218,18837,1,8,0:0:0:0:
265,261,19058,1,0,0:0:0:0:
163,218,19278,1,0,0:0:0:0:
265,261,19499,1,8,0:0:0:0:
307,73,19720,6,0,B|302:152|309:185|309:185|340:199|354:256,1,165,2|0,0:0|0:0,0:0:0:0:
326,320,20161,2,0,P|268:346|217:329,1,110,2|0,0:0|0:0,0:0:0:0:
154,152,20602,2,0,P|184:220|116:296,1,165,8|0,0:0|0:0,0:0:0:0:
106,218,21043,1,8,0:0:0:0:
87,109,21264,1,8,0:0:0:0:
191,74,21484,6,0,B|273:44|273:113|373:77,1,165,2|0,0:0|0:0,0:0:0:0:
351,83,21925,6,0,P|350:126|365:159,1,65.9999979858399,2|0,0:0|0:0,0:0:0:0:
460,106,22367,1,8,0:0:0:0:
362,302,22808,2,0,L|246:320,1,110
169,246,23249,6,0,L|348:221,1,165,2|0,0:0|0:0,0:0:0:0:
332,223,23690,6,0,P|330:180|345:147,1,65.9999979858399,2|0,0:0|0:0,0:0:0:0:
441,200,24131,1,8,0:0:0:0:
408,94,24352,1,0,0:0:0:0:
306,53,24573,2,0,L|197:69,1,110
256,163,25014,6,0,L|77:188,1,165,2|0,0:0|0:0,0:0:0:0:
92,185,25455,6,0,P|93:227|78:260,1,65.9999979858399,2|0,0:0|0:0,0:0:0:0:
30,344,25896,1,8,0:0:0:0:
139,337,26117,1,0,0:0:0:0:
191,240,26337,2,0,P|235:260|193:259,1,110,10|0,0:0|0:0,0:0:0:0:
203,144,26778,6,0,P|261:153|304:198,1,88,8|0,0:0|0:0,0:0:0:0:
290,316,27220,6,0,P|317:267|317:239,1,65.9999979858399,8|0,0:0|0:0,0:0:0:0:
368,163,27661,1,8,0:0:0:0:
372,153,27771,1,8,0:0:0:0:
379,158,27881,1,8,0:0:0:0:
269,45,28102,5,8,0:0:0:0:
116,92,28323,5,8,3:0:0:0:
254,56,28543,6,0,P|235:88|251:211,1,165,6|0,0:0|0:0,0:0:0:0:
136,83,28984,2,0,P|173:89|229:145,1,110,2|8,0:0|0:0,0:0:0:0:
345,141,29425,6,0,P|313:120|219:142,1,132,8|0,0:0|0:0,0:0:0:0:
283,199,29867,1,8,0:0:0:0:
179,239,30087,1,8,0:0:0:0:
344,290,30308,6,0,B|454:330|454:330|404:352,1,165,8|0,3:0|0:0,0:0:0:0:
409,166,30749,2,0,B|430:208|430:208|319:168,1,165,2|0,0:0|0:0,0:0:0:0:
233,171,31190,1,8,0:0:0:0:
233,171,31411,2,0,P|222:103|223:94,1,55
246,43,31631,1,0,0:0:0:0:
286,258,31852,1,0,0:0:0:0:
286,258,32073,5,8,3:0:0:0:
341,162,32293,1,2,0:0:0:0:
231,173,32514,1,2,0:0:0:0:
297,271,32734,1,8,3:0:0:0:
356,155,32955,2,0,P|418:153|479:168,1,110,8|0,0:0|0:0,0:0:0:0:
464,162,33396,2,0,P|410:152|356:155,1,110,8|0,3:0|0:0,0:0:0:0:
231,173,33837,5,8,0:0:0:0:
341,162,34058,1,2,0:0:0:0:
297,271,34278,1,8,3:0:0:0:
332,173,34499,1,2,0:0:0:0:
218,162,34720,1,8,0:0:0:0:
218,162,34940,2,0,P|192:154|164:153,1,55
168,238,35161,1,0,0:0:0:0:
172,38,35381,1,8,0:0:0:0:
168,238,35602,6,0,P|150:296|101:323,1,110,6|0,0:0|0:0,0:0:0:0:
236,312,36043,2,0,P|183:281|168:227,1,110,2|8,0:0|3:0,0:0:0:0:
274,213,36484,2,0,L|397:213,1,110,8|0,0:0|0:0,0:0:0:0:
384,213,36925,2,0,L|274:213,1,110,8|8,3:0|0:0,0:0:0:0:
261,103,37367,5,8,3:0:0:0:
153,78,37587,1,2,0:0:0:0:
61,138,37808,1,2,0:0:0:0:
61,248,38028,1,2,0:0:0:0:
261,103,38249,5,8,0:0:0:0:
61,138,38470,1,2,0:0:0:0:
153,78,38690,5,2,0:0:0:0:
61,248,38911,1,8,0:0:0:0:
61,248,39131,6,0,P|70:312|41:377,1,110,8|0,3:0|0:0,0:0:0:0:
189,276,39573,2,8,P|227:327|294:353,1,110,2|8,0:0|3:0,0:0:0:0:
334,202,40014,2,0,P|326:233|332:269,1,55
380,318,40234,1,0,0:0:0:0:
455,122,40455,1,8,3:0:0:0:
281,125,40675,1,8,0:0:0:0:
403,323,40896,5,0,3:0:0:0:
279,150,41117,1,8,0:0:0:0:
221,75,41337,6,0,L|212:60,1,16.5
221,75,41778,6,0,P|290:54|354:89,1,132,8|0,0:0|0:0,0:0:0:0:
279,150,42220,1,8,0:0:0:0:
357,218,42440,1,8,0:0:0:0:
389,222,42550,1,8,0:0:0:0:
418,237,42661,6,0,P|359:218|316:235,1,88,6|0,0:0|0:0,0:0:0:0:
208,284,43102,2,0,P|267:303|310:286,1,88,2|8,0:0|3:0,0:0:0:0:
164,133,43543,6,0,P|172:172|161:211,1,66,8|0,0:0|0:0,0:0:0:0:
167,197,43984,6,0,P|165:130|104:62,1,142.99999345398,8|8,3:0|0:0,0:0:0:0:
242,39,44425,2,0,L|308:41,1,44,2|0,0:0|0:0,0:0:0:0:
331,123,44646,2,0,L|397:125,1,44,2|0,0:0|0:0,0:0:0:0:
412,44,44867,2,0,P|390:96|406:150,1,88,2|0,0:0|0:0,0:0:0:0:
429,236,45308,6,0,L|356:248,1,66,8|0,0:0|0:0,0:0:0:0:
429,236,45749,6,0,L|238:266,1,142.99999345398,2|0,0:0|0:0,0:0:0:0:
203,281,46190,6,0,P|195:301|194:328,1,44,8|0,0:0|0:0,0:0:0:0:
122,223,46411,2,0,P|130:203|131:176,1,44,2|0,0:0|0:0,0:0:0:0:
227,297,46631,2,0,P|212:312|201:337,1,44,2|0,0:0|0:0,0:0:0:0:
107,238,46852,2,0,P|107:216|98:190,1,44,8|0,3:0|0:0,0:0:0:0:
61,120,47073,1,8,0:0:0:0:
111,329,47293,1,2,0:0:0:0:
154,86,47514,1,8,3:0:0:0:
23,273,47734,1,8,0:0:0:0:
217,28,47955,6,0,P|235:67|233:111,1,88,2|8,0:0|0:0,0:0:0:0:
371,235,48396,2,0,L|459:238,1,88,2|0,0:0|0:0,0:0:0:0:
419,326,48837,6,0,L|345:324,1,66,8|0,0:0|0:0,0:0:0:0:
419,326,49278,6,0,L|226:319,1,142.99999345398,8|8,0:0|0:0,0:0:0:0:
74,250,49720,5,6,0:0:0:0:
96,94,49940,1,0,0:0:0:0:
109,108,50050,1,0,0:0:0:0:
114,126,50161,2,0,P|136:80|171:55,1,88,2|8,0:0|3:0,0:0:0:0:
222,185,50602,2,0,P|199:128|253:157,1,142.99999345398,8|0,0:0|0:0,0:0:0:0:
296,352,51043,1,8,3:0:0:0:
359,280,51264,1,8,0:0:0:0:
373,266,51374,1,0,0:0:0:0:
385,254,51484,5,0,0:0:0:0:
239,279,51705,1,0,0:0:0:0:
227,264,51815,1,0,0:0:0:0:
215,250,51925,2,0,P|193:296|158:321,1,88,2|0,0:0|0:0,0:0:0:0:
109,188,52367,2,0,P|132:245|78:216,1,142.99999345398,8|0,0:0|0:0,0:0:0:0:
149,97,52808,2,0,L|274:93,1,88,2|0,0:0|0:0,0:0:0:0:
318,59,53249,6,0,P|325:98|322:119,1,58.6666666666667,8|0,3:0|0:0,0:0:0:0:
271,186,53543,1,2,0:0:0:0:
253,188,53690,2,0,P|285:184|314:193,1,58.6666666666667,2|0,0:0|0:0,0:0:0:0:
195,262,53984,1,2,0:0:0:0:
213,260,54131,2,0,P|181:264|153:255,1,58.6666666666667,8|0,0:0|0:0,0:0:0:0:
17,96,54425,1,2,0:0:0:0:
88,117,54573,1,8,3:0:0:0:
358,242,54793,5,8,0:0:0:0:
372,248,54903,1,2,0:0:0:0:
361,261,55014,2,0,P|343:178|369:137,1,110,8|0,0:0|0:0,0:0:0:0:
149,69,55234,1,8,0:0:0:0:
135,63,55345,1,2,0:0:0:0:
146,50,55455,6,0,P|164:133|138:174,1,110,2|0,0:0|0:0,0:0:0:0:
74,226,55675,1,0,0:0:0:0:
266,344,55896,2,0,B|288:278|248:237|206:231|163:268|161:311|194:361|209:364|334:334|270:344,1,220,8|0,0:0|0:0,0:0:0:0:
415,52,56337,2,0,B|437:118|397:159|355:165|312:128|310:85|343:35|358:32|483:62|419:52,1,220,2|8,0:0|0:0,0:0:0:0:
256,192,56778,12,0,57661,0:0:0:0:
260,184,57881,5,2,0:0:0:0:
328,128,58102,2,0,P|347:184|326:235,1,88,8|0,0:0|0:0,0:0:0:0:
390,280,58543,6,0,L|465:278,1,66,2|0,0:0|0:0,0:0:0:0:
429,359,58984,6,0,L|229:361,1,176,2|0,0:0|0:0,0:0:0:0:
165,355,59646,1,8,0:0:0:0:
99,296,59867,2,0,L|103:198,1,88,2|0,0:0|0:0,0:0:0:0:
181,171,60308,6,0,L|179:246,1,66,2|0,0:0|0:0,0:0:0:0:
260,210,60749,6,0,L|262:10,1,176,2|8,0:0|0:0,0:0:0:0:
349,35,61411,1,2,0:0:0:0:
345,123,61631,2,0,L|344:228,1,88,2|8,0:0|0:0,0:0:0:0:
442,173,62073,6,0,L|443:86,1,88,2|8,0:0|0:0,0:0:0:0:
349,35,62514,1,2,0:0:0:0:
349,35,62734,1,2,0:0:0:0:
249,96,62955,2,0,L|250:228,1,110,2|0,0:0|0:0,0:0:0:0:
249,96,63396,6,0,L|250:260,1,142.99999345398,2|0,0:0|0:0,0:0:0:0:
256,192,63837,12,8,64720,0:0:0:0:
258,192,64940,5,2,0:0:0:0:
198,127,65161,2,0,L|99:129,1,88,2|8,0:0|0:0,0:0:0:0:
56,66,65602,6,0,P|84:112|87:136,1,66,2|0,0:0|0:0,0:0:0:0:
59,224,66043,6,0,P|90:144|56:66,1,176,2|8,0:0|0:0,0:0:0:0:
16,301,66705,1,2,0:0:0:0:
103,311,66925,2,0,L|211:306,1,88,2|0,0:0|0:0,0:0:0:0:
281,274,67367,6,0,P|253:231|247:204,1,66,2|0,0:0|0:0,0:0:0:0:
277,115,67808,6,0,P|246:195|281:274,1,176,2|8,0:0|0:0,0:0:0:0:
341,50,68690,1,2,0:0:0:0:
341,50,68911,1,8,0:0:0:0:
241,45,69131,6,0,L|175:46,1,66,2|0,0:0|0:0,0:0:0:0:
109,45,69573,6,0,L|279:45,1,132,2|0,0:0|0:0,0:0:0:0:
221,126,70014,6,0,L|89:126,1,132,8|0,0:0|0:0,0:0:0:0:
13,124,70455,1,8,0:0:0:0:
309,127,70675,1,8,0:0:0:0:
305,159,70786,1,8,0:0:0:0:
290,188,70896,6,0,P|309:129|279:61,1,132,6|0,0:0|0:0,0:0:0:0:
284,66,71337,6,0,L|354:58,1,65.9999979858399
436,43,71778,1,8,0:0:0:0:
436,43,72220,2,0,L|449:142,1,88,0|8,0:0|0:0,0:0:0:0:
385,192,72661,6,0,L|398:291,1,88,8|0,3:0|0:0,0:0:0:0:
316,317,73102,2,0,L|217:330,1,88
144,301,73543,2,0,P|159:209|102:131,1,176,8|8,0:0|0:0,0:0:0:0:
117,141,74425,6,0,P|186:158|248:134,1,132
241,138,74867,6,0,L|245:218,1,65.9999979858399,8|0,0:0|0:0,0:0:0:0:
247,292,75308,1,8,0:0:0:0:
247,292,75749,1,0,0:0:0:0:
384,306,75970,1,8,0:0:0:0:
326,188,76190,5,8,3:0:0:0:
392,317,76411,1,8,0:0:0:0:
251,301,76631,1,8,0:0:0:0:
330,175,76852,2,0,P|338:136|337:123,1,44
403,91,77073,2,0,P|323:112|233:86,1,176,8|8,0:0|0:0,0:0:0:0:
100,198,77955,6,0,B|68:144|68:144|108:89,1,132
108,88,78396,6,0,L|68:144,1,65.9999979858399,8|0,0:0|0:0,0:0:0:0:
12,211,78837,1,8,0:0:0:0:
12,211,79278,2,0,L|57:289,1,88,0|8,0:0|0:0,0:0:0:0:
176,248,79720,6,0,L|131:326,1,88,8|0,3:0|0:0,0:0:0:0:
12,211,80161,2,0,L|57:289,1,88
214,356,80602,6,0,L|266:248,1,110
207,43,81043,6,0,L|265:271,1,220,8|0,0:0|0:0,0:0:0:0:
313,124,81484,2,0,L|286:28,1,88
131,75,81925,2,0,L|156:159,1,88,8|0,0:0|0:0,0:0:0:0:
214,356,82367,6,0,L|266:248,1,110,8|0,0:0|0:0,0:0:0:0:
207,43,82808,6,0,L|265:271,1,220,8|0,0:0|0:0,0:0:0:0:
207,43,83249,6,0,L|245:197,1,153.999995300293,8|0,0:0|0:0,0:0:0:0:
207,43,83690,6,0,L|234:153,1,88,8|0,0:0|0:0,0:0:0:0:
47,177,84131,1,8,0:0:0:0:
51,167,84242,1,8,0:0:0:0:
58,172,84352,1,8,0:0:0:0:
151,297,84573,5,8,3:0:0:0:
51,266,84793,5,8,0:0:0:0:
63,284,85014,6,0,L|61:312,1,22,6|0,0:0|0:0,0:0:0:0:
144,280,85455,2,0,L|145:258,1,22,0|8,0:0|3:0,0:0:0:0:
234,236,85896,2,0,L|232:264,1,22,8|0,0:0|0:0,0:0:0:0:
192,155,86337,6,0,P|279:155|311:185,1,110,8|0,3:0|0:0,0:0:0:0:
371,87,86778,6,0,P|326:164|359:277,1,165,2|0,0:0|0:0,0:0:0:0:
330,247,87220,6,0,B|322:254|322:254|325:273,1,22
379,332,87661,2,0,B|387:325|387:325|384:306,1,22,8|0,0:0|0:0,0:0:0:0:
286,344,88102,2,0,B|293:352|293:352|312:349,1,22,0|0,0:3|0:3,0:3:0:0:
223,145,88543,6,0,B|167:136|121:169|121:169|54:140|47:91|59:40|121:46,2,220,8|2|2,3:0|0:0|0:0,0:0:0:0:
354,310,89205,2,0,B|361:233|316:185|316:185|365:194|405:180|406:144|392:126,2,220,8|10|2,3:0|0:0|0:0,0:0:0:0:
133,290,89867,2,0,P|240:234|275:309,1,220,8|0,3:0|0:0,0:0:0:0:
205,297,90308,6,0,L|211:56,1,230.99999295044
289,55,91190,6,0,L|286:172,1,110,8|0,0:0|0:0,0:0:0:0:
131,196,91631,2,0,L|135:100,1,55,8|0,0:0|0:0,0:0:0:0:
131,47,91852,1,8,0:0:0:0:
117,49,91962,1,8,0:0:0:0:
100,50,92073,6,0,P|80:54|75:50,1,22,6|0,0:0|0:0,0:0:0:0:
32,112,92514,2,0,P|30:122|35:132,1,22,0|8,0:0|3:0,0:0:0:0:
112,145,92955,2,0,P|122:146|132:141,1,22,8|0,0:0|0:0,0:0:0:0:
82,348,93396,6,0,P|54:279|91:207,1,142.99999345398,8|8,3:0|0:0,0:0:0:0:
243,195,93837,2,0,L|373:178,1,110,2|0,0:0|0:0,0:0:0:0:
400,101,94278,1,0,0:0:0:0:
307,280,94499,1,0,0:0:0:0:
411,274,94720,1,8,0:0:0:0:
295,102,94940,1,0,0:0:0:0:
456,184,95161,1,0,0:0:0:0:
298,284,95381,1,8,0:0:0:0:
131,139,95602,6,0,B|140:221|140:221|132:239|132:239|142:257|142:257|132:355,2,220,8|2|2,3:0|0:0|0:0,0:0:0:0:
338,66,96264,2,0,B|249:101|249:101|221:44|117:86|169:24,2,220,8|10|2,3:0|0:0|0:0,0:0:0:0:
350,292,96925,2,0,B|367:207|299:169|299:169|345:163|384:133,1,220,8|0,3:0|0:0,0:0:0:0:
317,320,97367,6,0,P|311:204|200:174,1,230.99999295044,8|0,0:0|0:0,0:0:0:0:
232,271,98249,1,8,0:0:0:0:
154,126,98470,1,0,0:0:0:0:
281,48,98690,1,8,0:0:0:0:
297,56,98800,1,8,0:0:0:0:
313,63,98911,1,8,0:0:0:0:
330,71,99021,1,8,0:0:0:0:
348,79,99131,6,0,L|359:105,1,22,6|0,0:0|0:0,0:0:0:0:
350,169,99573,2,0,L|339:195,1,22,0|8,0:0|3:0,0:0:0:0:
366,253,100014,2,0,L|377:279,1,22,8|0,0:0|0:0,0:0:0:0:
204,191,100455,6,0,P|136:216|58:178,1,142.99999345398,8|8,3:0|0:0,0:0:0:0:
234,310,100896,2,0,P|312:289|399:345,1,165,10|0,0:0|0:0,0:0:0:0:
390,334,101337,6,0,B|401:340|401:340|419:336,1,22
466,295,101778,2,0,B|472:284|472:284|468:266,1,22,8|0,0:0|0:0,0:0:0:0:
428,220,102220,2,0,B|417:214|417:214|399:218,1,22
257,84,102661,6,0,B|201:53|145:79|145:79|150:128|139:166|88:155|90:103,2,220,12|2|2,3:0|0:0|0:0,0:0:0:0:
212,302,103323,2,0,B|261:244|205:177|205:177|261:183|277:151,2,220,8|10|2,3:0|0:0|0:0,0:0:0:0:
2,284,103984,2,0,P|97:204|175:274,1,220,8|0,3:0|0:0,0:0:0:0:
85,293,104425,6,0,P|80:238|237:164,1,230.99999295044,8|0,0:0|0:0,0:0:0:0:
274,78,105308,2,0,L|242:83,1,27.5
437,48,105749,1,0,0:0:0:0:
366,183,105970,1,8,0:0:0:0:
365,198,106080,1,8,0:0:0:0:
360,208,106190,6,8,P|361:218|356:228,1,22,6|8,0:0|3:0,0:0:0:0:
280,264,106631,2,0,P|278:274|283:284,1,22,0|8,0:0|3:0,0:0:0:0:
369,319,107073,2,0,P|359:320|349:315,1,22,8|0,0:0|0:0,0:0:0:0:
150,348,107514,6,0,P|82:328|5:349,1,142.99999345398,8|8,3:0|0:0,0:0:0:0:
183,262,107955,2,8,L|166:132,1,110,10|8,0:0|0:0,0:0:0:0:
105,58,108396,1,0,0:0:0:0:
25,134,108617,1,0,0:0:0:0:
255,66,108837,1,8,0:0:0:0:
20,54,109058,1,0,0:0:0:0:
234,210,109278,1,0,0:0:0:0:
186,20,109499,1,8,0:0:0:0:
341,176,109720,6,0,B|383:226|363:310|363:310|395:254|430:284,2,220,12|2|2,3:0|0:0|0:0,0:0:0:0:
137,91,110381,2,0,L|370:57,2,220,8|10|2,3:0|0:0|0:0,0:0:0:0:
120,307,111043,2,0,P|110:191|43:109,1,220,8|0,3:0|0:0,0:0:0:0:
2,177,111484,6,0,P|42:216|206:205,1,230.99999295044,8|0,0:0|0:0,0:0:0:0:
250,126,112367,1,8,0:0:0:0:
474,29,112808,1,8,0:0:0:0:
397,118,113028,1,8,0:0:0:0:
409,120,113139,1,8,0:0:0:0:
422,124,113249,6,0,P|394:179|409:239,1,110,6|0,0:0|0:0,0:0:0:0:
474,189,113690,1,2,0:0:0:0:
327,261,113911,1,8,3:0:0:0:
382,321,114131,2,0,P|404:283|406:239,1,88,2|0,0:0|0:0,0:0:0:0:
320,361,114573,6,0,P|401:292|402:220,1,165.000006294251,8|0,0:0|0:0,0:0:0:0:
294,94,115014,6,0,L|184:116,1,110,8|0,3:0|0:0,0:0:0:0:
133,39,115455,1,2,0:0:0:0:
229,192,115675,1,8,3:0:0:0:
100,133,115896,2,0,L|205:111,1,88,2|0,0:0|0:0,0:0:0:0:
24,147,116337,6,0,L|194:113,1,165.000006294251,8|0,0:0|0:0,0:0:0:0:
386,142,116778,6,0,P|405:212|314:257,1,165,8|0,3:0|0:0,0:0:0:0:
265,257,117220,1,0,0:0:0:0:
395,324,117440,1,8,3:0:0:0:
214,208,117661,2,0,P|195:278|286:323,1,165
324,349,118102,1,8,0:0:0:0:
184,372,118323,1,0,0:0:0:0:
270,145,118543,6,0,P|310:154|349:278,1,165.000006294251,8|0,3:0|0:0,0:0:0:0:
333,136,118874,6,0,P|366:220|343:280,1,131.99999597168
388,168,119205,6,0,P|384:217|356:257,1,98.9999969787599,8|0,3:0|0:0,0:0:0:0:
410,222,119536,6,0,P|386:244|356:256,1,65.9999979858399
271,255,119867,1,8,0:0:0:0:
364,359,120087,1,0,0:0:0:0:
204,223,120308,6,0,P|176:278|191:338,1,110,6|0,0:0|0:0,0:0:0:0:
253,158,120749,1,2,0:0:0:0:
251,284,120970,1,8,3:0:0:0:
311,113,121190,2,0,P|327:154|318:196,1,88,2|0,0:0|0:0,0:0:0:0:
440,137,121631,6,0,P|348:139|327:232,1,165.000006294251,8|0,0:0|0:0,0:0:0:0:
503,175,122073,6,0,L|393:197,1,110,8|0,3:0|0:0,0:0:0:0:
372,266,122403,1,0,0:0:0:0:
362,269,122514,1,2,0:0:0:0:
299,96,122734,1,8,3:0:0:0:
219,360,122955,2,0,L|336:345,1,88,2|0,0:0|0:0,0:0:0:0:
186,198,123396,6,0,L|218:359,1,165.000006294251,8|0,0:0|0:0,0:0:0:0:
244,144,123837,6,0,P|262:221|203:273,1,165,8|0,3:0|0:0,0:0:0:0:
186,198,124278,1,0,0:0:0:0:
417,185,124499,1,8,3:0:0:0:
365,136,124720,2,0,P|346:206|437:251,1,165
417,185,125161,1,8,0:0:0:0:
186,198,125381,1,0,0:0:0:0:
58,317,125602,6,0,P|132:335|202:273,1,165.000006294251,8|0,3:0|0:0,0:0:0:0:
302,229,126043,2,0,L|222:240,1,55
186,198,126264,1,0,0:0:0:0:
387,114,126484,1,2,0:0:0:0:
378,223,126705,1,2,0:0:0:0:
303,146,126925,1,8,0:0:0:0:
479,236,127146,1,2,0:0:0:0:
258,62,127367,6,0,L|74:60,1,165,4|0,0:0|0:0,0:0:0:0:
54,128,127808,2,0,P|64:149|61:188,1,55
57,305,128028,2,0,P|47:284|50:245,1,55,8|0,3:0|0:0,0:0:0:0:
225,247,128249,2,0,L|118:269,1,110
270,146,128690,2,0,L|282:214,1,55,8|0,3:0|0:0,0:0:0:0:
288,284,128911,1,8,0:0:0:0:
350,138,129131,6,0,L|362:206,1,55,8|0,0:0|0:0,0:0:0:0:
368,276,129352,1,0,0:0:0:0:
288,284,129573,1,2,0:0:0:0:
429,218,129793,1,2,0:0:0:0:
225,249,130014,1,8,0:0:0:0:
457,151,130234,1,2,0:0:0:0:
177,198,130455,1,2,0:0:0:0:
469,80,130675,1,2,0:0:0:0:
221,56,130896,6,0,P|141:76|51:49,1,165,8|0,3:0|0:0,0:0:0:0:
16,123,131337,2,0,L|25:192,1,55
99,256,131558,2,0,L|92:202,1,55,8|0,3:0|0:0,0:0:0:0:
156,308,131778,2,0,P|236:296|263:307,1,110,8|0,0:0|0:0,0:0:0:0:
342,174,132220,2,0,L|334:119,1,55,8|0,3:0|0:0,0:0:0:0:
325,42,132440,1,8,0:0:0:0:
362,288,132661,5,2,0:0:0:0:
209,186,132881,1,8,0:0:0:0:
435,136,133102,1,2,0:0:0:0:
199,173,133323,1,2,0:0:0:0:
444,118,133543,1,8,0:0:0:0:
182,155,133764,1,2,0:0:0:0:
450,100,133984,1,8,0:0:0:0:
121,46,134205,1,8,0:0:0:0:
112,60,134315,1,8,0:0:0:0:
102,74,134425,6,0,P|79:131|102:239,1,165,8|0,3:0|0:0,0:0:0:0:
71,303,134867,2,0,L|13:310,1,55
134,354,135087,2,0,L|192:361,1,55,8|0,3:0|0:0,0:0:0:0:
293,287,135308,2,0,L|182:270,1,110,8|0,0:0|0:0,0:0:0:0:
300,167,135749,2,0,L|358:174,1,55,8|0,3:0|0:0,0:0:0:0:
430,182,135970,1,8,0:0:0:0:
206,155,136190,5,2,0:0:0:0:
386,30,136411,1,2,0:0:0:0:
242,247,136631,1,2,0:0:0:0:
161,38,136852,1,2,0:0:0:0:
374,186,137073,1,8,0:0:0:0:
115,174,137293,1,2,0:0:0:0:
287,23,137514,1,2,0:0:0:0:
293,313,137734,1,8,0:0:0:0:
46,115,137955,6,0,P|19:178|96:263,1,165,8|0,3:0|0:0,0:0:0:0:
136,287,138396,2,0,L|203:289,1,55
281,224,138617,2,0,L|226:222,1,55,8|0,3:0|0:0,0:0:0:0:
185,124,138837,2,0,L|295:127,1,110,8|0,0:0|0:0,0:0:0:0:
341,279,139278,2,0,P|363:217|346:175,1,110,8|8,3:0|0:0,0:0:0:0:
435,51,139720,6,0,P|413:113|430:155,1,110,0|8,0:0|0:0,0:0:0:0:
272,39,140161,2,0,P|217:35|155:60,1,110,2|0,0:0|0:0,0:0:0:0:
21,109,140602,2,0,P|76:105|138:130,1,110,8|0,0:0|0:0,0:0:0:0:
74,318,141043,6,0,P|71:258|52:195,1,110,8|0,0:0|0:0,0:0:0:0:
205,325,141264,1,8,0:0:0:0:
173,329,141374,1,8,0:0:0:0:
144,344,141484,6,0,P|203:325|271:355,1,132,6|0,0:0|0:0,0:0:0:0:
265,349,141925,6,0,L|273:279,1,65.9999979858399
287,196,142367,1,8,0:0:0:0:
287,196,142808,2,0,L|386:209,1,88,0|8,0:0|0:0,0:0:0:0:
306,119,143249,6,0,L|207:132,1,88,8|0,3:0|0:0,0:0:0:0:
225,42,143690,2,0,L|126:55,1,88
63,157,144131,2,0,P|127:177|87:125,1,176,8|8,0:0|0:0,0:0:0:0:
130,320,145014,6,0,L|261:313,1,132
261,312,145455,6,0,L|265:232,1,65.9999979858399,8|0,0:0|0:0,0:0:0:0:
270,157,145896,1,8,0:0:0:0:
270,157,146337,1,0,0:0:0:0:
413,254,146558,1,8,0:0:0:0:
386,131,146778,5,8,3:0:0:0:
299,316,146999,1,8,0:0:0:0:
401,106,147220,1,8,0:0:0:0:
282,326,147440,2,0,P|243:334|230:333,1,44
216,255,147661,2,0,P|136:234|46:260,1,176,8|8,0:0|0:0,0:0:0:0:
262,181,148543,6,0,B|231:111|285:54,1,132
280,58,148984,6,0,L|212:57,1,65.9999979858399,8|0,0:0|0:0,0:0:0:0:
125,54,149425,1,8,0:0:0:0:
125,54,149867,2,0,P|149:86|159:135,1,88,0|8,0:0|0:0,0:0:0:0:
71,122,150308,6,0,P|39:149|26:200,1,88,8|0,3:0|0:0,0:0:0:0:
113,199,150749,2,0,P|136:231|142:279,1,88
419,276,151190,6,0,P|418:216|471:168,1,110
153,87,151631,6,0,P|226:168|251:274,1,220,8|0,0:0|0:0,0:0:0:0:
319,246,152073,2,0,P|312:201|292:150,1,88
205,35,152514,2,0,P|239:65|273:113,1,88,8|0,0:0|0:0,0:0:0:0:
142,278,152955,6,0,P|143:218|90:170,1,110
153,87,153396,6,0,P|226:168|251:274,1,220,8|0,0:0|0:0,0:0:0:0:
208,28,153837,6,0,P|234:81|225:187,1,153.999995300293,8|0,0:0|0:0,0:0:0:0:
284,28,154278,6,0,P|269:67|225:111,1,88,8|0,0:0|0:0,0:0:0:0:
469,180,154720,1,8,0:0:0:0:
465,170,154830,1,8,0:0:0:0:
458,175,154940,1,8,0:0:0:0:
371,356,155161,5,8,3:0:0:0:
461,266,155381,5,8,0:0:0:0:
449,284,155602,6,0,L|451:312,1,22,6|0,0:0|0:0,0:0:0:0:
355,335,156043,2,0,L|354:313,1,22,0|8,0:0|3:0,0:0:0:0:
265,267,156484,2,0,L|267:295,1,22,8|0,0:0|0:0,0:0:0:0:
84,240,156925,2,0,P|168:231|204:252,1,110,8|0,3:0|0:0,0:0:0:0:
226,91,157367,6,0,P|181:168|214:281,1,165
188,240,157808,6,0,B|180:247|180:247|183:266,1,22
260,196,158249,2,0,B|268:189|268:189|265:170,1,22,8|0,0:0|0:0,0:0:0:0:
279,273,158690,2,0,B|286:281|286:281|305:278,1,22,0|0,0:3|0:3,0:3:0:0:
299,100,159131,6,0,B|243:91|197:124|197:124|202:40|119:31,2,220,8|2|2,3:0|0:0|0:0,0:0:0:0:
87,247,159793,2,0,B|101:150|49:122|49:122|98:131|138:117|139:81|125:63,2,220,8|10|2,3:0|0:0|0:0,0:0:0:0:
306,248,160455,2,0,B|191:247|173:326|97:318,1,220,8|0,3:0|0:0,0:0:0:0:
303,345,160896,6,0,L|309:104,1,230.99999295044
389,79,161778,6,0,L|386:196,1,110,8|0,0:0|0:0,0:0:0:0:
238,171,162220,2,0,L|242:75,1,55,8|0,0:0|0:0,0:0:0:0:
124,254,162440,1,8,0:0:0:0:
110,256,162550,1,8,0:0:0:0:
93,257,162661,6,0,P|73:261|68:257,1,22,6|0,0:0|0:0,0:0:0:0:
29,176,163102,2,0,P|27:186|32:196,1,22,0|8,0:0|3:0,0:0:0:0:
65,92,163543,2,0,P|75:93|85:88,1,22,8|0,0:0|0:0,0:0:0:0:
383,163,163984,6,0,P|361:88|389:27,1,142.99999345398,8|8,3:0|0:0,0:0:0:0:
250,184,164425,6,0,P|265:253|252:291,1,110,8|8,3:0|0:0,0:0:0:0:
173,364,164867,1,0,0:0:0:0:
283,364,165087,1,0,0:0:0:0:
183,237,165308,1,8,0:0:0:0:
303,370,165528,1,0,0:0:0:0:
171,222,165749,1,0,0:0:0:0:
336,109,165970,1,8,0:0:0:0:
98,142,166190,6,0,B|121:198|171:222|171:222|112:231|91:293,2,220,12|2|2,3:0|0:0|0:0,0:0:0:0:
321,86,166852,2,0,B|251:36|251:36|102:71,2,220,8|10|2,3:0|0:0|0:0,0:0:0:0:
378,306,167514,2,0,P|360:178|429:126,1,220,8|8,3:0|0:0,0:0:0:0:
460,286,167955,6,0,P|428:180|320:157,1,230.99999295044,8|0,0:0|0:0,0:0:0:0:
261,96,168837,2,0,L|320:79,1,55
78,121,169278,1,8,0:0:0:0:
87,132,169389,1,8,0:0:0:0:
94,144,169499,1,8,0:0:0:0:
92,158,169609,1,8,0:0:0:0:
87,168,169720,6,8,P|88:178|83:188,1,22,6|8,0:0|3:0,0:0:0:0:
149,217,170161,2,0,P|147:227|152:237,1,22,0|8,0:0|3:0,0:0:0:0:
243,260,170602,2,0,P|233:261|223:256,1,22,8|0,0:0|0:0,0:0:0:0:
402,176,171043,6,0,P|333:161|213:184,1,142.99999345398,8|8,3:0|0:0,0:0:0:0:
58,336,171484,2,0,L|40:164,1,165,8|0,0:0|0:0,0:0:0:0:
98,107,171925,1,0,0:0:0:0:
195,40,172146,1,0,0:0:0:0:
159,180,172367,1,8,0:0:0:0:
30,24,172587,1,0,0:0:0:0:
282,86,172808,1,0,0:0:0:0:
154,299,173028,1,8,0:0:0:0:
253,235,173249,6,0,B|220:304|275:369|275:369|319:336|379:372,2,220,12|2|2,3:0|0:0|0:0,0:0:0:0:
83,93,173911,2,0,P|178:45|316:59,2,220,8|10|2,3:0|0:0|0:0,0:0:0:0:
169,295,174573,2,0,P|159:179|92:97,1,220,8|0,3:0|0:0,0:0:0:0:
78,258,175014,6,0,P|109:212|282:230,1,230.99999295044,8|0,0:0|0:0,0:0:0:0:
322,113,175896,2,0,L|258:126,1,55
437,48,176337,1,0,0:0:0:0:
367,249,176558,1,8,0:0:0:0:
365,263,176668,1,8,0:0:0:0:
360,273,176778,6,8,P|361:283|356:293,1,22,6|8,0:0|3:0,0:0:0:0:
267,307,177220,2,0,P|265:317|270:327,1,22,0|8,0:0|3:0,0:0:0:0:
354,384,177661,2,0,P|344:385|334:380,1,22,8|0,0:0|0:0,0:0:0:0:
309,200,178102,6,0,P|239:180|166:202,1,142.99999345398,8|8,3:0|0:0,0:0:0:0:
60,334,178543,2,8,L|43:204,1,110
159,161,178984,1,0,0:0:0:0:
83,33,179205,1,0,0:0:0:0:
269,68,179425,1,8,0:0:0:0:
22,98,179646,1,0,0:0:0:0:
234,210,179867,1,0,0:0:0:0:
168,25,180087,1,8,0:0:0:0:
315,273,180308,6,0,B|265:315|181:295|181:295|237:327|207:362,2,220,12|2|2,3:0|0:0|0:0,0:0:0:0:
247,63,180970,2,0,L|480:29,2,220,8|10|2,3:0|0:0|0:0,0:0:0:0:
149,260,181631,2,0,P|139:144|72:62,1,220,8|0,3:0|0:0,0:0:0:0:
56,211,182073,6,0,P|122:162|274:183,1,230.99999295044,8|0,0:0|0:0,0:0:0:0:
325,220,182955,1,8,3:0:0:0:
333,233,183065,1,8,3:0:0:0:
331,246,183175,1,8,3:0:0:0:
174,273,183396,1,8,0:0:0:0:
331,246,183617,1,8,3:0:0:0:
333,233,183727,1,8,3:0:0:0:
325,220,183837,5,4,3:0:0:0:
293,243,190896,5,12,0:0:0:0:
293,243,191558,1,2,0:0:0:0:
362,277,191778,1,2,0:0:0:0:
296,318,191999,1,2,0:0:0:0:
370,186,192220,1,2,0:0:0:0:
370,186,192661,5,4,0:0:0:0:
370,186,193323,1,2,0:0:0:0:
418,126,193543,1,2,0:0:0:0:
443,199,193764,1,2,0:0:0:0:
331,98,193984,1,2,0:0:0:0:
331,98,194425,5,12,0:0:0:0:
331,98,195087,1,2,0:0:0:0:
289,32,195308,1,2,0:0:0:0:
367,31,195528,1,2,0:0:0:0:
235,106,195749,1,2,0:0:0:0:
235,106,196190,5,12,0:0:0:0:
235,106,196631,2,0,P|220:150|150:175,1,115.49999647522,2|0,0:0|0:0,0:0:0:0:
17,124,197073,6,0,P|44:87|159:108,1,165,2|0,0:0|0:0,0:0:0:0:
78,259,197514,2,0,L|91:149,1,110,2|0,0:0|0:0,0:0:0:0:
161,338,197955,6,0,P|234:332|291:358,1,110,12|0,0:0|0:0,0:0:0:0:
373,376,198396,1,8,0:0:0:0:
307,241,198617,1,0,0:0:0:0:
358,183,198837,2,0,L|343:66,1,110,8|0,0:0|0:0,0:0:0:0:
187,93,199278,2,0,P|256:105|346:72,1,165,8|0,0:0|0:0,0:0:0:0:
396,23,199720,5,8,0:0:0:0:
396,23,200161,1,8,0:0:0:0:
277,169,200381,1,0,0:0:0:0:
205,198,200602,2,0,L|190:315,1,110,8|0,0:0|0:0,0:0:0:0:
34,288,201043,2,0,P|103:276|193:309,1,165,8|0,0:0|0:0,0:0:0:0:
243,358,201484,5,8,0:0:0:0:
243,358,201925,1,8,0:0:0:0:
156,204,202146,1,0,0:0:0:0:
226,173,202367,2,0,L|343:158,1,110,8|0,0:0|0:0,0:0:0:0:
315,2,202808,2,0,P|303:71|336:161,1,165,8|0,0:0|0:0,0:0:0:0:
386,211,203249,5,8,0:0:0:0:
386,211,203690,1,8,0:0:0:0:
317,309,203911,1,0,0:0:0:0:
413,97,204131,2,0,P|332:69|240:108,1,165,8|0,0:0|0:0,0:0:0:0:
83,151,204573,2,0,P|164:179|256:140,1,165,8|0,0:0|0:0,0:0:0:0:
259,92,205014,5,12,0:0:0:0:
260,337,205455,1,8,0:0:0:0:
376,238,205675,1,0,0:0:0:0:
331,175,205896,2,0,L|207:181,1,110,8|0,0:0|0:0,0:0:0:0:
185,111,206337,2,0,P|206:178|162:270,1,165,8|0,0:0|0:0,0:0:0:0:
116,308,206778,5,8,0:0:0:0:
116,308,207220,1,8,0:0:0:0:
278,337,207440,1,0,0:0:0:0:
330,280,207661,2,0,L|324:156,1,110,8|0,0:0|0:0,0:0:0:0:
386,124,208102,2,0,P|319:145|227:101,1,165,8|0,0:0|0:0,0:0:0:0:
183,60,208543,5,12,0:0:0:0:
183,60,208984,1,8,0:0:0:0:
56,137,209205,1,0,0:0:0:0:
97,202,209425,2,0,L|91:326,1,110,8|0,0:0|0:0,0:0:0:0:
20,341,209867,2,0,P|87:320|179:364,1,165,8|0,0:0|0:0,0:0:0:0:
244,360,210308,5,8,0:0:0:0:
268,130,210749,2,0,P|252:195|275:252,1,110
397,194,211190,1,8,0:0:0:0:
384,186,211300,1,8,0:0:0:0:
371,188,211411,1,8,0:0:0:0:
439,119,211631,5,8,3:0:0:0:
373,268,211852,5,8,0:0:0:0:
300,53,212073,5,12,0:0:0:0:
86,71,212293,1,8,0:0:0:0:
86,71,212403,1,8,0:0:0:0:
86,71,212514,1,8,0:0:0:0:
201,175,212734,1,2,0:0:0:0:
62,174,212955,1,8,0:0:0:0:
189,66,213175,1,2,0:0:0:0:
137,276,213396,2,0,P|204:267|246:278,1,110,8|0,0:0|0:0,0:0:0:0:
461,225,213837,5,8,0:0:0:0:
321,152,214058,1,8,0:0:0:0:
321,152,214168,1,8,0:0:0:0:
321,152,214278,1,8,0:0:0:0:
416,318,214499,1,2,0:0:0:0:
231,195,214720,1,8,0:0:0:0:
438,139,214940,1,2,0:0:0:0:
312,42,215161,2,0,L|191:48,1,110,8|0,0:0|0:0,0:0:0:0:
31,77,215602,5,12,0:0:0:0:
183,219,215823,1,8,0:0:0:0:
183,219,215933,1,8,0:0:0:0:
183,219,216043,1,8,0:0:0:0:
50,193,216264,1,2,0:0:0:0:
282,140,216484,1,8,0:0:0:0:
115,341,216705,1,2,0:0:0:0:
269,253,216925,2,0,P|343:235|382:249,1,110,8|0,0:0|0:0,0:0:0:0:
488,335,217367,5,8,0:0:0:0:
451,91,217587,1,8,0:0:0:0:
451,91,217698,1,8,0:0:0:0:
451,91,217808,2,0,P|388:114|338:95,1,110,8|0,0:0|0:0,0:0:0:0:
142,60,218249,2,0,P|199:37|255:56,1,110,8|0,0:0|0:0,0:0:0:0:
202,224,218690,2,0,L|201:114,1,110,8|0,0:0|0:0,0:0:0:0:
301,238,219131,5,12,0:0:0:0:
69,176,219352,1,8,0:0:0:0:
69,176,219462,1,8,0:0:0:0:
69,176,219573,1,8,0:0:0:0:
37,33,219793,1,2,0:0:0:0:
149,232,220014,1,8,0:0:0:0:
0,278,220234,1,2,0:0:0:0:
199,161,220455,2,0,P|266:170|308:159,1,110,8|0,0:0|0:0,0:0:0:0:
447,82,220896,5,8,0:0:0:0:
347,293,221117,1,8,0:0:0:0:
347,293,221227,1,8,0:0:0:0:
347,293,221337,1,8,0:0:0:0:
358,43,221558,1,2,0:0:0:0:
478,190,221778,1,8,0:0:0:0:
240,140,221999,1,2,0:0:0:0:
265,254,222220,2,0,L|144:248,1,110,8|0,0:0|0:0,0:0:0:0:
23,320,222661,5,12,0:0:0:0:
154,123,222881,1,8,0:0:0:0:
154,123,222992,1,8,0:0:0:0:
154,123,223102,1,8,0:0:0:0:
36,210,223323,1,2,0:0:0:0:
155,248,223543,1,8,0:0:0:0:
57,67,223764,1,2,0:0:0:0:
224,180,223984,2,0,P|298:198|337:184,1,110,8|0,0:0|0:0,0:0:0:0:
430,337,224425,5,8,0:0:0:0:
430,337,224867,2,0,P|411:263|425:224,1,110,8|0,0:0|0:0,0:0:0:0:
391,55,225308,1,8,0:0:0:0:
391,55,225418,1,8,0:0:0:0:
391,55,225528,1,8,0:0:0:0:
247,168,225749,2,0,L|246:282,1,110,8|0,0:0|0:0,0:0:0:0:
4,201,226190,6,0,P|114:153|172:259,1,263.99999194336,2|0,0:0|0:0,0:0:0:0:
85,240,227514,1,2,0:0:0:0:
85,240,227734,1,2,0:0:0:0:
172,258,227955,6,0,P|114:153|4:201,1,263.99999194336,2|0,0:0|0:0,0:0:0:0:
219,337,229058,1,2,0:0:0:0:
271,231,229278,1,2,0:0:0:0:
122,335,229499,1,2,0:0:0:0:
384,294,229720,6,0,B|425:172|304:172|377:30,1,263.99999194336,2|0,0:0|0:0,0:0:0:0:
219,47,230823,1,2,0:0:0:0:
271,153,231043,1,2,0:0:0:0:
122,49,231264,1,2,0:0:0:0:
371,41,231484,6,0,B|412:163|291:163|364:305,1,263.99999194336,2|0,0:0|0:0,0:0:0:0:
