osu file format v14

[General]
AudioFilename: audio.mp3
AudioLeadIn: 0
PreviewTime: 85069
Countdown: 0
SampleSet: Soft
StackLeniency: 0.4
Mode: 0
LetterboxInBreaks: 0
WidescreenStoryboard: 1

[Editor]
Bookmarks: 24628,141539,198011,232533
DistanceSpacing: 1.2
BeatDivisor: 4
GridSize: 8
TimelineZoom: 1.6

[Metadata]
Title:Go Go
TitleUnicode:고민보다
Artist:BTS
ArtistUnicode:방탄소년단
Creator:Lilyanna
Version:Advanced
Source:
Tags:k-pop kpop bangtan boys sonyeondan beyond the scene love yourself ly her Hari
BeatmapID:1746208
BeatmapSetID:804063

[Difficulty]
HPDrainRate:4
CircleSize:3.3
OverallDifficulty:4
ApproachRate:5
SliderMultiplier:1.4
SliderTickRate:1

[Events]
//Background and Video events
0,0,"yolo.jpg",0,0
//Break Periods
2,184257,196755
//Storyboard Layer 0 (Background)
//Storyboard Layer 1 (Fail)
//Storyboard Layer 2 (Pass)
//Storyboard Layer 3 (Foreground)
//Storyboard Sound Samples

[TimingPoints]
14426,441.176470588235,4,2,1,50,1,0
28541,-100,4,2,1,60,0,0
85014,-100,4,2,1,70,0,1
113249,-100,4,2,1,50,0,0
127365,-100,4,2,1,60,0,0
155602,-100,4,2,1,70,0,1
183837,-100,4,2,1,60,0,0
212073,-100,4,2,1,70,0,1
224425,-100,4,2,1,60,0,0
226189,-100,4,2,1,40,0,0
227071,-100,4,2,1,5,0,0
227512,-100,4,2,1,40,0,0
228836,-100,4,2,1,5,0,0
229056,-100,4,2,1,40,0,0
230601,-100,4,2,1,5,0,0
230821,-100,4,2,1,40,0,0
232365,-100,4,2,1,5,0,0

[Colours]
Combo1 : 255,128,128
Combo2 : 255,255,60
Combo3 : 255,21,21
Combo4 : 36,184,255
Combo5 : 43,255,43
Combo6 : 255,149,43

[HitObjects]
409,63,14426,6,0,P|446:120|430:220,2,140,2|2|8,0:0|0:0|0:0,0:0:0:0:
243,32,15749,2,0,L|153:44,1,70,0|8,0:0|0:0,0:0:0:0:
203,119,16190,6,0,L|113:131,1,70,2|0,0:0|0:0,0:0:0:0:
165,206,16631,2,0,L|75:218,1,70,2|0,0:0|0:0,0:0:0:0:
24,170,17073,1,8,0:0:0:0:
47,336,17514,1,2,0:0:0:0:
214,321,17955,6,0,P|307:302|370:321,2,140,2|2|8,0:0|0:0|0:0,0:0:0:0:
117,183,19278,2,0,P|121:134|111:102,1,70,0|8,0:0|0:0,0:0:0:0:
32,118,19720,6,0,P|28:69|38:37,1,70,2|0,0:0|0:0,0:0:0:0:
115,35,20161,2,0,L|209:33,1,70,2|0,0:0|0:0,0:0:0:0:
269,34,20602,1,8,0:0:0:0:
222,195,21043,1,8,0:0:0:0:
372,270,21484,6,0,P|382:194|351:130,2,140,2|2|8,0:0|0:0|0:0,0:0:0:0:
218,339,22808,2,0,L|135:342,1,70,0|0,0:0|0:0,0:0:0:0:
99,273,23249,6,0,P|124:208|113:140,2,140,2|2|8,0:0|0:0|0:0,0:0:0:0:
106,356,24352,1,0,0:0:0:0:
189,347,24573,2,0,L|258:344,1,70,0|0,0:0|0:0,0:0:0:0:
309,274,25014,6,0,L|285:127,2,140,2|2|8,0:0|0:0|0:0,0:0:0:0:
376,324,26117,1,0,0:0:0:0:
403,244,26337,2,0,L|393:160,1,70,10|0,0:0|0:0,0:0:0:0:
445,107,26778,6,0,L|294:153,1,140,8|8,0:0|0:0,0:0:0:0:
174,49,27661,2,0,L|110:27,2,35,8|8|8,0:0|0:0|0:0,0:0:0:0:
153,131,28102,2,0,L|72:101,1,70,8|8,0:0|3:0,0:0:0:0:
44,178,28543,6,0,P|58:230|52:275,1,70,6|0,0:0|0:0,0:0:0:0:
115,306,28984,2,0,L|202:303,1,70,2|8,0:0|0:0,0:0:0:0:
268,293,29426,1,8,0:0:0:0:
333,138,29867,2,0,L|317:50,1,70,8|8,0:0|0:0,0:0:0:0:
237,52,30308,6,0,L|158:64,1,70,8|0,3:0|0:0,0:0:0:0:
111,125,30749,2,0,L|123:193,1,70,2|0,0:0|0:0,0:0:0:0:
66,255,31190,2,0,P|113:222|218:244,1,140,8|0,0:0|0:0,0:0:0:0:
342,303,32073,6,0,L|344:216,1,70,8|2,3:0|0:0,0:0:0:0:
416,191,32514,2,0,L|414:104,1,70,2|8,0:0|3:0,0:0:0:0:
361,55,32955,1,8,0:0:0:0:
193,58,33396,2,0,P|129:61|115:56,1,70,8|0,3:0|0:0,0:0:0:0:
61,114,33837,6,0,L|63:197,1,70,8|2,0:0|0:0,0:0:0:0:
146,189,34278,2,0,L|148:272,1,70,8|2,3:0|0:0,0:0:0:0:
90,321,34720,2,0,L|232:287,1,140,8|0,0:0|0:0,0:0:0:0:
306,265,35381,1,8,0:0:0:0:
295,181,35602,6,0,L|291:95,1,70,6|0,0:0|0:0,0:0:0:0:
353,53,36043,2,0,L|430:47,1,70,2|8,0:0|3:0,0:0:0:0:
486,102,36484,2,0,L|489:171,1,70,8|0,0:0|0:0,0:0:0:0:
499,255,36925,1,8,3:0:0:0:
414,250,37146,1,8,0:0:0:0:
381,327,37367,6,0,L|298:345,1,70,8|2,3:0|0:0,0:0:0:0:
291,260,37808,2,0,L|208:242,1,70,2|2,0:0|0:0,0:0:0:0:
152,280,38249,1,8,0:0:0:0:
88,224,38470,1,2,0:0:0:0:
145,163,38690,2,0,L|137:80,1,70,2|8,0:0|0:0,0:0:0:0:
204,41,39131,6,0,L|287:59,1,70,8|0,3:0|0:0,0:0:0:0:
309,131,39573,2,0,L|226:149,1,70,2|8,0:0|3:0,0:0:0:0:
207,223,40014,2,0,L|275:237,1,70,0|0,0:0|0:0,0:0:0:0:
309,314,40455,2,0,L|226:332,1,70,8|8,3:0|0:0,0:0:0:0:
158,347,40896,5,0,3:0:0:0:
92,293,41117,2,0,P|109:205|71:137,1,140,8|0,0:0|0:0,0:0:0:0:
139,92,41778,2,0,L|217:79,1,70,8|0,0:0|0:0,0:0:0:0:
292,86,42220,2,0,L|361:97,1,70,8|8,0:0|0:0,0:0:0:0:
436,59,42661,6,0,P|391:106|398:205,1,140,6|2,0:0|0:0,0:0:0:0:
412,257,43323,1,8,3:0:0:0:
328,261,43543,2,0,B|256:241|256:281|189:256,1,140,8|8,0:0|3:0,0:0:0:0:
109,233,44205,1,8,0:0:0:0:
69,158,44425,6,0,L|62:89,1,70,2|2,0:0|0:0,0:0:0:0:
133,39,44867,2,0,L|222:26,1,70,2|0,0:0|0:0,0:0:0:0:
256,93,45308,2,0,L|279:249,1,140,8|2,0:0|0:0,0:0:0:0:
443,246,46190,6,0,L|422:107,1,140,8|2,0:0|0:0,0:0:0:0:
405,25,46852,1,8,3:0:0:0:
321,36,47073,2,0,L|234:56,1,70,8|2,0:0|0:0,0:0:0:0:
248,135,47514,2,0,L|161:155,1,70,8|8,3:0|0:0,0:0:0:0:
104,112,47955,6,0,P|157:157|156:235,1,140,2|2,0:0|0:0,0:0:0:0:
82,193,48617,1,0,0:0:0:0:
85,276,48837,2,0,L|236:271,1,140,8|8,0:0|0:0,0:0:0:0:
308,263,49499,1,0,0:0:0:0:
350,190,49720,6,0,P|336:132|342:108,1,70,6|0,0:0|0:0,0:0:0:0:
402,69,50161,2,0,P|416:127|410:151,1,70,2|8,0:0|3:0,0:0:0:0:
462,205,50602,1,8,0:0:0:0:
339,320,51043,2,0,L|253:332,1,70,8|8,3:0|0:0,0:0:0:0:
217,263,51484,6,0,P|231:205|225:181,1,70,0|0,0:0|0:0,0:0:0:0:
165,142,51925,2,0,P|151:200|157:224,1,70,2|0,0:0|0:0,0:0:0:0:
105,278,52366,1,8,0:0:0:0:
64,114,52808,2,0,L|42:47,1,70,2|0,0:0|0:0,0:0:0:0:
256,192,53249,12,8,55014,0:0:0:0:
61,45,55896,6,0,P|69:79|59:136,1,70,8|0,0:0|0:0,0:0:0:0:
43,194,56337,1,2,0:0:0:0:
184,283,56778,6,0,P|251:256|452:319,1,280,0|0,0:0|0:0,0:0:0:0:
485,237,57881,2,0,L|490:162,1,70,2|8,0:0|0:0,0:0:0:0:
486,82,58323,1,0,0:0:0:0:
411,120,58543,6,0,P|358:148|268:137,2,140,2|2|0,0:0|0:0|0:0,0:0:0:0:
367,48,59646,2,0,P|332:69|291:55,2,70,8|2|0,0:0|0:0|0:0,0:0:0:0:
411,120,60308,6,0,P|358:148|268:137,2,140,2|2|8,0:0|0:0|0:0,0:0:0:0:
488,154,61411,2,0,L|485:223,2,70,2|2|8,0:0|0:0|0:0,0:0:0:0:
411,120,62073,6,0,L|401:279,1,140,2|2,0:0|0:0,0:0:0:0:
328,298,62734,1,2,0:0:0:0:
246,276,62955,2,0,P|208:218|222:152,1,140,2|2,0:0|0:0,0:0:0:0:
288,203,63617,1,0,0:0:0:0:
324,127,63837,6,0,P|196:90|42:123,1,280,0|8,0:0|0:0,0:0:0:0:
36,199,64940,2,0,L|35:268,2,70,2|2|8,0:0|0:0|0:0,0:0:0:0:
123,195,65602,6,0,P|197:181|272:204,2,140,2|2|8,0:0|0:0|0:0,0:0:0:0:
136,279,66705,2,0,P|147:324|139:375,2,70,2|2|0,0:0|0:0|0:0,0:0:0:0:
123,195,67367,6,0,P|198:181|271:202,2,140,2|2|8,0:0|0:0|0:0,0:0:0:0:
214,327,68690,2,0,P|258:333|287:327,1,70,2|8,0:0|0:0,0:0:0:0:
357,289,69131,6,0,P|336:227|355:138,1,140,2|2,0:0|0:0,0:0:0:0:
234,28,70014,2,0,L|89:44,1,140,8|8,0:0|0:0,0:0:0:0:
28,204,70896,6,0,P|41:251|39:288,1,70,6|0,0:0|0:0,0:0:0:0:
116,310,71337,2,0,L|195:300,1,70,0|0,0:0|0:0,0:0:0:0:
266,274,71778,1,8,0:0:0:0:
430,309,72220,2,0,L|440:229,1,70,0|8,0:0|0:0,0:0:0:0:
379,180,72661,6,0,L|369:92,1,70,8|0,3:0|0:0,0:0:0:0:
318,44,73102,2,0,L|218:53,1,70,0|0,0:0|0:0,0:0:0:0:
172,13,73543,2,0,P|217:60|219:151,1,140,8|8,0:0|0:0,0:0:0:0:
103,247,74425,6,0,L|183:227,1,70,0|0,0:0|0:0,0:0:0:0:
243,272,74867,2,0,L|323:291,1,70,8|0,0:0|0:0,0:0:0:0:
393,304,75308,1,8,0:0:0:0:
467,153,75749,2,0,L|460:64,1,70,0|8,0:0|0:0,0:0:0:0:
388,41,76190,6,0,L|289:54,1,70,8|8,3:0|0:0,0:0:0:0:
251,101,76631,2,0,L|152:88,1,70,8|0,0:0|0:0,0:0:0:0:
124,29,77073,2,0,P|149:101|117:180,1,140,8|8,0:0|0:0,0:0:0:0:
60,311,77955,6,0,P|115:308|138:320,1,70,0|0,0:0|0:0,0:0:0:0:
206,341,78396,2,0,P|239:349|273:343,1,70,8|0,0:0|0:0,0:0:0:0:
337,288,78837,1,8,0:0:0:0:
419,141,79278,2,0,L|408:56,1,70,0|8,0:0|0:0,0:0:0:0:
330,43,79720,6,0,L|235:61,1,70,8|0,3:0|0:0,0:0:0:0:
202,115,80161,2,0,L|210:184,1,70,0|0,0:0|0:0,0:0:0:0:
281,230,80602,2,0,L|129:238,1,140,0|8,0:0|0:0,0:0:0:0:
96,75,81484,6,0,L|1:93,1,70,0|0,0:0|0:0,0:0:0:0:
1,168,81925,2,0,L|9:237,1,70,8|0,0:0|0:0,0:0:0:0:
13,321,82366,2,0,L|152:313,1,140,8|8,0:0|0:0,0:0:0:0:
256,192,83249,12,8,84573,3:0:0:0:
110,47,85014,6,0,P|120:84|116:123,1,70,6|0,0:0|0:0,0:0:0:0:
49,164,85455,2,0,P|47:198|56:232,1,70,0|8,0:0|3:0,0:0:0:0:
122,284,85896,2,0,L|220:277,1,70,8|0,0:0|0:0,0:0:0:0:
274,262,86337,1,8,3:0:0:0:
432,318,86778,6,0,L|442:229,1,70,2|0,0:0|0:0,0:0:0:0:
393,177,87220,2,0,P|356:184|311:174,1,70,0|0,0:0|0:0,0:0:0:0:
267,116,87661,2,0,P|232:111|198:118,1,70,8|0,0:0|0:0,0:0:0:0:
121,153,88102,1,0,0:3:0:0:
73,313,88543,6,0,L|160:340,2,70,8|2|2,3:0|0:0|0:0,0:0:0:0:
42,234,89205,2,0,L|36:159,2,70,8|10|2,3:0|0:0|0:0,0:0:0:0:
126,229,89867,2,0,L|120:154,1,70,8|0,3:0|0:0,0:0:0:0:
194,118,90308,6,0,P|255:125|177:83,1,280,0|8,0:0|0:0,0:0:0:0:
226,233,91631,2,0,L|221:307,1,70,8|8,0:0|0:0,0:0:0:0:
297,340,92073,6,0,L|390:340,1,70,6|0,0:0|0:0,0:0:0:0:
438,295,92514,2,0,L|433:225,1,70,0|8,0:0|3:0,0:0:0:0:
366,174,92955,2,0,L|370:104,1,70,8|0,0:0|0:0,0:0:0:0:
433,48,93396,1,8,3:0:0:0:
265,38,93837,6,0,L|177:46,1,70,2|0,0:0|0:0,0:0:0:0:
111,36,94278,1,0,0:0:0:0:
119,119,94499,1,0,0:0:0:0:
63,181,94720,2,0,L|57:256,1,70,8|0,0:0|0:0,0:0:0:0:
64,334,95161,1,0,0:0:0:0:
225,287,95602,6,0,P|233:332|224:364,2,70,8|2|2,3:0|0:0|0:0,0:0:0:0:
295,240,96264,2,0,P|287:195|296:163,2,70,8|10|2,3:0|0:0|0:0,0:0:0:0:
370,278,96925,2,0,P|378:323|369:355,1,70,8|0,3:0|0:0,0:0:0:0:
289,328,97367,6,0,B|145:249|145:378|14:318,1,280,8|8,0:0|0:0,0:0:0:0:
84,165,98690,2,0,L|88:80,1,70,8|8,0:0|0:0,0:0:0:0:
158,50,99131,6,0,L|234:54,1,70,6|0,0:0|0:0,0:0:0:0:
268,129,99573,2,0,L|344:133,1,70,0|8,0:0|3:0,0:0:0:0:
383,61,100014,2,0,L|459:65,1,70,8|0,0:0|0:0,0:0:0:0:
473,146,100455,1,8,3:0:0:0:
402,298,100896,6,0,L|322:311,1,70,10|0,0:0|0:0,0:0:0:0:
250,292,101337,2,0,L|230:211,1,70,0|0,0:0|0:0,0:0:0:0:
151,202,101778,2,0,L|71:215,1,70,8|0,0:0|0:0,0:0:0:0:
28,147,102220,1,0,0:0:0:0:
167,53,102661,6,0,L|84:15,2,70,12|2|2,3:0|0:0|0:0,0:0:0:0:
245,82,103323,2,0,L|328:44,2,70,8|10|2,3:0|0:0|0:0,0:0:0:0:
179,134,103984,2,0,L|96:172,1,70,8|0,3:0|0:0,0:0:0:0:
36,133,104425,6,0,P|85:194|73:272,1,140,8|0,0:0|0:0,0:0:0:0:
236,319,105308,2,0,B|283:268|283:268|364:308,1,140,0|0,0:0|0:0,0:0:0:0:
427,320,105970,1,8,0:0:0:0:
463,244,106190,6,0,L|446:152,1,70,6|8,0:0|3:0,0:0:0:0:
368,154,106631,2,0,L|385:62,1,70,0|8,0:0|3:0,0:0:0:0:
319,27,107073,2,0,L|239:43,1,70,8|0,0:0|0:0,0:0:0:0:
173,74,107514,2,0,L|166:164,1,70,8|8,3:0|0:0,0:0:0:0:
114,209,107955,6,0,L|107:299,1,70,10|8,0:0|0:0,0:0:0:0:
192,282,108396,2,0,L|285:285,1,70,0|0,0:0|0:0,0:0:0:0:
327,339,108837,2,0,L|420:342,1,70,8|0,0:0|0:0,0:0:0:0:
457,282,109278,1,0,0:0:0:0:
404,122,109720,6,0,L|475:124,2,70,12|2|2,3:0|0:0|0:0,0:0:0:0:
327,87,110381,2,0,L|256:89,2,70,8|10|2,3:0|0:0|0:0,0:0:0:0:
324,171,111043,2,0,L|253:173,1,70,8|0,3:0|0:0,0:0:0:0:
204,241,111484,6,0,P|135:241|222:276,1,280,8|8,0:0|0:0,0:0:0:0:
348,175,112808,1,8,0:0:0:0:
405,236,113028,1,8,0:0:0:0:
440,159,113249,6,0,L|431:72,1,70,6|0,0:0|0:0,0:0:0:0:
356,53,113690,2,0,L|265:49,1,70,2|8,0:0|3:0,0:0:0:0:
202,41,114131,1,2,0:0:0:0:
94,170,114573,2,0,L|85:246,1,70,8|0,0:0|0:0,0:0:0:0:
155,287,115014,6,0,L|242:278,1,70,8|0,3:0|0:0,0:0:0:0:
261,203,115455,2,0,L|265:112,1,70,2|8,0:0|3:0,0:0:0:0:
273,49,115896,1,2,0:0:0:0:
414,139,116337,2,0,L|410:208,1,70,8|0,0:0|0:0,0:0:0:0:
361,277,116778,6,0,L|248:305,2,105,8|0|8,3:0|0:0|3:0,0:0:0:0:
326,199,117661,2,0,L|188:234,1,140,0|8,0:0|0:0,0:0:0:0:
109,256,118323,1,0,0:0:0:0:
61,187,118543,6,0,L|33:74,2,105,8|0|8,3:0|0:0|3:0,0:0:0:0:
139,152,119426,2,0,L|104:14,1,140,0|8,0:0|0:0,0:0:0:0:
269,49,120308,6,0,L|260:136,1,70,6|0,0:0|0:0,0:0:0:0:
340,149,120749,2,0,L|344:240,1,70,2|8,0:0|3:0,0:0:0:0:
347,302,121190,1,2,0:0:0:0:
178,311,121632,2,0,L|102:320,1,70,8|0,0:0|0:0,0:0:0:0:
103,235,122073,6,0,L|16:244,1,70,8|0,3:0|0:0,0:0:0:0:
7,162,122514,2,0,L|11:71,1,70,2|8,0:0|3:0,0:0:0:0:
78,42,122955,1,2,0:0:0:0:
219,132,123396,2,0,L|222:201,1,70,8|0,0:0|0:0,0:0:0:0:
286,256,123837,6,0,L|399:228,2,105,8|0|8,3:0|0:0|3:0,0:0:0:0:
252,333,124720,2,0,L|114:298,1,140,0|0,0:0|0:0,0:0:0:0:
36,272,125382,1,0,0:0:0:0:
64,193,125602,6,0,L|47:45,1,140,8|0,3:0|0:0,0:0:0:0:
215,45,126484,2,0,L|301:38,1,70,2|2,0:0|0:0,0:0:0:0:
286,123,126925,2,0,L|216:128,1,70,8|2,0:0|0:0,0:0:0:0:
162,193,127367,6,0,L|169:278,1,70,4|0,0:0|0:0,0:0:0:0:
226,322,127808,2,0,P|279:314|317:323,2,70,0|8|0,0:0|3:0|0:0,0:0:0:0:
71,257,128690,6,0,L|61:165,2,70,8|8|8,3:0|0:0|0:0,0:0:0:0:
125,321,129352,1,0,0:0:0:0:
204,294,129573,2,0,L|277:317,1,70,2|2,0:0|0:0,0:0:0:0:
343,272,130014,2,0,L|416:249,1,70,8|2,0:0|0:0,0:0:0:0:
457,181,130455,2,0,L|452:102,1,70,2|2,0:0|0:0,0:0:0:0:
390,53,130896,6,0,L|304:50,1,70,8|0,3:0|0:0,0:0:0:0:
256,105,131337,2,0,P|263:138|253:188,2,70,0|8|8,0:0|3:0|0:0,0:0:0:0:
134,221,132220,2,0,L|64:227,1,70,8|8,3:0|0:0,0:0:0:0:
4,286,132661,6,0,L|7:358,1,70,2|8,0:0|0:0,0:0:0:0:
90,363,133102,2,0,L|160:357,1,70,2|2,0:0|0:0,0:0:0:0:
227,307,133543,2,0,L|224:237,1,70,8|2,0:0|0:0,0:0:0:0:
278,172,133984,2,0,L|348:166,1,70,8|8,0:0|0:0,0:0:0:0:
390,93,134425,6,0,L|387:23,1,70,8|0,3:0|0:0,0:0:0:0:
302,28,134867,2,0,P|257:35|201:21,2,70,0|8|8,0:0|3:0|0:0,0:0:0:0:
443,118,135749,2,0,L|449:206,1,70,8|8,3:0|0:0,0:0:0:0:
401,257,136190,6,0,L|306:264,1,70,2|2,0:0|0:0,0:0:0:0:
290,188,136631,2,0,L|195:195,1,70,2|2,0:0|0:0,0:0:0:0:
201,275,137073,2,0,L|106:282,1,70,8|2,0:0|0:0,0:0:0:0:
76,216,137514,2,0,L|-19:223,1,70,2|8,0:0|0:0,0:0:0:0:
15,137,137955,5,8,3:0:0:0:
151,39,138396,2,0,P|200:45|234:36,2,70,0|8|8,0:0|3:0|0:0,0:0:0:0:
76,78,139058,1,0,0:0:0:0:
15,137,139278,2,0,L|18:225,1,70,8|8,3:0|0:0,0:0:0:0:
72,273,139720,6,0,P|121:267|155:276,2,70,0|8|2,0:0|0:0|0:0,0:0:0:0:
223,345,140602,1,8,0:0:0:0:
260,181,141043,1,8,0:0:0:0:
343,193,141264,1,8,0:0:0:0:
426,214,141484,6,0,P|424:180|413:147,1,70,6|0,0:0|0:0,0:0:0:0:
365,77,141925,2,0,L|295:85,1,70,0|0,0:0|0:0,0:0:0:0:
218,50,142366,1,8,0:0:0:0:
62,114,142808,2,0,L|53:183,1,70,0|8,0:0|0:0,0:0:0:0:
133,207,143249,6,0,L|140:276,1,70,8|0,3:0|0:0,0:0:0:0:
220,302,143690,2,0,L|289:295,1,70,0|0,0:0|0:0,0:0:0:0:
368,325,144131,2,0,P|323:278|321:187,1,140,8|8,0:0|0:0,0:0:0:0:
183,101,145013,6,0,L|115:84,1,70,0|0,0:0|0:0,0:0:0:0:
89,166,145455,2,0,L|169:185,1,70,8|0,0:0|0:0,0:0:0:0:
236,210,145896,1,8,0:0:0:0:
392,270,146337,2,0,L|397:339,1,70,0|8,0:0|0:0,0:0:0:0:
313,344,146778,6,0,L|214:357,1,70,8|8,3:0|0:0,0:0:0:0:
179,298,147219,2,0,L|80:285,1,70,8|0,0:0|0:0,0:0:0:0:
50,349,147661,2,0,P|66:282|41:217,1,140,8|8,0:0|0:0,0:0:0:0:
123,70,148543,6,0,P|178:67|201:79,1,70,0|0,0:0|0:0,0:0:0:0:
239,140,148984,2,0,P|272:148|306:142,1,70,8|0,0:0|0:0,0:0:0:0:
387,117,149425,1,8,0:0:0:0:
458,268,149866,2,0,L|466:337,1,70,0|8,0:0|0:0,0:0:0:0:
383,348,150308,6,0,L|288:366,1,70,8|0,3:0|0:0,0:0:0:0:
245,311,150749,2,0,L|237:242,1,70,0|0,0:0|0:0,0:0:0:0:
306,194,151190,2,0,L|154:202,1,140,0|8,0:0|0:0,0:0:0:0:
59,71,152072,6,0,L|127:57,1,70,0|0,0:0|0:0,0:0:0:0:
211,52,152513,2,0,L|219:121,1,70,8|0,0:0|0:0,0:0:0:0:
154,175,152954,2,0,L|293:167,1,140,0|8,0:0|0:0,0:0:0:0:
256,192,153837,12,8,155161,3:0:0:0:
464,48,155602,6,0,P|474:85|470:124,1,70,6|0,0:0|0:0,0:0:0:0:
391,141,156043,2,0,P|389:175|398:209,1,70,0|8,0:0|3:0,0:0:0:0:
355,282,156484,2,0,L|285:286,1,70,8|0,0:0|0:0,0:0:0:0:
201,288,156925,1,8,3:0:0:0:
39,242,157366,6,0,L|49:153,1,70,0|0,0:0|0:0,0:0:0:0:
115,123,157808,2,0,P|152:130|197:120,1,70,0|0,0:0|0:0,0:0:0:0:
188,41,158249,2,0,P|153:36|119:43,1,70,8|0,0:0|0:0,0:0:0:0:
43,78,158690,1,0,0:3:0:0:
126,229,159131,6,0,L|213:256,2,70,8|2|2,3:0|0:0|0:0,0:0:0:0:
55,275,159793,2,0,L|49:350,2,70,8|10|2,3:0|0:0|0:0,0:0:0:0:
56,190,160455,2,0,L|50:115,1,70,8|0,3:0|0:0,0:0:0:0:
132,100,160896,6,0,P|193:107|115:65,1,280,0|8,0:0|0:0,0:0:0:0:
133,222,162219,2,0,L|128:296,1,70,8|8,0:0|0:0,0:0:0:0:
203,330,162661,6,0,L|296:330,1,70,6|0,0:0|0:0,0:0:0:0:
339,278,163102,2,0,L|334:208,1,70,0|8,0:0|3:0,0:0:0:0:
409,170,163543,2,0,L|413:100,1,70,8|0,0:0|0:0,0:0:0:0:
452,25,163984,1,8,3:0:0:0:
284,40,164425,6,0,L|196:48,1,70,8|8,3:0|0:0,0:0:0:0:
130,51,164866,1,0,0:0:0:0:
99,129,165087,1,0,0:0:0:0:
182,138,165308,2,0,L|251:131,1,70,8|0,0:0|0:0,0:0:0:0:
335,122,165749,1,0,0:0:0:0:
456,237,166190,6,0,P|464:282|455:314,2,70,12|2|2,3:0|0:0|0:0,0:0:0:0:
373,220,166852,2,0,P|365:175|374:143,2,70,8|10|2,3:0|0:0|0:0,0:0:0:0:
298,259,167513,2,0,P|306:304|297:336,1,70,8|8,3:0|0:0,0:0:0:0:
218,305,167955,6,0,P|123:279|206:339,1,280,8|0,0:0|0:0,0:0:0:0:
269,188,169278,2,0,L|273:103,1,70,0|8,0:0|0:0,0:0:0:0:
319,48,169719,6,0,L|395:52,1,70,0|0,0:0|0:0,0:0:0:0:
366,133,170161,2,0,L|442:137,1,70,0|8,0:0|3:0,0:0:0:0:
460,217,170602,2,0,L|456:293,1,70,8|0,0:0|0:0,0:0:0:0:
412,359,171043,1,8,3:0:0:0:
246,330,171484,6,0,L|166:343,1,70,8|0,0:0|0:0,0:0:0:0:
96,314,171925,2,0,L|76:233,1,70,0|0,0:0|0:0,0:0:0:0:
140,188,172366,2,0,L|127:108,1,70,8|0,0:0|0:0,0:0:0:0:
115,35,172808,1,0,0:0:0:0:
279,66,173249,6,0,L|362:28,2,70,12|2|2,3:0|0:0|0:0,0:0:0:0:
266,149,173911,2,0,L|304:231,2,70,8|10|2,3:0|0:0|0:0,0:0:0:0:
189,115,174572,2,0,L|106:153,1,70,0|0,0:0|0:0,0:0:0:0:
44,120,175013,6,0,P|93:181|81:259,1,140,0|0,0:0|0:0,0:0:0:0:
233,328,175896,2,0,B|405:310,1,140,0|0,0:0|0:0,0:0:0:0:
453,335,176558,1,8,0:0:0:0:
462,251,176778,6,0,L|445:159,1,70,0|0,0:0|0:0,0:0:0:0:
370,151,177219,2,0,L|387:59,1,70,0|0,0:0|0:0,0:0:0:0:
316,29,177661,2,0,L|236:45,1,70,8|0,0:0|0:0,0:0:0:0:
163,52,178102,2,0,L|73:45,1,70,8|8,3:0|0:0,0:0:0:0:
60,124,178543,6,0,L|53:214,1,70,8|8,0:0|0:0,0:0:0:0:
125,242,178984,2,0,L|218:245,1,70,0|0,0:0|0:0,0:0:0:0:
196,328,179425,2,0,L|289:331,1,70,8|0,0:0|0:0,0:0:0:0:
349,340,179866,1,0,0:0:0:0:
443,200,180308,6,0,L|444:130,2,70,12|2|2,3:0|0:0|0:0,0:0:0:0:
361,217,180969,2,0,L|290:219,2,70,0|0|0,0:0|0:0|0:0,0:0:0:0:
342,134,181631,2,0,L|271:136,1,70,0|0,0:0|0:0,0:0:0:0:
188,149,182072,6,0,P|119:149|206:184,1,280,0|8,0:0|3:0,0:0:0:0:
338,298,183396,1,8,0:0:0:0:
421,299,183616,1,8,3:0:0:0:
467,228,183837,6,0,L|458:141,1,70,4|0,3:0|0:0,0:0:0:0:
409,61,197955,6,0,P|433:137|405:200,1,140,12|8,0:0|0:0,0:0:0:0:
360,256,198617,1,0,0:0:0:0:
289,302,198838,2,0,L|219:311,1,70,8|0,0:0|0:0,0:0:0:0:
186,234,199278,2,0,L|185:152,1,70,8|0,0:0|0:0,0:0:0:0:
102,144,199720,6,0,L|103:289,1,140,8|8,0:0|0:0,0:0:0:0:
81,365,200381,1,0,0:0:0:0:
165,366,200602,2,0,L|247:361,1,70,8|0,0:0|0:0,0:0:0:0:
285,294,201043,2,0,L|367:289,1,70,8|0,0:0|0:0,0:0:0:0:
413,229,201484,6,0,P|397:155|418:91,1,140,8|8,0:0|0:0,0:0:0:0:
348,44,202146,1,0,0:0:0:0:
273,83,202367,2,0,L|184:92,1,70,8|0,0:0|0:0,0:0:0:0:
133,42,202808,2,0,L|44:51,1,70,8|0,0:0|0:0,0:0:0:0:
42,130,203249,6,0,L|52:275,1,140,8|8,0:0|0:0,0:0:0:0:
63,353,203911,1,0,0:0:0:0:
144,334,204131,2,0,P|215:306|299:323,1,140,8|8,0:0|0:0,0:0:0:0:
391,190,205014,6,0,P|376:140|393:49,1,140,12|8,0:0|0:0,0:0:0:0:
309,31,205675,1,0,0:0:0:0:
232,66,205896,2,0,L|144:77,1,70,8|0,0:0|0:0,0:0:0:0:
143,156,206337,2,0,L|55:145,1,70,8|0,0:0|0:0,0:0:0:0:
10,91,206778,6,0,P|33:154|12:247,1,140,8|8,0:0|0:0,0:0:0:0:
42,306,207440,1,0,0:0:0:0:
122,330,207661,2,0,L|198:319,1,70,8|0,0:0|0:0,0:0:0:0:
245,255,208102,2,0,L|321:266,1,70,8|0,0:0|0:0,0:0:0:0:
355,338,208543,6,0,P|348:275|374:186,1,140,12|8,0:0|0:0,0:0:0:0:
421,138,209205,1,0,0:0:0:0:
384,62,209425,2,0,L|308:73,1,70,0|0,0:0|0:0,0:0:0:0:
261,137,209866,2,0,L|185:126,1,70,0|0,0:0|0:0,0:0:0:0:
148,54,210308,5,8,0:0:0:0:
74,205,210749,2,0,L|54:288,1,70,0|0,0:0|0:0,0:0:0:0:
127,320,211190,2,0,L|285:304,1,140,8|8,0:0|3:0,0:0:0:0:
349,294,211852,1,8,0:0:0:0:
390,220,212073,6,0,L|378:143,2,70,12|8|8,0:0|0:0|0:0,0:0:0:0:
349,294,212734,1,2,0:0:0:0:
271,260,212955,2,0,L|185:262,1,70,8|2,0:0|0:0,0:0:0:0:
146,325,213396,2,0,L|60:327,1,70,8|0,0:0|0:0,0:0:0:0:
20,263,213837,6,0,L|8:186,2,70,8|8|8,0:0|0:0|0:0,0:0:0:0:
76,326,214499,1,2,0:0:0:0:
101,245,214720,2,0,L|89:156,1,70,8|2,0:0|0:0,0:0:0:0:
175,168,215161,2,0,L|261:166,1,70,8|0,0:0|0:0,0:0:0:0:
307,109,215602,6,0,L|295:32,2,70,12|8|8,0:0|0:0|0:0,0:0:0:0:
323,191,216264,1,2,0:0:0:0:
402,214,216484,2,0,L|412:283,1,70,8|2,0:0|0:0,0:0:0:0:
329,292,216925,2,0,L|339:361,1,70,8|0,0:0|0:0,0:0:0:0:
255,359,217367,6,0,L|244:289,1,70,8|8,0:0|0:0,0:0:0:0:
169,251,217808,2,0,L|90:264,1,70,8|0,0:0|0:0,0:0:0:0:
52,193,218249,2,0,L|39:50,1,140,8|8,0:0|0:0,0:0:0:0:
207,50,219131,6,0,L|284:38,2,70,12|8|8,0:0|0:0|0:0,0:0:0:0:
160,119,219792,1,0,0:0:0:0:
210,186,220013,2,0,L|296:188,1,70,0|2,0:0|0:0,0:0:0:0:
276,271,220454,2,0,L|362:273,1,70,0|0,0:0|0:0,0:0:0:0:
372,192,220896,6,0,L|360:115,2,70,8|8|8,0:0|0:0|0:0,0:0:0:0:
432,258,221557,1,0,0:0:0:0:
472,183,221778,2,0,L|460:94,1,70,8|2,0:0|0:0,0:0:0:0:
422,39,222219,2,0,L|352:40,1,70,8|0,0:0|0:0,0:0:0:0:
278,81,222660,6,0,L|201:69,2,70,12|8|8,0:0|0:0|0:0,0:0:0:0:
326,150,223322,1,2,0:0:0:0:
269,212,223543,2,0,L|199:222,1,70,8|2,0:0|0:0,0:0:0:0:
127,265,223984,2,0,L|137:334,1,70,8|0,0:0|0:0,0:0:0:0:
52,336,224425,6,0,L|41:266,1,70,8|0,0:0|0:0,0:0:0:0:
62,185,224866,2,0,L|131:173,1,70,8|0,0:0|0:0,0:0:0:0:
204,131,225307,2,0,L|196:50,1,70,8|8,0:0|0:0,0:0:0:0:
278,37,225749,2,0,L|359:29,1,70,8|0,0:0|0:0,0:0:0:0:
410,86,226190,5,2,0:0:0:0:
