osu file format v14

[General]
AudioFilename: audio.mp3
AudioLeadIn: 0
PreviewTime: 216494
Countdown: 0
SampleSet: Soft
StackLeniency: 0.7
Mode: 0
LetterboxInBreaks: 0
WidescreenStoryboard: 0

[Editor]
Bookmarks: 15168,107698,136614,206012
DistanceSpacing: 1
BeatDivisor: 4
GridSize: 4
TimelineZoom: 1

[Metadata]
Title:FOR YOU
TitleUnicode:FOR YOU
Artist:BTS
ArtistUnicode:防弾少年団
Creator:Lilyanna
Version:Normal
Source:
Tags:bangtan boys beyond the scene 방탄소년단 rap monster ㄹㅁ jungkook 정국 suga 슈가 jimin 지민 j-hope 제이 홉 v 뷔 jin 진 k-pop kpop youth japan 2nd album
BeatmapID:1433401
BeatmapSetID:677630

[Difficulty]
HPDrainRate:4
CircleSize:3
OverallDifficulty:4
ApproachRate:5
SliderMultiplier:1.9
SliderTickRate:1

[Events]
//Background and Video events
0,0,"love.jpg",0,0
//Break Periods
2,107898,120956
2,195168,205173
//Storyboard Layer 0 (Background)
//Storyboard Layer 1 (Fail)
//Storyboard Layer 2 (Pass)
//Storyboard Layer 3 (Foreground)
//Storyboard Sound Samples

[TimingPoints]
711,722.89156626506,4,2,1,60,1,0
61433,-100,4,2,1,75,0,1
84566,-100,4,2,1,60,0,0
148180,-100,4,2,1,75,0,1
171313,-100,4,2,1,60,0,0
217578,-100,4,2,1,75,0,1
240710,-100,4,2,1,60,0,0

[Colours]
Combo1 : 255,108,108
Combo2 : 128,128,255
Combo3 : 143,143,143
Combo4 : 255,146,94

[HitObjects]
388,64,15168,6,0,P|415:122|346:222,1,190,2|8,0:0|0:0,0:0:0:0:
162,219,16614,2,0,P|101:150|126:63,1,190,2|8,0:0|0:0,0:0:0:0:
279,177,18060,6,0,P|325:249|272:345,1,190,2|8,0:0|0:0,0:0:0:0:
230,259,19144,1,0,0:0:0:0:
189,172,19506,2,0,P|212:115|250:93,2,95,2|0|8,0:0|0:0|0:0,0:0:0:0:
279,339,20951,6,0,B|366:315|366:355|481:336,1,190,2|8,0:0|0:0,0:0:0:0:
443,149,22397,2,0,P|415:97|417:55,1,95,2|0,0:0|0:0,0:0:0:0:
320,65,23120,2,0,P|317:111|292:151,1,95,8|0,0:0|0:0,0:0:0:0:
205,112,23843,6,0,P|264:165|247:275,1,190,2|8,0:0|0:0,0:0:0:0:
178,206,24927,1,0,0:0:0:0:
252,267,25289,2,0,P|306:260|362:272,1,95,2|2,0:0|3:0,0:0:0:0:
431,307,26012,1,10,0:0:0:0:
491,233,26373,1,0,0:0:0:0:
476,139,26735,6,0,P|433:95|310:84,1,190,2|8,0:0|0:0,0:0:0:0:
246,154,27819,1,0,0:0:0:0:
182,83,28180,2,0,P|88:80|16:138,1,190,2|8,0:0|0:0,0:0:0:0:
43,229,29265,1,0,0:0:0:0:
120,284,29626,6,0,B|169:284|210:313|210:313|250:285|318:282,1,190,2|8,0:0|0:0,0:0:0:0:
392,290,30710,1,0,0:0:0:0:
434,204,31072,2,0,B|434:155|463:114|463:114|435:74|432:6,1,190,2|8,0:0|0:0,0:0:0:0:
341,50,32156,1,0,0:0:0:0:
246,38,32518,6,0,L|145:44,1,95,2|0,0:0|0:0,0:0:0:0:
56,52,33241,1,8,0:0:0:0:
75,144,33602,1,0,0:0:0:0:
170,140,33964,2,0,L|264:134,1,95,2|0,0:0|0:0,0:0:0:0:
260,229,34686,2,0,L|165:234,1,95,8|0,0:0|0:0,0:0:0:0:
114,314,35409,6,0,P|144:246|93:146,1,190,2|8,0:0|0:0,0:0:0:0:
145,65,36494,2,0,L|239:59,1,95
335,66,37217,1,2,3:0:0:0:
332,160,37578,1,10,0:0:0:0:
423,133,37939,1,0,0:0:0:0:
405,226,38301,6,0,P|325:253|237:186,1,190,2|8,0:0|0:0,0:0:0:0:
204,110,39385,1,0,0:0:0:0:
127,166,39747,2,0,L|32:175,1,95,2|0,0:0|0:0,0:0:0:0:
39,269,40470,2,0,L|134:260,1,95,8|0,0:0|0:0,0:0:0:0:
178,343,41192,6,0,P|136:271|192:179,1,190,2|8,0:0|0:0,0:0:0:0:
231,265,42276,1,0,0:0:0:0:
279,183,42638,2,0,L|262:58,1,95,2|0,0:0|0:0,0:0:0:0:
354,54,43361,2,0,L|366:148,1,95,8|0,0:0|0:0,0:0:0:0:
457,117,44084,6,2,B|466:176|466:176|470:238|470:238|488:320,1,190,2|8,0:0|0:0,0:0:0:0:
401,351,45168,1,0,0:0:0:0:
309,325,45530,2,2,B|294:258|294:258|290:196|290:196|281:137,1,190,2|8,0:0|0:0,0:0:0:0:
115,43,46976,6,0,P|62:32|15:49,1,95,2|0,0:0|0:0,0:0:0:0:
71,125,47698,2,0,P|124:136|171:119,1,95,8|0,0:0|0:0,0:0:0:0:
213,44,48421,2,0,P|180:125|263:214,1,190,2|8,0:0|0:0,0:0:0:0:
273,117,49506,1,0,0:0:0:0:
332,191,49867,6,0,P|364:105|312:30,1,190,2|8,0:0|0:0,0:0:0:0:
273,117,50951,1,0,0:0:0:0:
125,236,51674,1,0,0:0:0:0:
184,310,52036,2,0,L|294:304,1,95,8|0,0:0|0:0,0:0:0:0:
326,222,52759,6,0,L|436:216,2,95,2|0|8,0:0|0:0|0:0,0:0:0:0:
259,153,53843,2,0,L|164:158,1,95,0|2,0:0|0:0,0:0:0:0:
102,85,54566,1,0,0:0:0:0:
176,26,54927,2,0,L|270:20,1,95,8|0,0:0|0:0,0:0:0:0:
340,85,55650,6,0,P|328:146|394:257,1,190,2|8,0:0|0:0,0:0:0:0:
465,308,56735,1,0,0:0:0:0:
378,347,57096,2,0,B|284:326|284:356|178:340,1,190,2|8,0:0|0:0,0:0:0:0:
256,192,58542,12,8,60710,0:0:0:0:
127,85,61433,6,0,B|114:162|114:162|94:202|94:202|101:283,1,190,4|8,0:0|0:0,0:0:0:0:
121,361,62518,1,2,3:0:0:0:
211,331,62879,2,0,L|336:325,1,95,2|0,3:0|0:0,0:0:0:0:
400,321,63602,1,8,0:0:0:0:
351,238,63964,1,0,0:0:0:0:
436,196,64325,6,0,P|442:113|344:53,1,190,4|8,0:0|0:0,0:0:0:0:
352,149,65409,1,2,3:0:0:0:
267,105,65771,2,0,L|168:103,1,95,2|0,3:0|0:0,0:0:0:0:
154,196,66494,2,0,L|248:197,1,95,8|0,0:0|0:0,0:0:0:0:
273,289,67217,6,0,L|79:288,1,190,2|8,3:0|0:0,0:0:0:0:
39,203,68301,2,0,B|58:143|58:143|50:83|50:83|79:17,1,190,2|0,3:0|0:0,0:0:0:0:
169,45,69385,2,0,L|263:46,1,95,8|0,0:0|0:0,0:0:0:0:
355,21,70108,6,0,P|304:84|340:187,1,190,2|8,3:0|0:0,0:0:0:0:
397,109,71192,1,0,0:0:0:0:
426,200,71554,2,0,L|447:311,2,95,0|2|8,0:0|3:0|0:0,0:0:0:0:
397,109,72638,1,2,3:0:0:0:
315,60,73000,6,0,B|247:60|247:60|181:71|181:71|109:71,1,190,4|8,0:0|0:0,0:0:0:0:
126,166,74084,2,0,B|181:166|181:166|247:155|247:155|315:155,1,190,2|0,3:0|0:0,0:0:0:0:
409,140,75168,1,8,0:0:0:0:
383,231,75530,1,0,0:0:0:0:
303,283,75891,6,0,P|212:262|101:299,1,190,2|8,3:0|0:0,0:0:0:0:
25,290,76976,1,2,3:0:0:0:
74,209,77337,2,0,P|95:118|58:7,1,190,2|8,3:0|0:0,0:0:0:0:
165,26,78421,1,0,0:0:0:0:
237,87,78783,6,0,B|301:76|301:76|377:98|377:98|442:84,1,190,2|8,3:0|0:0,0:0:0:0:
472,169,79867,2,0,L|467:275,1,95,2|2,3:0|3:0,0:0:0:0:
285,317,80951,2,0,L|289:222,1,95,8|0,0:0|0:0,0:0:0:0:
201,185,81674,6,0,P|134:222|34:162,1,190,2|8,3:0|0:0,0:0:0:0:
126,126,82759,1,2,3:0:0:0:
198,64,83120,2,0,P|266:57|324:70,1,95,2|0,0:0|0:0,0:0:0:0:
365,121,83843,1,8,0:0:0:0:
446,73,84204,1,0,0:0:0:0:
477,162,84566,6,0,L|473:256,2,95,4|0|8,0:0|0:0|0:0,0:0:0:0:
446,73,85650,1,0,0:0:0:0:
365,121,86012,2,0,P|290:145|185:117,1,190,0|8,0:0|0:0,0:0:0:0:
107,61,87096,1,0,0:0:0:0:
62,144,87457,6,0,L|65:238,2,95,2|0|8,3:0|0:0|0:0,0:0:0:0:
107,61,88542,1,0,0:0:0:0:
185,117,88904,2,0,P|274:145|365:120,1,190,0|8,0:0|0:0,0:0:0:0:
446,73,89988,1,0,0:0:0:0:
452,167,90349,6,0,B|444:233|444:233|469:297|469:297|463:361,1,190,2|8,3:0|0:0,0:0:0:0:
273,352,91795,2,0,B|267:297|267:297|292:233|292:233|284:167,1,190,2|8,3:0|0:0,0:0:0:0:
150,32,93241,6,0,P|112:84|165:218,1,190,2|8,3:0|0:0,0:0:0:0:
328,199,94686,2,0,P|360:112|316:31,1,190,0|8,0:0|0:0,0:0:0:0:
233,81,95771,1,0,0:0:0:0:
144,47,96132,6,0,L|26:38,2,95,4|0|8,0:0|0:0|0:0,0:0:0:0:
233,81,97217,1,0,0:0:0:0:
241,175,97578,2,0,B|267:264|220:264|252:370,1,190,0|8,0:0|0:0,0:0:0:0:
330,311,98662,1,0,0:0:0:0:
413,355,99024,6,0,L|531:364,2,95,2|0|8,3:0|0:0|0:0,0:0:0:0:
330,311,100108,1,0,0:0:0:0:
249,362,100470,2,0,B|220:264|267:264|241:175,1,190,0|8,0:0|0:0,0:0:0:0:
188,96,101554,1,0,0:0:0:0:
160,188,101915,6,0,P|146:279|64:319,1,190,2|8,3:0|0:0,0:0:0:0:
71,220,103000,2,0,P|71:157|200:99,1,190,0|0,0:0|0:0,0:0:0:0:
256,192,104084,12,4,107698,0:0:0:0:
256,192,122156,12,0,123964,0:0:0:0:
416,52,125048,6,0,P|448:116|400:228,1,190,2|8,3:0|0:0,0:0:0:0:
331,276,126132,1,0,0:0:0:0:
257,215,126494,2,0,B|163:197|163:244|52:213,1,190,0|8,0:0|0:0,0:0:0:0:
33,128,127578,1,0,0:0:0:0:
89,51,127939,6,0,B|183:77|183:30|277:48,1,190,2|8,3:0|0:0,0:0:0:0:
341,118,129024,1,0,0:0:0:0:
403,189,129385,2,0,L|412:303,2,95,0|0|8,0:0|0:0|0:0,0:0:0:0:
341,118,130470,1,0,0:0:0:0:
257,73,130831,6,0,P|181:91|65:71,1,190,2|8,3:0|0:0,0:0:0:0:
71,264,132277,2,0,P|147:246|263:266,1,190,0|8,0:0|0:0,0:0:0:0:
335,315,133361,1,0,0:0:0:0:
349,220,133723,6,0,B|320:125|382:125|342:19,1,190,2|8,3:0|0:0,0:0:0:0:
264,80,134807,1,0,0:0:0:0:
222,165,135168,2,0,B|317:194|317:132|423:172,1,190,0|8,0:0|0:0,3:0:0:0:
439,76,136253,5,0,0:0:0:0:
510,134,136614,2,0,P|510:202|392:271,1,190,2|8,0:0|0:0,0:0:0:0:
229,281,138060,2,0,P|175:274|118:283,2,95,0|0|8,0:0|0:0|0:0,0:0:0:0:
306,336,139144,1,0,0:0:0:0:
332,244,139506,6,0,B|355:156|302:156|334:55,1,190,2|8,0:0|0:0,0:0:0:0:
141,53,140951,2,0,P|87:60|30:51,2,95,0|0|8,0:0|0:0|0:0,0:0:0:0:
236,36,142036,1,0,0:0:0:0:
332,52,142397,6,0,B|301:151|354:151|331:239,1,190,2|8,0:0|0:0,0:0:0:0:
404,303,143482,1,0,0:0:0:0:
498,331,143843,2,0,B|521:243|468:243|499:144,1,190,2|8,0:0|0:0,0:0:0:0:
256,192,145289,12,0,147457,0:0:0:0:
119,44,148180,6,0,B|86:161|86:161|93:242,1,190,4|8,0:0|0:0,0:0:0:0:
80,323,149265,1,2,3:0:0:0:
173,337,149626,2,0,L|298:331,1,95,2|0,3:0|0:0,0:0:0:0:
362,319,150349,1,8,0:0:0:0:
308,240,150711,1,0,0:0:0:0:
401,226,151072,6,0,B|406:158|406:158|434:109|434:109|427:28,1,190,4|8,0:0|0:0,0:0:0:0:
336,68,152156,1,2,3:0:0:0:
245,37,152518,2,0,P|200:28|144:42,1,95,2|0,3:0|0:0,0:0:0:0:
99,117,153241,2,0,P|144:126|200:112,1,95,8|0,0:0|0:0,0:0:0:0:
245,194,153964,6,0,P|162:215|49:194,1,190,2|8,3:0|0:0,0:0:0:0:
17,114,155048,2,0,B|25:177|25:177|17:235|17:235|27:308,1,190,0|0,0:0|0:0,0:0:0:0:
114,338,156132,2,0,L|208:339,1,95,8|0,0:0|0:0,0:0:0:0:
285,282,156855,6,0,P|253:196|307:121,1,190,2|8,3:0|0:0,0:0:0:0:
348,207,157939,1,0,0:0:0:0:
399,126,158301,2,0,L|417:14,2,95,8|2|8,0:0|3:0|0:0,0:0:0:0:
348,207,159385,1,2,3:0:0:0:
306,121,159747,6,0,B|205:112|205:112|100:132,1,190,4|8,0:0|0:0,0:0:0:0:
119,223,160831,2,0,B|207:230|207:230|306:210,1,190,2|0,3:0|0:0,0:0:0:0:
390,165,161915,1,8,0:0:0:0:
465,107,162277,1,0,0:0:0:0:
475,201,162638,6,0,P|487:297|404:357,1,190,2|8,3:0|0:0,0:0:0:0:
401,260,163723,1,2,3:0:0:0:
328,320,164084,2,0,P|316:224|399:164,1,190,2|8,3:0|0:0,0:0:0:0:
466,126,165168,1,0,0:0:0:0:
388,70,165530,6,0,B|324:59|324:59|248:81|248:81|183:67,1,190,2|8,3:0|0:0,0:0:0:0:
116,111,166614,2,0,L|111:217,1,95,2|2,3:0|3:0,0:0:0:0:
249,336,167698,2,0,L|253:241,1,95,8|0,0:0|0:0,0:0:0:0:
333,189,168421,6,0,P|400:226|508:195,1,190,2|8,3:0|0:0,0:0:0:0:
510,102,169506,1,2,3:0:0:0:
436,42,169867,2,0,L|310:48,1,95,2|0,0:0|0:0,0:0:0:0:
246,58,170590,1,8,0:0:0:0:
284,144,170951,1,0,0:0:0:0:
208,202,171313,6,0,L|114:198,2,95,4|0|8,0:0|0:0|0:0,0:0:0:0:
284,144,172397,1,0,0:0:0:0:
334,224,172759,2,0,P|376:176|328:60,1,190,0|8,0:0|0:0,0:0:0:0:
284,144,173843,1,0,0:0:0:0:
221,72,174204,6,0,L|127:76,2,95,2|0|8,3:0|0:0|0:0,0:0:0:0:
284,144,175289,1,0,0:0:0:0:
339,66,175650,2,0,P|381:146|334:224,1,190,0|8,0:0|0:0,0:0:0:0:
284,144,176735,1,0,0:0:0:0:
193,172,177096,6,0,B|172:239|206:287|206:287|182:330|204:366,1,190,2|8,3:0|0:0,0:0:0:0:
388,357,178542,2,0,B|403:333|379:290|379:290|413:242|392:175,1,190,2|8,3:0|0:0,0:0:0:0:
245,56,179988,6,0,P|207:108|260:242,1,190,2|8,3:0|0:0,0:0:0:0:
393,325,181433,2,0,P|425:238|381:157,1,190,0|2,0:0|3:0,0:0:0:0:
301,105,182518,1,0,0:0:0:0:
218,151,182879,6,0,L|100:142,2,95,4|0|8,0:0|0:0|0:0,0:0:0:0:
301,105,183964,1,0,0:0:0:0:
378,158,184325,2,0,B|342:244|418:244|372:342,1,190,0|8,0:0|0:0,0:0:0:0:
297,284,185409,1,0,0:0:0:0:
215,332,185771,6,0,L|97:341,2,95,2|0|8,3:0|0:0|0:0,0:0:0:0:
297,284,186855,1,0,0:0:0:0:
372,342,187217,2,0,B|418:244|342:244|380:155,1,190,0|8,0:0|0:0,0:0:0:0:
403,62,188301,1,0,0:0:0:0:
318,105,188662,6,0,P|233:141|156:93,1,190,2|8,3:0|0:0,0:0:0:0:
242,46,189747,2,0,P|295:12|412:91,1,190,0|0,0:0|0:0,0:0:0:0:
256,192,190831,12,0,194445,0:0:0:0:
82,77,206373,6,0,L|188:69,1,95,0|8,0:0|0:0,0:0:0:0:
271,60,207096,1,0,0:0:0:0:
308,147,207457,2,0,P|304:235|411:309,1,190,0|8,0:0|0:0,0:0:0:0:
183,319,208903,6,0,L|88:311,2,95,0|0|8,0:0|0:0|0:0,0:0:0:0:
278,318,209988,1,0,0:0:0:0:
309,228,210349,2,0,P|301:171|317:110,1,95,0|0,0:0|0:0,0:0:0:0:
402,131,211072,2,0,P|410:74|394:13,1,95,8|0,0:0|0:0,0:0:0:0:
309,47,211795,6,0,P|252:39|191:55,1,95,0|0,0:0|0:0,0:0:0:0:
126,80,212518,1,8,0:0:0:0:
171,163,212879,1,0,0:0:0:0:
105,232,213241,2,0,L|105:329,1,95,0|0,0:0|0:0,0:0:0:0:
198,345,213964,2,0,L|295:345,1,95,8|0,0:0|0:0,0:0:0:0:
325,255,214686,6,0,L|230:255,1,95,0|0,0:0|0:0,0:0:0:0:
155,196,215409,2,0,P|181:125|96:40,1,190,0|2,0:0|3:0,0:0:0:0:
88,131,216494,2,0,P|65:182|72:233,2,95,2|0|0,3:0|0:0|0:0,0:0:0:0:
115,44,217578,6,0,B|181:38|181:38|253:50|253:50|309:49,1,190,4|8,0:0|0:0,0:0:0:0:
398,37,218663,1,2,3:0:0:0:
433,129,219024,2,0,L|437:223,1,95,2|0,3:0|0:0,0:0:0:0:
411,315,219747,1,8,0:0:0:0:
331,262,220109,1,0,0:0:0:0:
263,329,220470,6,0,P|180:323|67:332,1,190,4|8,0:0|0:0,0:0:0:0:
12,257,221554,1,2,3:0:0:0:
50,170,221916,2,0,L|48:75,1,95,2|0,3:0|0:0,0:0:0:0:
135,38,222639,2,0,L|229:39,1,95,8|0,0:0|0:0,0:0:0:0:
312,86,223362,6,0,L|311:275,1,190,2|8,3:0|0:0,0:0:0:0:
231,327,224445,2,0,P|139:310|41:329,1,190,0|0,0:0|0:0,0:0:0:0:
30,233,225530,2,0,L|31:139,1,95,8|0,0:0|0:0,0:0:0:0:
116,96,226253,6,0,P|179:147|282:111,1,190,2|8,3:0|0:0,0:0:0:0:
204,54,227337,1,0,0:0:0:0:
295,28,227699,2,0,L|407:10,2,95,0|2|8,0:0|3:0|0:0,0:0:0:0:
204,54,228783,1,2,3:0:0:0:
133,117,229145,6,0,B|133:185|133:185|144:251|144:251|144:323,1,190,4|8,0:0|0:0,0:0:0:0:
238,320,230229,2,0,B|238:265|238:265|227:199|227:199|227:131,1,190,2|0,3:0|0:0,0:0:0:0:
310,85,231313,1,8,0:0:0:0:
383,145,231675,1,0,0:0:0:0:
462,196,232036,6,0,B|448:235|384:248|384:248|435:282|427:339,1,190,2|8,3:0|0:0,0:0:0:0:
332,331,233121,1,2,3:0:0:0:
237,325,233482,2,0,B|230:282|281:248|281:248|217:235|203:196,1,190,2|8,3:0|0:0,0:0:0:0:
158,114,234566,1,0,0:0:0:0:
245,76,234928,6,0,B|309:65|309:65|385:87|385:87|450:73,1,190,2|8,3:0|0:0,0:0:0:0:
475,160,236012,2,0,L|470:266,1,95,2|2,3:0|3:0,0:0:0:0:
293,324,237096,2,0,L|297:229,1,95,8|0,0:0|0:0,0:0:0:0:
207,196,237819,6,0,P|140:233|40:173,1,190,2|8,3:0|0:0,0:0:0:0:
130,140,238904,1,0,0:0:0:0:
179,59,239265,2,0,L|302:51,1,95,2|0,0:0|0:0,0:0:0:0:
356,99,239988,1,8,0:0:0:0:
443,62,240349,1,0,0:0:0:0:
448,156,240711,6,0,L|444:250,2,95,4|0|8,0:0|0:0|0:0,0:0:0:0:
443,62,241795,1,0,0:0:0:0:
365,121,242157,2,0,B|266:112|266:112|155:124,1,190,0|8,0:0|0:0,0:0:0:0:
95,71,243241,1,0,0:0:0:0:
60,159,243602,6,0,L|63:253,2,95,2|0|8,3:0|0:0|0:0,0:0:0:0:
95,71,244687,1,0,0:0:0:0:
175,121,245048,2,0,B|266:112|266:112|365:121,1,190,0|8,0:0|0:0,0:0:0:0:
447,72,246133,1,0,0:0:0:0:
452,166,246494,6,0,P|477:244|448:357,1,190,2|8,3:0|0:0,0:0:0:0:
263,346,247939,2,0,P|239:255|264:164,1,190,2|8,3:0|0:0,0:0:0:0:
98,72,249386,6,0,P|150:34|284:87,1,190,2|8,3:0|0:0,0:0:0:0:
268,250,250831,2,0,P|181:282|100:238,1,190,0|8,0:0|0:0,0:0:0:0:
60,151,251916,1,0,0:0:0:0:
124,81,252277,6,0,P|74:60|6:72,2,95,4|0|8,0:0|0:0|0:0,0:0:0:0:
172,162,253362,1,0,0:0:0:0:
246,220,253723,2,0,P|341:191|426:244,1,190,0|8,0:0|0:0,0:0:0:0:
467,312,254807,1,0,0:0:0:0:
372,322,255169,6,0,L|254:331,2,95,2|0|8,3:0|0:0|0:0,0:0:0:0:
467,312,256253,1,0,0:0:0:0:
460,217,256615,2,0,B|431:119|478:119|452:30,1,190,0|8,0:0|0:0,0:0:0:0:
370,79,257699,1,0,0:0:0:0:
283,118,258060,6,0,P|269:209|187:249,1,190,2|8,3:0|0:0,0:0:0:0:
112,189,259145,2,0,P|112:126|241:68,1,190,0|0,0:0|0:0,0:0:0:0:
256,192,260229,12,4,263843,0:0:0:0:
388,61,265289,6,0,P|423:154|350:207,1,190,2|2,0:0|0:0,0:0:0:0:
178,250,266735,2,0,P|143:157|216:104,1,190,2|2,0:0|0:0,0:0:0:0:
277,279,268180,2,0,B|367:257|367:302|481:285,1,190,2|2,0:0|0:0,0:0:0:0:
256,192,269626,12,0,275409,0:0:0:0:
