osu file format v14

[General]
AudioFilename: audio.mp3
AudioLeadIn: 0
PreviewTime: 216494
Countdown: 0
SampleSet: Soft
StackLeniency: 0.7
Mode: 0
LetterboxInBreaks: 0
WidescreenStoryboard: 0

[Editor]
Bookmarks: 15168,107698,136614,206012
DistanceSpacing: 1.7
BeatDivisor: 4
GridSize: 4
TimelineZoom: 1

[Metadata]
Title:FOR YOU
TitleUnicode:FOR YOU
Artist:BTS
ArtistUnicode:防弾少年団
Creator:Lilyanna
Version:For You
Source:
Tags:bangtan boys beyond the scene 방탄소년단 rap monster ㄹㅁ jungkook 정국 suga 슈가 jimin 지민 j-hope 제이 홉 v 뷔 jin 진 k-pop kpop youth japan 2nd album
BeatmapID:1433036
BeatmapSetID:677630

[Difficulty]
HPDrainRate:6
CircleSize:4
OverallDifficulty:7
ApproachRate:8
SliderMultiplier:2.3
SliderTickRate:1

[Events]
//Background and Video events
0,0,"love.jpg",0,0
//Break Periods
2,113482,121406
2,195891,205623
//Storyboard Layer 0 (Background)
//Storyboard Layer 1 (Fail)
//Storyboard Layer 2 (Pass)
//Storyboard Layer 3 (Foreground)
//Storyboard Sound Samples

[TimingPoints]
711,722.89156626506,4,2,1,60,1,0
15168,-125,4,2,1,60,0,0
61433,-100,4,2,1,75,0,1
84566,-100,4,2,1,60,0,0
136253,-125,4,2,1,60,0,0
148180,-100,4,2,1,75,0,1
171313,-100,4,2,1,60,0,0
194445,-125,4,2,1,60,0,0
217578,-100,4,2,1,75,0,1
240710,-100,4,2,1,60,0,0

[Colours]
Combo1 : 255,108,108
Combo2 : 128,128,255
Combo3 : 143,143,143
Combo4 : 255,146,94

[HitObjects]
434,79,15168,6,0,P|450:131|443:174,1,92,2|0,0:0|0:0,0:0:0:0:
351,293,15891,2,0,P|335:241|342:198,1,92,8|0,0:0|0:0,0:0:0:0:
354,48,16614,1,0,0:0:0:0:
216,122,16976,1,0,0:0:0:0:
216,122,17156,1,0,0:0:0:0:
216,122,17337,2,0,L|122:129,1,92,8|0,0:0|0:0,0:0:0:0:
68,183,17879,1,0,0:0:0:0:
68,183,18060,6,0,P|78:251|62:299,1,92,2|0,0:0|0:0,0:0:0:0:
134,330,18602,1,0,0:0:0:0:
134,330,18783,2,0,L|225:323,1,92,8|0,0:0|0:0,0:0:0:0:
258,248,19325,2,0,P|285:263|301:289,1,46,0|2,0:0|0:0,0:0:0:0:
230,159,19686,2,0,P|245:132|271:116,1,46
275,46,20048,1,0,0:0:0:0:
275,46,20229,2,0,P|330:89|337:139,1,92,8|0,0:0|0:0,0:0:0:0:
416,92,20771,1,0,0:0:0:0:
416,92,20951,6,0,P|400:160|357:185,1,92,2|0,0:0|0:0,0:0:0:0:
308,201,21494,2,0,P|341:243|355:249,1,46,0|8,0:0|0:0,0:0:0:0:
259,142,21855,2,0,P|217:175|211:189,1,46
205,248,22217,1,0,0:0:0:0:
205,248,22397,2,0,P|155:214|144:169,1,92,2|0,0:0|0:0,0:0:0:0:
153,109,22939,1,0,0:0:0:0:
153,109,23120,2,0,P|92:130|70:178,1,92,8|0,0:0|0:0,0:0:0:0:
63,231,23662,1,0,0:0:0:0:
63,231,23843,6,0,L|51:295,1,46,2|0,0:0|0:0,0:0:0:0:
146,183,24204,2,0,L|154:137,1,46
233,138,24566,2,0,L|221:202,1,46,8|0,0:0|0:0,0:0:0:0:
316,98,24927,2,0,L|324:52,1,46
474,53,25289,1,0,0:0:0:0:
400,30,25470,1,2,0:0:0:0:
427,189,25650,5,2,3:0:0:0:
479,130,25831,1,2,3:0:0:0:
350,170,26012,5,10,0:0:0:0:
450,272,26192,1,2,3:0:0:0:
338,269,26373,2,0,L|317:291,3,23
284,274,26735,6,0,P|234:270|227:271,1,46,2|0,0:0|0:0,0:0:0:0:
180,155,27096,2,0,P|230:159|237:158,1,46
158,80,27457,2,0,P|115:109|105:183,1,92,8|0,0:0|0:0,0:0:0:0:
96,223,28000,1,0,0:0:0:0:
96,223,28180,2,0,P|77:264|38:287,1,92,2|0,0:0|0:0,0:0:0:0:
76,357,28723,1,0,0:0:0:0:
76,357,28903,2,0,P|108:354|131:357,1,46,8|0,0:0|0:0,0:0:0:0:
240,301,29265,2,0,P|208:304|185:301,1,46
263,211,29626,6,0,P|285:209|308:210,1,46,2|0,0:0|0:0,0:0:0:0:
426,156,29988,2,0,P|404:158|381:157,1,46
481,97,30349,2,0,P|504:152|496:193,1,92,8|0,0:0|0:0,0:0:0:0:
449,243,30891,1,0,0:0:0:0:
449,243,31072,2,0,P|446:288|467:328,1,92,2|0,0:0|0:0,0:0:0:0:
395,357,31614,1,0,0:0:0:0:
395,357,31795,2,0,L|312:361,1,46,8|0,0:0|0:0,0:0:0:0:
253,278,32156,2,0,L|298:275,1,46
211,211,32518,6,0,P|178:256|189:322,1,92,2|0,0:0|0:0,0:0:0:0:
274,155,33241,2,0,P|277:111|275:99,1,46,8|0,0:0|0:0,0:0:0:0:
193,39,33602,2,0,P|190:83|192:95,1,46
131,178,33964,2,0,P|176:211|227:204,1,92,2|0,0:0|0:0,0:0:0:0:
306,307,34686,2,0,P|303:351|305:363,1,46,8|0,0:0|0:0,0:0:0:0:
422,353,35048,2,0,P|425:309|423:297,1,46
495,214,35409,6,0,P|450:181|399:188,1,92,2|0,0:0|0:0,0:0:0:0:
344,148,35951,1,0,0:0:0:0:
344,148,36132,2,0,P|340:102|311:68,1,92,8|0,0:0|0:0,0:0:0:0:
232,55,36674,2,0,P|238:26|249:6,1,46
264,132,37036,5,0,0:0:0:0:
177,223,37217,1,2,3:0:0:0:
255,215,37397,1,2,3:0:0:0:
131,159,37578,5,10,0:0:0:0:
126,291,37759,1,2,3:0:0:0:
73,221,37939,2,0,L|48:230,3,23
57,188,38301,6,0,P|54:145|62:123,1,46,2|0,0:0|0:0,0:0:0:0:
126,35,38662,2,0,P|129:78|121:100,1,46
226,74,39024,2,0,P|269:71|291:79,1,46,8|0,0:0|0:0,0:0:0:0:
308,191,39385,2,0,P|265:194|243:186,1,46
364,130,39747,2,0,P|388:179|377:238,1,92,2|0,0:0|0:0,0:0:0:0:
424,283,40289,1,0,0:0:0:0:
424,283,40470,2,0,P|467:280|489:288,1,46,8|0,0:0|0:0,0:0:0:0:
358,344,40831,2,0,P|315:347|293:339,1,46
199,278,41192,6,0,P|242:275|264:283,1,46,2|0,0:0|0:0,0:0:0:0:
131,352,41554,2,0,P|88:355|66:347,1,46
210,292,41915,2,0,P|252:300|271:314,1,46,8|0,0:0|0:0,0:0:0:0:
120,343,42276,2,0,P|77:334|58:320,1,46
178,201,42638,2,0,P|135:233|121:290,1,92,2|0,0:0|0:0,0:0:0:0:
174,120,43361,2,0,P|163:95|157:66,1,46,8|0,0:0|0:0,0:0:0:0:
279,119,43723,2,0,P|290:144|296:173,1,46
183,100,44084,6,0,P|182:72|188:43,1,46,2|0,0:0|0:0,0:0:0:0:
280,140,44446,2,0,P|280:167|274:196,1,46
312,64,44807,2,0,L|365:62,1,46,8|0,0:0|0:0,0:0:0:0:
201,175,45168,2,0,L|155:176,1,46
277,262,45530,2,0,L|330:260,1,46,2|0,0:0|0:0,0:0:0:0:
199,191,45891,2,0,L|153:192,1,46
359,190,46253,2,0,P|396:237|397:286,1,92,8|0,0:0|0:0,0:0:0:0:
418,128,46795,1,0,0:0:0:0:
418,128,46976,6,0,P|381:81|380:32,1,92,2|0,0:0|0:0,0:0:0:0:
301,30,47518,1,0,0:0:0:0:
301,30,47698,2,0,L|235:28,1,46,8|0,0:0|0:0,0:0:0:0:
209,92,48060,2,0,L|143:90,1,46
107,145,48421,2,0,P|110:176|107:204,1,46,2|0,0:0|0:0,0:0:0:0:
48,302,48783,2,0,P|45:271|48:243,1,46
134,165,49144,2,0,P|124:194|110:219,1,46,8|0,0:0|0:0,0:0:0:0:
18,286,49506,2,0,P|27:256|41:231,1,46
144,304,49867,6,0,P|194:294|252:309,1,92,2|0,0:0|0:0,0:0:0:0:
308,325,50409,1,0,0:0:0:0:
308,325,50590,2,0,P|308:286|299:264,1,46,8|0,0:0|0:0,0:0:0:0:
366,230,50951,2,0,P|334:206|311:200,2,46,0|0|2,0:0|0:0|0:0,0:0:0:0:
322,127,51494,6,0,P|286:142|269:159,1,46
242,214,51855,1,0,0:0:0:0:
242,214,52036,2,0,P|204:164|201:146,1,46,8|0,0:0|0:0,0:0:0:0:
167,56,52397,2,0,P|205:106|208:124,1,46
223,220,52759,6,0,P|185:170|182:152,1,46,2|0,0:0|0:0,0:0:0:0:
148,62,53120,2,0,P|186:112|189:130,1,46
107,126,53482,2,0,L|44:135,1,46,8|0,0:0|0:0,0:0:0:0:
38,234,53843,2,0,L|83:227,2,46,0|0|2,0:0|0:0|0:0,0:0:0:0:
172,305,54385,6,0,L|126:311,1,46
221,242,54747,1,0,0:0:0:0:
221,242,54927,2,0,P|251:295|242:345,1,92,8|0,0:0|0:0,0:0:0:0:
323,350,55470,1,0,0:0:0:0:
323,350,55650,6,0,L|435:347,1,92,2|0,0:0|0:0,0:0:0:0:
474,296,56192,1,0,0:0:0:0:
474,296,56373,2,0,L|464:184,1,92,8|0,0:0|0:0,0:0:0:0:
414,145,56915,1,0,0:0:0:0:
414,145,57096,2,0,P|364:154|341:152,1,46,2|0,0:0|0:0,0:0:0:0:
261,72,57457,2,0,P|311:63|334:65,1,46
230,143,57819,2,0,P|188:103|187:50,1,92,8|0,0:0|0:0,0:0:0:0:
104,72,58361,1,0,0:0:0:0:
104,72,58542,6,0,P|92:115|61:139,1,46,2|0,0:0|0:0,0:0:0:0:
65,254,58903,2,0,P|76:210|108:187,1,46
147,174,59265,1,0,0:0:0:0:
216,209,59445,1,0,0:0:0:0:
213,287,59626,1,0,0:0:0:0:
141,319,59807,1,0,0:0:0:0:
285,317,59988,5,2,3:0:0:0:
213,287,60168,1,2,3:0:0:0:
355,281,60349,5,2,3:0:0:0:
141,319,60530,1,2,3:0:0:0:
360,199,60710,2,0,P|390:204|417:222,1,46,8|0,0:0|0:0,0:0:0:0:
380,48,61072,2,0,P|350:43|323:25,1,46,8|0,0:0|0:0,0:0:0:0:
175,32,61433,6,0,B|154:116|208:117|172:207,1,172.5,4|0,0:0|0:0,0:0:0:0:
90,150,62156,1,8,0:0:0:0:
284,211,62518,1,2,3:0:0:0:
284,211,62698,1,2,3:0:0:0:
284,211,62879,2,0,P|209:192|145:218,1,115,2|0,3:0|0:0,0:0:0:0:
336,276,63421,1,0,0:0:0:0:
336,276,63602,2,0,P|363:237|365:210,1,57.5,8|0,0:0|0:0,0:0:0:0:
451,106,63964,2,0,P|424:145|422:172,1,57.5
391,52,64325,6,0,B|357:89|346:137|346:137|294:115|247:141,1,172.5,4|0,0:0|0:0,0:0:0:0:
301,227,65048,1,8,0:0:0:0:
177,75,65409,1,2,3:0:0:0:
177,75,65590,1,2,3:0:0:0:
177,75,65771,2,0,P|161:139|178:190,1,115,2|0,3:0|0:0,0:0:0:0:
99,246,66313,1,0,0:0:0:0:
99,246,66494,2,0,P|54:242|33:247,1,57.5,8|0,0:0|0:0,0:0:0:0:
180,327,66855,2,0,P|225:331|246:326,1,57.5
306,259,67217,6,0,P|330:306|328:337,1,57.5,2|0,3:0|0:0,0:0:0:0:
246,195,67578,1,0,0:0:0:0:
246,195,67759,1,0,0:0:0:0:
246,195,67939,2,0,P|222:148|224:117,1,57.5,8|0,0:0|0:0,0:0:0:0:
149,210,68301,2,0,P|145:157|159:129,1,57.5,2|0,3:0|0:0,0:0:0:0:
148,55,68662,2,0,B|105:54|105:54|74:58|74:58|21:56,1,115,2|0,3:0|0:0,0:0:0:0:
259,51,69385,2,0,P|283:98|281:129,1,57.5,8|0,0:0|0:0,0:0:0:0:
356,38,69747,2,0,P|359:90|345:118,1,57.5,2|0,3:0|0:0,0:0:0:0:
357,191,70108,6,0,B|400:192|400:192|431:188|431:188|484:190,1,115,2|0,3:0|0:0,0:0:0:0:
482,286,70650,1,0,0:0:0:0:
482,286,70831,2,0,B|441:284|441:284|410:288|410:288|367:287,1,115,8|0,0:0|0:0,0:0:0:0:
285,234,71373,1,0,0:0:0:0:
285,234,71554,2,0,P|280:173|281:159,1,57.5
270,79,71915,1,2,3:0:0:0:
192,144,72096,1,2,3:0:0:0:
279,177,72277,5,8,0:0:0:0:
180,54,72457,1,2,3:0:0:0:
127,214,72638,1,2,3:0:0:0:
127,214,72819,1,2,3:0:0:0:
127,214,73000,6,0,P|97:134|149:58,1,172.5,4|0,0:0|0:0,0:0:0:0:
192,144,73723,1,8,0:0:0:0:
103,314,74084,1,2,3:0:0:0:
103,314,74265,1,2,3:0:0:0:
103,314,74445,2,0,B|165:331|165:307|232:318,1,115,2|0,3:0|0:0,0:0:0:0:
405,263,75168,2,0,L|412:195,1,57.5,8|0,0:0|0:0,0:0:0:0:
347,79,75530,2,0,L|341:136,1,57.5
248,169,75891,6,0,P|167:149|101:200,1,172.5,2|0,3:0|0:0,0:0:0:0:
73,98,76614,2,0,P|108:153|89:217,1,115,8|2,0:0|3:0,0:0:0:0:
183,231,77156,1,2,3:0:0:0:
128,301,77337,2,0,P|93:246|112:182,1,115,2|0,3:0|0:0,0:0:0:0:
268,313,78060,2,0,P|321:311|339:315,1,57.5,8|0,0:0|0:0,0:0:0:0:
446,221,78421,2,0,P|393:223|375:219,1,57.5
260,157,78783,6,0,P|313:155|331:159,1,57.5,2|0,3:0|0:0,0:0:0:0:
206,92,79144,1,0,0:0:0:0:
206,92,79325,1,0,0:0:0:0:
206,92,79506,2,0,P|153:94|135:90,1,57.5,8|0,0:0|0:0,0:0:0:0:
164,189,79867,2,0,P|114:170|99:159,1,57.5,2|0,3:0|0:0,0:0:0:0:
26,118,80229,2,0,B|10:182|41:182|24:245,1,115,2|0,3:0|0:0,0:0:0:0:
205,323,80951,2,0,P|152:321|134:325,1,57.5,8|0,0:0|0:0,0:0:0:0:
27,231,81313,2,0,P|80:232|98:229,1,57.5
213,167,81674,6,0,P|160:165|142:169,1,57.5,2|0,3:0|0:0,0:0:0:0:
267,102,82035,1,0,0:0:0:0:
267,102,82216,1,0,0:0:0:0:
267,102,82397,2,0,P|320:104|338:100,1,57.5,8|0,0:0|0:0,0:0:0:0:
309,199,82758,2,0,P|358:180|373:169,1,57.5,2|0,3:0|0:0,0:0:0:0:
447,128,83120,2,0,B|463:192|432:192|449:255,1,115,2|0,0:0|0:0,0:0:0:0:
363,294,83662,1,0,0:0:0:0:
363,294,83843,2,0,L|301:304,1,57.5,8|0,0:0|0:0,0:0:0:0:
153,232,84204,2,0,L|209:222,1,57.5
255,78,84566,6,0,P|259:97|253:138,1,57.5,4|0,0:0|0:0,0:0:0:0:
285,41,84927,2,0,P|300:52|340:61,1,57.5
240,44,85289,2,0,B|196:44|196:44|165:50|165:50|121:51,1,115,8|0,0:0|0:0,0:0:0:0:
48,110,85831,6,0,L|44:177,1,57.5
118,270,86192,2,0,L|121:212,2,57.5
196,328,86735,2,0,L|203:187,1,115,8|0,0:0|0:0,0:0:0:0:
361,100,87457,6,0,P|365:81|359:40,1,57.5,2|0,3:0|0:0,0:0:0:0:
391,137,87819,2,0,P|406:125|446:116,1,57.5
346,134,88180,2,0,B|302:134|302:134|271:128|271:128|227:127,1,115,8|0,0:0|0:0,0:0:0:0:
157,191,88722,6,0,L|161:258,1,57.5
87,351,89084,2,0,L|83:293,2,57.5
11,288,89626,2,0,L|4:147,1,115,8|0,0:0|0:0,0:0:0:0:
167,63,90349,5,2,3:0:0:0:
167,63,90710,2,0,L|171:130,1,57.5
259,236,91072,2,0,L|255:178,2,57.5,8|0|2,0:0|0:0|3:0,0:0:0:0:
319,312,91614,1,2,3:0:0:0:
319,312,91795,2,0,P|390:298|444:321,1,115,2|0,3:0|0:0,0:0:0:0:
480,227,92337,1,0,0:0:0:0:
480,227,92518,2,0,P|458:155|478:94,1,115,8|0,0:0|0:0,0:0:0:0:
282,47,93241,5,2,3:0:0:0:
282,47,93602,2,0,L|278:114,1,57.5
190,220,93964,2,0,L|193:162,2,57.5,8|0|0,0:0|0:0|0:0,0:0:0:0:
130,296,94506,1,0,0:0:0:0:
130,296,94687,2,0,P|97:289|54:302,1,57.5
12,216,95048,1,2,3:0:0:0:
12,216,95229,1,2,3:0:0:0:
12,216,95410,2,0,P|34:144|14:83,1,115,8|0,0:0|0:0,0:0:0:0:
149,55,95951,1,0,0:0:0:0:
149,55,96132,6,0,L|220:43,1,57.5,4|0,0:0|0:0,0:0:0:0:
277,112,96494,2,0,L|265:183,1,57.5
337,236,96855,2,0,L|357:109,1,115,8|0,0:0|0:0,0:0:0:0:
426,188,97397,6,0,L|414:259,1,57.5
466,356,97759,2,0,L|475:299,2,57.5
369,340,98301,2,0,P|310:330|245:342,1,115,8|0,0:0|0:0,0:0:0:0:
60,328,99024,6,0,L|131:340,1,57.5,2|0,3:0|0:0,0:0:0:0:
188,271,99386,2,0,L|176:200,1,57.5
248,147,99747,2,0,L|268:274,1,115,8|0,0:0|0:0,0:0:0:0:
337,195,100289,6,0,L|325:124,1,57.5
377,28,100651,2,0,L|386:84,1,57.5
280,43,101012,1,0,0:0:0:0:
280,43,101193,2,0,P|241:46|208:37,1,57.5,8|0,0:0|0:0,0:0:0:0:
80,97,101554,2,0,P|119:94|152:103,1,57.5
232,127,101915,6,0,B|241:207|203:207|228:303,1,172.5,2|0,3:0|0:0,0:0:0:0:
296,247,102638,1,8,0:0:0:0:
284,353,102819,1,0,0:0:0:0:
284,353,103000,2,0,P|229:335|174:349,1,115
68,310,103542,2,0,P|90:279|118:258,1,57.5
31,180,103903,1,0,0:0:0:0:
31,180,104084,2,0,P|63:160|97:151,1,57.5,8|0,0:0|0:0,0:0:0:0:
43,51,104445,2,0,P|80:45|115:50,1,57.5,2|0,3:0|0:0,0:0:0:0:
221,76,104807,6,0,P|188:95|154:104,1,57.5,2|0,3:0|0:0,0:0:0:0:
172,216,105168,2,0,P|134:221|99:216,1,57.5
255,158,105530,2,0,P|312:145|378:171,1,115,8|0,0:0|0:0,0:0:0:0:
308,241,106072,1,0,0:0:0:0:
308,241,106253,2,0,P|252:249|223:238,2,57.5,0|0|2,0:0|0:0|3:0,0:0:0:0:
360,311,106795,1,2,3:0:0:0:
360,311,106976,2,0,P|417:298|483:320,1,115,8|0,0:0|0:0,0:0:0:0:
238,242,107698,6,0,B|241:181|241:181|231:129|231:129|250:69|236:13,1,230,4|8,0:0|0:0,0:0:0:0:
236,14,108783,1,2,3:0:0:0:
169,191,109144,2,0,P|231:167|298:299,1,230,2|8,3:0|0:0,0:0:0:0:
306,282,110229,1,2,3:0:0:0:
102,178,110590,6,0,P|88:245|143:172,1,230,2|8,3:0|0:0,0:0:0:0:
168,190,111674,1,2,3:0:0:0:
359,150,112036,2,0,P|373:83|318:156,1,230,2|8,0:0|0:0,0:0:0:0:
292,137,113120,1,2,3:0:0:0:
256,192,122156,12,0,124325,0:0:0:0:
395,55,125048,6,0,P|381:107|394:169,1,115,2|0,3:0|0:0,0:0:0:0:
442,250,125590,1,0,0:0:0:0:
356,297,125771,2,0,L|239:314,1,115,8|0,0:0|0:0,0:0:0:0:
156,265,126313,1,0,0:0:0:0:
156,265,126494,2,0,L|150:195,1,57.5
223,64,126855,2,0,L|227:121,1,57.5
313,23,127217,2,0,L|324:144,1,115,8|0,0:0|0:0,0:0:0:0:
301,232,127759,1,0,0:0:0:0:
301,232,127939,6,0,P|352:231|364:227,1,57.5,2|0,3:0|0:0,0:0:0:0:
227,121,128301,2,0,P|176:122|164:126,1,57.5
312,247,128662,2,0,P|363:246|375:242,2,57.5,8|0|0,0:0|0:0|0:0,0:0:0:0:
460,219,129204,1,0,0:0:0:0:
460,219,129385,2,0,P|459:270|455:282,2,57.5
402,139,129927,1,0,0:0:0:0:
402,139,130108,2,0,P|468:120|532:155,1,115,8|0,0:0|0:0,0:0:0:0:
307,55,130650,1,0,0:0:0:0:
307,55,130831,6,0,P|326:121|319:137,1,57.5,2|0,3:0|0:0,0:0:0:0:
312,238,131192,2,0,P|293:172|300:156,1,57.5,0|0,3:0|0:0,0:0:0:0:
138,116,131554,2,0,P|204:97|268:132,1,115,8|0,0:0|0:0,0:0:0:0:
209,232,132096,1,0,0:0:0:0:
209,232,132277,2,0,P|200:166|212:147,1,57.5
76,69,132638,1,0,0:0:0:0:
76,69,132819,1,0,0:0:0:0:
76,69,133000,2,0,P|95:135|60:199,1,115,8|0,0:0|0:0,0:0:0:0:
115,321,133542,1,0,0:0:0:0:
115,321,133723,6,0,L|185:332,2,57.5,2|0|0,3:0|0:0|0:0,0:0:0:0:
241,248,134265,1,0,0:0:0:0:
241,248,134445,2,0,L|367:273,1,115,8|0,0:0|0:0,0:0:0:0:
467,223,134988,1,0,0:0:0:0:
467,223,135349,5,0,0:0:0:0:
489,151,135530,1,2,3:0:0:0:
447,89,135710,1,2,3:0:0:0:
373,102,135891,1,8,0:0:0:0:
344,171,136072,1,2,3:0:0:0:
381,237,136253,6,0,P|373:288|378:311,1,46
300,322,136614,6,0,B|201:310|201:347|100:318,1,184,2|8,0:0|0:0,0:0:0:0:
26,30,137879,1,0,0:0:0:0:
26,30,138060,2,0,P|30:72|25:95,1,46
107,72,138421,2,0,P|94:112|80:131,1,46
166,143,138783,2,0,P|138:175|118:187,1,46,8|0,0:0|0:0,0:0:0:0:
142,314,139144,2,0,P|150:263|145:240,1,46
214,215,139506,6,0,B|313:227|313:190|414:219,1,184,2|8,0:0|0:0,0:0:0:0:
97,67,140771,1,0,0:0:0:0:
97,67,140951,2,0,P|101:109|96:132,1,46
73,249,141313,2,0,P|86:209|100:190,1,46
208,131,141674,2,0,P|180:163|160:175,1,46,8|0,0:0|0:0,0:0:0:0:
183,313,142036,2,0,P|175:262|180:239,1,46
249,231,142397,6,0,P|326:272|414:231,1,184,2|8,0:0|0:0,0:0:0:0:
459,139,143301,2,0,P|436:135|406:136,1,46
335,145,143662,1,0,0:0:0:0:
335,145,143843,2,0,P|312:150|285:162,1,46
338,22,144204,2,0,P|319:35|299:58,1,46,0|0,2:0|2:0,2:0:0:0:
225,84,144566,2,0,P|224:42|228:24,1,46,8|0,0:0|0:0,0:0:0:0:
182,176,144927,2,0,P|183:218|179:236,1,46
211,82,145289,6,0,P|210:40|214:22,1,46,2|0,3:0|0:0,0:0:0:0:
196,183,145650,2,0,P|197:225|193:243,1,46
104,157,146012,1,0,0:0:0:0:
35,192,146192,1,0,0:0:0:0:
38,270,146373,1,0,0:0:0:0:
110,302,146554,1,0,0:0:0:0:
254,319,146735,5,2,3:0:0:0:
185,279,146915,1,2,3:0:0:0:
327,291,147096,5,2,3:0:0:0:
110,302,147277,1,2,3:0:0:0:
196,183,147457,2,0,P|173:180|152:171,1,46,8|0,0:0|0:0,0:0:0:0:
331,209,147819,2,0,P|353:211|374:220,1,46,8|0,0:0|0:0,0:0:0:0:
359,60,148180,6,0,P|381:132|323:214,1,172.5,4|0,0:0|0:0,0:0:0:0:
285,123,148903,1,8,0:0:0:0:
396,283,149265,1,2,3:0:0:0:
396,283,149445,1,2,3:0:0:0:
396,283,149626,2,0,P|319:266|261:291,1,115,2|0,3:0|0:0,0:0:0:0:
188,274,150168,1,0,0:0:0:0:
188,274,150349,2,0,P|195:227|185:201,1,57.5,8|0,0:0|0:0,0:0:0:0:
190,80,150711,2,0,P|182:126|192:152,1,57.5
97,179,151072,6,0,P|82:96|123:10,1,172.5,4|0,0:0|0:0,0:0:0:0:
190,80,151795,1,8,0:0:0:0:
384,69,152156,1,2,3:0:0:0:
384,69,152337,1,2,3:0:0:0:
384,69,152518,2,0,P|320:53|269:70,1,115,2|0,3:0|0:0,0:0:0:0:
331,150,153060,1,0,0:0:0:0:
331,150,153241,2,0,P|326:178|329:206,1,57.5,8|0,0:0|0:0,0:0:0:0:
455,97,153602,2,0,P|459:68|456:40,1,57.5
345,148,153964,6,0,P|340:176|343:204,1,57.5,2|0,3:0|0:0,0:0:0:0:
259,313,154325,1,0,0:0:0:0:
259,313,154506,1,0,0:0:0:0:
259,313,154686,2,0,P|262:284|257:256,1,57.5,8|0,0:0|0:0,0:0:0:0:
185,323,155048,2,0,P|176:295|161:271,1,57.5,2|0,3:0|0:0,0:0:0:0:
65,251,155409,2,0,P|112:188|161:173,1,115,2|0,3:0|0:0,0:0:0:0:
290,45,156132,2,0,P|286:73|291:101,1,57.5,8|0,0:0|0:0,0:0:0:0:
364,35,156494,2,0,P|372:62|387:86,1,57.5,2|0,3:0|0:0,0:0:0:0:
484,107,156855,6,0,P|456:157|405:182,1,115,2|0,3:0|0:0,0:0:0:0:
324,236,157397,1,0,0:0:0:0:
324,236,157578,2,0,P|323:302|353:357,1,115,8|0,0:0|0:0,0:0:0:0:
247,328,158120,1,0,0:0:0:0:
247,328,158301,2,0,P|241:275|243:253,1,57.5,8|0,0:0|0:0,0:0:0:0:
250,173,158662,1,2,3:0:0:0:
325,236,158843,1,2,3:0:0:0:
241,271,159024,5,8,0:0:0:0:
340,148,159204,1,2,3:0:0:0:
393,308,159385,1,2,3:0:0:0:
393,308,159566,1,2,3:0:0:0:
393,308,159747,6,0,P|408:205|357:146,1,172.5,4|0,0:0|0:0,0:0:0:0:
290,96,160470,1,8,0:0:0:0:
100,49,160831,1,2,3:0:0:0:
100,49,161012,1,2,3:0:0:0:
100,49,161192,2,0,B|162:66|162:42|229:53,1,115,2|0,3:0|0:0,0:0:0:0:
315,218,161915,2,0,L|308:150,1,57.5,8|0,0:0|0:0,0:0:0:0:
373,34,162277,2,0,L|379:91,1,57.5
281,80,162638,6,0,P|201:56|114:95,1,172.5,2|0,3:0|0:0,0:0:0:0:
164,175,163361,2,0,P|194:222|189:292,1,115,8|2,0:0|3:0,0:0:0:0:
99,253,163903,1,2,3:0:0:0:
36,326,164084,2,0,P|4:269|16:203,1,115,2|0,3:0|0:0,0:0:0:0:
237,354,164807,1,8,0:0:0:0:
237,354,164988,1,0,0:0:0:0:
237,354,165168,2,0,P|195:355|168:349,1,57.5
355,291,165530,6,0,P|397:290|424:296,1,57.5,2|0,3:0|0:0,0:0:0:0:
370,173,165891,1,0,0:0:0:0:
370,173,166072,1,0,0:0:0:0:
370,173,166253,2,0,P|317:175|299:171,1,57.5,8|0,0:0|0:0,0:0:0:0:
249,248,166614,2,0,P|199:229|184:218,1,57.5,2|0,3:0|0:0,0:0:0:0:
100,249,166976,2,0,B|84:185|115:185|98:122,1,115,2|0,3:0|0:0,0:0:0:0:
280,57,167698,2,0,P|227:55|209:59,1,57.5,8|0,0:0|0:0,0:0:0:0:
101,135,168060,2,0,P|154:136|172:133,1,57.5
298,67,168421,6,0,P|245:65|227:69,1,57.5,2|0,3:0|0:0,0:0:0:0:
354,164,168782,1,0,0:0:0:0:
354,164,168963,1,0,0:0:0:0:
354,164,169144,2,0,P|407:166|425:162,1,57.5,8|0,0:0|0:0,0:0:0:0:
383,259,169505,2,0,P|432:240|447:229,1,57.5,2|0,3:0|0:0,0:0:0:0:
485,130,169867,2,0,B|501:194|470:194|487:257,1,115,2|0,0:0|0:0,0:0:0:0:
448,335,170409,1,0,0:0:0:0:
448,335,170590,2,0,L|386:345,1,57.5,8|0,0:0|0:0,0:0:0:0:
250,305,170951,2,0,L|306:295,1,57.5
216,112,171313,6,0,P|220:131|214:172,1,57.5,4|0,0:0|0:0,0:0:0:0:
118,184,171674,2,0,P|133:195|173:204,1,57.5
112,100,172036,2,0,P|51:134|35:182,1,115,8|0,0:0|0:0,0:0:0:0:
31,274,172578,6,0,L|27:341,1,57.5
122,356,172939,2,0,L|125:298,2,57.5
221,308,173482,2,0,L|228:167,1,115,8|0,0:0|0:0,0:0:0:0:
405,257,174204,6,0,P|409:228|404:200,1,57.5,2|0,3:0|0:0,0:0:0:0:
307,185,174566,2,0,P|331:169|359:164,1,57.5
301,269,174927,2,0,P|250:243|226:192,1,115,8|0,0:0|0:0,0:0:0:0:
205,95,175469,6,0,L|201:37,1,57.5
296,13,175830,2,0,L|299:71,2,57.5
392,61,176373,2,0,L|397:175,1,115,8|0,0:0|0:0,0:0:0:0:
256,321,177096,5,2,3:0:0:0:
256,321,177457,2,0,L|252:254,1,57.5
162,223,177819,2,0,L|158:165,2,57.5,8|0|0,0:0|0:0|0:0,0:0:0:0:
251,184,178361,1,2,3:0:0:0:
251,184,178542,2,0,P|322:170|376:193,1,115,2|0,3:0|0:0,0:0:0:0:
433,248,179084,1,0,0:0:0:0:
433,248,179265,2,0,P|411:176|431:115,1,115,8|0,0:0|0:0,0:0:0:0:
241,54,179988,5,2,3:0:0:0:
241,54,180349,2,0,L|174:50,1,57.5
48,118,180711,2,0,L|106:121,2,57.5,8|0|0,0:0|0:0|0:0,0:0:0:0:
171,187,181253,1,0,0:0:0:0:
171,187,181434,2,0,P|164:220|177:263,1,57.5
238,316,181795,1,2,3:0:0:0:
238,316,181976,1,2,3:0:0:0:
238,316,182157,2,0,P|166:294|105:314,1,115,2|0,3:0|0:0,0:0:0:0:
32,316,182698,1,0,0:0:0:0:
102,205,182879,6,0,L|31:217,1,57.5,4|0,0:0|0:0,0:0:0:0:
143,203,183241,2,0,L|214:215,1,57.5
119,156,183602,2,0,L|139:29,1,115,8|0,0:0|0:0,0:0:0:0:
211,138,184144,6,0,L|223:67,1,57.5
306,98,184506,2,0,L|297:155,2,57.5
372,25,185048,2,0,P|310:5|248:27,1,115,8|0,0:0|0:0,0:0:0:0:
136,184,185771,6,0,L|65:196,1,57.5,2|0,3:0|0:0,0:0:0:0:
177,182,186133,2,0,L|248:194,1,57.5
152,136,186494,2,0,L|172:9,1,115,8|0,0:0|0:0,0:0:0:0:
262,93,187036,2,0,L|274:22,1,57.5
386,58,187398,6,0,L|395:114,1,57.5
382,238,187759,1,0,0:0:0:0:
382,238,187939,2,0,P|343:241|310:232,1,57.5,8|0,0:0|0:0,0:0:0:0:
160,203,188301,2,0,P|199:200|232:209,1,57.5
249,117,188662,6,0,B|258:197|220:197|243:287,1,172.5,2|0,3:0|0:0,0:0:0:0:
325,237,189385,1,8,0:0:0:0:
404,293,189566,1,0,0:0:0:0:
404,293,189747,2,0,P|422:238|408:183,1,115
278,166,190289,2,0,P|300:135|328:114,1,57.5
198,134,190650,1,0,0:0:0:0:
198,134,190831,2,0,P|162:122|133:102,1,57.5,8|0,0:0|0:0,0:0:0:0:
210,217,191192,2,0,P|215:254|209:289,1,57.5,2|0,3:0|0:0,0:0:0:0:
289,170,191554,6,0,P|311:139|339:118,1,57.5,2|0,3:0|0:0,0:0:0:0:
200,121,191915,2,0,P|164:109|135:89,1,57.5
294,56,192277,2,0,P|355:56|401:99,1,115,8|0,0:0|0:0,0:0:0:0:
427,181,192819,1,0,0:0:0:0:
427,181,193000,2,0,P|421:209|423:237,2,57.5,2|0|2,0:0|0:0|3:0,0:0:0:0:
369,301,193542,1,2,3:0:0:0:
369,301,193723,2,0,P|307:289|243:302,1,115,8|0,0:0|0:0,0:0:0:0:
164,262,194265,1,0,0:0:0:0:
164,262,194445,6,0,B|181:168|146:168|170:64,1,184,0|8,0:0|0:0,0:0:0:0:
88,69,206373,6,0,P|86:123|101:161,1,92,0|8,0:0|0:0,0:0:0:0:
178,293,207096,1,0,0:0:0:0:
178,293,207277,1,0,0:0:0:0:
178,293,207457,2,0,P|240:289|277:295,1,92
340,259,208000,1,0,0:0:0:0:
340,259,208180,2,0,L|343:196,2,46,8|0|0,0:0|0:0|0:0,0:0:0:0:
413,287,208723,1,0,0:0:0:0:
413,287,208903,6,0,L|416:224,1,46
431,163,209265,1,0,0:0:0:0:
431,163,209445,1,0,0:0:0:0:
431,163,209626,2,0,P|375:170|335:166,1,92,8|0,0:0|0:0,0:0:0:0:
266,138,210168,1,0,0:0:0:0:
266,138,210349,2,0,P|214:137|189:144,1,46
159,87,210710,2,0,P|107:88|82:81,1,46
59,31,211072,2,0,P|87:113|57:164,1,138,8|0,0:0|0:0,0:0:0:0:
66,154,211795,6,0,P|35:237|62:280,1,138
115,222,212518,1,8,0:0:0:0:
115,222,212698,2,0,L|174:221,2,46
207,283,213241,2,0,P|237:224|229:182,1,92
301,158,213783,1,0,0:0:0:0:
301,158,213964,2,0,L|392:155,1,92,8|0,0:0|0:0,0:0:0:0:
470,148,214506,1,0,0:0:0:0:
470,148,214686,5,0,0:0:0:0:
418,295,215048,1,0,0:0:0:0:
413,62,215409,1,0,0:0:0:0:
335,72,215590,1,0,0:0:0:0:
257,82,215771,1,0,0:0:0:0:
179,89,215951,1,0,0:0:0:0:
177,231,216132,5,2,3:0:0:0:
210,160,216313,1,2,3:0:0:0:
101,249,216494,5,2,3:0:0:0:
179,89,216674,1,2,3:0:0:0:
60,182,216855,6,0,P|54:140|55:113,1,46
156,308,217217,2,0,P|162:350|161:377,1,46
277,119,217578,6,0,B|289:203|254:203|280:294,1,172.5,4|0,0:0|0:0,0:0:0:0:
358,233,218301,1,8,0:0:0:0:
334,38,218663,1,2,3:0:0:0:
334,38,218843,1,2,3:0:0:0:
334,38,219024,2,0,P|273:23|195:45,1,115,2|0,3:0|0:0,0:0:0:0:
82,93,219566,1,0,0:0:0:0:
82,93,219747,2,0,P|129:96|153:85,1,57.5,8|0,0:0|0:0,0:0:0:0:
297,109,220109,2,0,P|249:105|225:116,1,57.5
388,98,220470,6,0,P|332:141|362:234,1,172.5,4|0,0:0|0:0,0:0:0:0:
444,271,221193,1,8,0:0:0:0:
257,125,221554,1,2,3:0:0:0:
257,125,221735,1,2,3:0:0:0:
257,125,221916,2,0,P|250:188|269:244,1,115,2|0,3:0|0:0,0:0:0:0:
167,247,222458,1,0,0:0:0:0:
167,247,222639,2,0,P|122:243|101:248,1,57.5,8|0,0:0|0:0,0:0:0:0:
246,315,223000,2,0,P|291:319|312:314,1,57.5
374,249,223362,6,0,P|398:296|396:327,1,57.5,2|0,3:0|0:0,0:0:0:0:
322,154,223723,1,0,0:0:0:0:
322,154,223904,1,0,0:0:0:0:
322,154,224084,2,0,P|309:102|318:73,1,57.5,8|0,0:0|0:0,0:0:0:0:
225,147,224446,2,0,P|233:94|252:70,1,57.5,2|0,3:0|0:0,0:0:0:0:
135,147,224807,2,0,P|145:221|110:286,1,115,2|0,3:0|0:0,0:0:0:0:
210,40,225530,2,0,P|234:87|232:118,1,57.5,8|0,0:0|0:0,0:0:0:0:
319,40,225892,2,0,P|322:92|308:120,1,57.5,2|0,3:0|0:0,0:0:0:0:
398,36,226253,6,0,P|400:103|381:160,1,115,2|0,3:0|0:0,0:0:0:0:
484,155,226795,1,0,0:0:0:0:
484,155,226976,2,0,P|459:217|419:262,1,115,8|0,0:0|0:0,0:0:0:0:
343,301,227518,1,0,0:0:0:0:
343,301,227699,2,0,P|282:296|268:297,1,57.5
242,208,228060,1,2,3:0:0:0:
196,294,228241,1,2,3:0:0:0:
205,130,228422,5,8,0:0:0:0:
338,222,228602,1,2,3:0:0:0:
144,202,228783,1,2,3:0:0:0:
144,202,228964,1,2,3:0:0:0:
144,202,229145,6,0,P|113:110|161:46,1,172.5,4|0,0:0|0:0,0:0:0:0:
205,130,229868,1,8,0:0:0:0:
29,200,230229,1,2,3:0:0:0:
29,200,230410,1,2,3:0:0:0:
29,200,230590,2,0,B|91:217|91:193|158:204,1,115,2|0,3:0|0:0,0:0:0:0:
259,359,231313,2,0,L|266:291,1,57.5,8|0,0:0|0:0,0:0:0:0:
366,199,231675,2,0,L|360:256,1,57.5
431,133,232036,6,0,P|350:113|284:164,1,172.5,2|0,3:0|0:0,0:0:0:0:
195,18,232759,2,0,P|221:69|215:125,1,115,8|2,0:0|3:0,0:0:0:0:
126,87,233301,1,2,3:0:0:0:
57,156,233482,2,0,P|31:105|37:48,1,115,2|0,3:0|0:0,0:0:0:0:
107,231,234205,2,0,P|160:229|178:233,1,57.5,8|0,0:0|0:0,0:0:0:0:
331,305,234566,2,0,P|278:307|260:303,1,57.5
99,245,234928,6,0,P|152:243|170:247,1,57.5,2|0,3:0|0:0,0:0:0:0:
323,175,235289,1,0,0:0:0:0:
323,175,235470,1,0,0:0:0:0:
323,175,235651,2,0,P|270:177|252:173,1,57.5,8|0,0:0|0:0,0:0:0:0:
201,49,236012,2,0,P|251:68|266:79,1,57.5,2|0,3:0|0:0,0:0:0:0:
117,25,236374,2,0,B|101:89|132:89|115:152,1,115,2|0,3:0|0:0,0:0:0:0:
249,283,237096,2,0,P|196:281|178:285,1,57.5,8|0,0:0|0:0,0:0:0:0:
348,329,237458,2,0,P|401:330|419:327,1,57.5
247,263,237819,6,0,P|194:261|176:265,1,57.5,2|0,3:0|0:0,0:0:0:0:
324,169,238180,1,0,0:0:0:0:
324,169,238361,1,0,0:0:0:0:
324,169,238542,2,0,P|377:171|395:167,1,57.5,8|0,0:0|0:0,0:0:0:0:
289,76,238903,2,0,P|240:95|225:106,1,57.5,2|0,3:0|0:0,0:0:0:0:
382,56,239265,2,0,B|398:120|367:120|384:183,1,115,2|0,0:0|0:0,0:0:0:0:
347,269,239807,1,0,0:0:0:0:
347,269,239988,2,0,L|285:279,1,57.5,8|0,0:0|0:0,0:0:0:0:
131,212,240349,2,0,L|187:202,1,57.5
275,87,240711,6,0,P|279:106|273:147,1,57.5,4|0,0:0|0:0,0:0:0:0:
222,66,241072,2,0,P|237:77|277:86,1,57.5
388,79,241434,2,0,B|344:79|344:79|313:85|313:85|269:86,1,115,8|0,0:0|0:0,0:0:0:0:
416,151,241976,6,0,L|412:218,1,57.5
326,320,242337,2,0,L|329:262,2,57.5
235,281,242880,2,0,L|242:140,1,115,8|0,0:0|0:0,0:0:0:0:
413,74,243602,6,0,P|409:93|415:134,1,57.5,2|0,3:0|0:0,0:0:0:0:
465,53,243963,2,0,P|450:64|410:73,1,57.5
298,66,244325,2,0,B|342:66|342:66|373:72|373:72|417:73,1,115,8|0,0:0|0:0,0:0:0:0:
272,141,244867,6,0,L|276:208,1,57.5
362,307,245228,2,0,L|359:249,2,57.5
453,268,245771,2,0,L|446:127,1,115,8|0,0:0|0:0,0:0:0:0:
270,69,246494,5,2,3:0:0:0:
270,69,246855,2,0,L|274:136,1,57.5
224,245,247217,2,0,L|220:187,2,57.5,8|0|0,0:0|0:0|0:0,0:0:0:0:
166,123,247759,1,2,3:0:0:0:
166,123,247939,2,0,P|220:105|273:126,1,115,2|0,3:0|0:0,0:0:0:0:
325,196,248482,1,0,0:0:0:0:
325,196,248662,2,0,P|270:210|219:186,1,115,8|0,0:0|0:0,0:0:0:0:
403,91,249386,5,2,3:0:0:0:
403,91,249747,2,0,L|399:158,1,57.5
454,298,250109,2,0,L|457:240,2,57.5,8|0|0,0:0|0:0|0:0,0:0:0:0:
362,333,250651,1,0,0:0:0:0:
362,333,250832,2,0,P|329:326|286:339,1,57.5
255,245,251192,1,2,3:0:0:0:
255,245,251374,1,2,3:0:0:0:
255,245,251555,2,0,P|277:173|257:112,1,115,8|0,0:0|0:0,0:0:0:0:
185,67,252096,1,0,0:0:0:0:
185,67,252277,6,0,L|256:55,1,57.5,4|0,0:0|0:0,0:0:0:0:
185,67,252639,2,0,L|173:138,1,57.5
90,171,253000,2,0,L|110:44,1,115,8|0,0:0|0:0,0:0:0:0:
22,105,253542,6,0,L|10:176,1,57.5
53,315,253904,2,0,L|62:258,2,57.5
150,325,254446,2,0,P|209:315|274:327,1,115,8|0,0:0|0:0,0:0:0:0:
332,140,255168,6,0,L|261:128,1,57.5,2|0,3:0|0:0,0:0:0:0:
332,140,255530,2,0,L|344:211,1,57.5
427,244,255891,2,0,L|407:117,1,115,8|0,0:0|0:0,0:0:0:0:
495,178,256433,6,0,L|507:249,1,57.5
471,44,256796,2,0,L|480:100,1,57.5
360,36,257157,1,0,0:0:0:0:
360,36,257337,2,0,P|321:39|288:30,1,57.5,8|0,0:0|0:0,0:0:0:0:
178,129,257699,2,0,P|217:126|250:135,1,57.5
337,120,258060,6,0,B|346:200|308:200|333:296,1,172.5,2|0,3:0|0:0,0:0:0:0:
275,362,258783,1,8,0:0:0:0:
223,287,258964,1,0,0:0:0:0:
223,287,259145,2,0,P|285:272|338:295,1,115
131,241,259687,2,0,P|153:210|181:189,1,57.5
60,132,260048,1,0,0:0:0:0:
60,132,260229,2,0,P|92:112|126:103,1,57.5,8|0,0:0|0:0,0:0:0:0:
253,46,260590,2,0,P|224:44|196:50,1,57.5,2|0,3:0|0:0,0:0:0:0:
373,109,260952,6,0,P|346:99|318:95,1,57.5,2|0,3:0|0:0,0:0:0:0:
396,211,261313,2,0,P|371:196|344:187,1,57.5
244,162,261675,2,0,P|247:221|211:279,1,115,8|0,0:0|0:0,0:0:0:0:
159,193,262217,1,0,0:0:0:0:
221,269,262398,2,0,P|277:261|306:272,2,57.5,2|0|2,0:0|0:0|3:0,0:0:0:0:
270,352,262940,1,2,3:0:0:0:
270,352,263120,2,0,P|344:326|365:282,1,115
474,158,263843,6,0,P|412:233|365:148,1,230,4|2,0:0|0:0,0:0:0:0:
365,148,265289,2,0,P|342:70|260:149,1,230,2|2,0:0|0:0,0:0:0:0:
255,137,266735,6,0,P|232:215|150:136,1,230,2|2,0:0|0:0,0:0:0:0:
145,147,268181,2,0,P|82:71|35:157,1,230,2|2,0:0|0:0,0:0:0:0:
256,192,269626,12,0,275409,0:0:0:0:
