osu file format v14

[General]
AudioFilename: audio.mp3
AudioLeadIn: 0
PreviewTime: 8614
Countdown: 0
SampleSet: Soft
StackLeniency: 0.2
Mode: 0
LetterboxInBreaks: 0
WidescreenStoryboard: 1

[Editor]
DistanceSpacing: 1.1
BeatDivisor: 4
GridSize: 16
TimelineZoom: 2.599999

[Metadata]
Title:FIRE
TitleUnicode:불타오르네
Artist:BTS
ArtistUnicode:방탄소년단
Creator:sukiNathan
Version:Normal
Source:
Tags:bangtan boys kpop 420 bultaoreuene k-pop moombah moombahcore moombahton aerous appleeaterx
BeatmapID:1059128
BeatmapSetID:479385

[Difficulty]
HPDrainRate:4
CircleSize:3.5
OverallDifficulty:4
ApproachRate:5.5
SliderMultiplier:2
SliderTickRate:1

[Events]
//Background and Video events
0,0,"fire.jpg",0,0
Video,0,"bultaoreune.avi"
//Break Periods
//Storyboard Layer 0 (Background)
//Storyboard Layer 1 (Fail)
//Storyboard Layer 2 (Pass)
//Storyboard Layer 3 (Foreground)
//Storyboard Sound Samples

[TimingPoints]
64,600,4,2,1,60,1,0
64,-100,4,2,1,60,0,0
1114,-100,4,2,1,60,0,0
2464,-100,4,2,1,60,0,0
3514,-100,4,2,1,60,0,0
4864,-100,4,2,1,60,0,0
6064,-100,4,2,1,60,0,0
7264,-100,4,2,1,60,0,0
9664,-100,4,2,1,60,0,1
9964,-100,4,2,1,60,0,1
10264,-100,4,2,1,60,0,1
10564,-100,4,2,1,60,0,1
11464,-100,4,2,1,60,0,1
11764,-100,4,2,1,60,0,1
11864,-100,4,2,1,60,0,1
12064,-100,4,2,1,60,0,1
12664,-100,4,2,1,60,0,1
12964,-100,4,2,1,60,0,1
13864,-100,4,2,1,60,0,1
14164,-100,4,2,1,60,0,1
14464,-100,4,2,1,60,0,1
15064,-100,4,2,1,60,0,1
15364,-100,4,2,1,60,0,1
16264,-100,4,2,1,60,0,1
16564,-100,4,2,1,60,0,1
16864,-100,4,2,1,60,0,0
18664,-100,4,2,1,60,0,0
19264,-100,4,2,1,60,0,1
19864,-100,4,2,1,60,0,1
20164,-100,4,2,1,60,0,1
21064,-100,4,2,1,60,0,1
21364,-100,4,2,1,60,0,1
21664,-100,4,2,1,60,0,1
22264,-100,4,2,1,60,0,1
22564,-100,4,2,1,60,0,1
23464,-100,4,2,1,60,0,1
23764,-100,4,2,1,60,0,1
24064,-100,4,2,1,60,0,1
24364,-100,4,2,1,60,0,1
24664,-100,4,2,1,60,0,1
24964,-100,4,2,1,60,0,1
25864,-100,4,2,1,60,0,1
26164,-100,4,2,1,60,0,1
26464,-100,4,2,1,60,0,0
28864,-100,4,2,1,60,0,0
38464,-100,4,2,1,60,0,0
45664,-100,4,2,1,60,0,0
48064,-100,4,2,2,60,0,0
48964,-100,4,2,2,60,0,0
49864,-100,4,2,2,60,0,0
50764,-100,4,2,2,60,0,0
52264,-100,4,2,2,60,0,0
53764,-100,4,2,2,60,0,0
54664,-100,4,2,2,60,0,0
55864,-100,4,2,2,60,0,0
56764,-100,4,2,2,60,0,0
58864,-100,4,2,2,60,0,0
59464,-100,4,2,2,60,0,0
59764,-100,4,2,2,60,0,0
60064,-100,4,2,2,60,0,0
61264,-100,4,2,2,60,0,0
61864,-100,4,2,2,60,0,0
62164,-100,4,2,2,60,0,0
62464,-100,4,2,2,60,0,0
63664,-100,4,2,2,60,0,0
64864,-100,4,2,2,40,0,0
65839,-100,4,2,2,30,0,0
67264,-100,4,2,1,60,0,1
67864,-100,4,2,1,60,0,1
68164,-100,4,2,1,60,0,1
69064,-100,4,2,1,60,0,1
69364,-100,4,2,1,60,0,1
70264,-100,4,2,1,60,0,1
70564,-100,4,2,1,60,0,1
71164,-100,4,2,1,60,0,1
72664,-100,4,2,1,60,0,1
72964,-100,4,2,1,60,0,1
73864,-100,4,2,1,60,0,1
74164,-100,4,2,1,60,0,1
74464,-100,4,2,1,60,0,0
75964,-100,4,2,1,60,0,0
76864,-100,4,2,1,60,0,1
77464,-100,4,2,1,60,0,1
77764,-100,4,2,1,60,0,1
78664,-100,4,2,1,60,0,1
78964,-100,4,2,1,60,0,1
79864,-100,4,2,1,60,0,1
80464,-100,4,2,1,60,0,1
80764,-100,4,2,1,60,0,1
82264,-100,4,2,1,60,0,1
82564,-100,4,2,1,60,0,1
83464,-100,4,2,1,60,0,1
83764,-100,4,2,1,60,0,1
84064,-100,4,2,1,60,0,0
86464,-100,4,2,1,60,0,0
95164,-100,4,2,1,60,0,0
96064,-100,4,2,1,60,0,0
97264,-100,4,2,1,60,0,0
97864,-100,4,2,1,60,0,0
98464,-100,4,2,1,60,0,0
99664,-100,4,2,1,60,0,0
100264,-100,4,2,1,60,0,0
100864,-100,4,2,1,60,0,0
102064,-100,4,2,1,60,0,0
102964,-100,4,2,1,60,0,0
105664,-100,4,2,2,60,0,0
106564,-100,4,2,2,60,0,0
107464,-100,4,2,2,60,0,0
108364,-100,4,2,2,60,0,0
110464,-100,4,2,2,60,0,0
111364,-100,4,2,2,60,0,0
112264,-100,4,2,2,60,0,0
113164,-100,4,2,2,60,0,0
114364,-100,4,2,2,60,0,0
116464,-100,4,2,2,60,0,0
116914,-100,4,2,2,60,0,0
117364,-100,4,2,2,60,0,0
117664,-100,4,2,2,60,0,0
118864,-100,4,2,2,60,0,0
119464,-100,4,2,2,60,0,0
119764,-100,4,2,2,60,0,0
120064,-100,4,2,2,60,0,0
121264,-100,4,2,2,60,0,0
122464,-100,4,2,2,40,0,0
123439,-100,4,2,2,30,0,0
124864,-100,4,2,1,60,0,1
125464,-100,4,2,1,60,0,1
125764,-100,4,2,1,60,0,1
126664,-100,4,2,1,60,0,1
126964,-100,4,2,1,60,0,1
127864,-100,4,2,1,60,0,1
128164,-100,4,2,1,60,0,1
128764,-100,4,2,1,60,0,1
130564,-100,4,2,1,60,0,1
131464,-100,4,2,1,60,0,1
131764,-100,4,2,1,60,0,1
132064,-100,4,2,1,60,0,0
133564,-100,4,2,1,60,0,0
134464,-100,4,2,1,60,0,1
135064,-100,4,2,1,60,0,1
135364,-100,4,2,1,60,0,1
136264,-100,4,2,1,60,0,1
136564,-100,4,2,1,60,0,1
137464,-100,4,2,1,60,0,1
138064,-100,4,2,1,60,0,1
138364,-100,4,2,1,60,0,1
139864,-100,4,2,1,60,0,1
140164,-100,4,2,1,60,0,1
141064,-100,4,2,1,60,0,1
141364,-100,4,2,1,60,0,1
141664,-100,4,2,1,60,0,0
144064,-100,4,2,1,60,0,0
153664,-100,4,2,2,60,0,0
160864,-100,4,2,2,40,0,0
161839,-100,4,2,2,30,0,0
163264,-100,4,2,2,70,0,1
163564,-100,4,2,2,70,0,1
163864,-100,4,2,2,70,0,1
164164,-100,4,2,2,70,0,1
164464,-100,4,2,2,70,0,1
164764,-100,4,2,2,70,0,1
165064,-100,4,2,2,70,0,1
165364,-100,4,2,2,70,0,1
165664,-100,4,2,2,70,0,1
165964,-100,4,2,2,70,0,1
166264,-100,4,2,2,70,0,1
166564,-100,4,2,2,70,0,1
166864,-100,4,2,2,70,0,1
167164,-100,4,2,2,70,0,1
167464,-100,4,2,2,70,0,1
167764,-100,4,2,2,70,0,1
168364,-100,4,2,2,70,0,1
168664,-100,4,2,2,70,0,1
168964,-100,4,2,2,70,0,1
169264,-100,4,2,2,70,0,1
169564,-100,4,2,2,70,0,1
169864,-100,4,2,2,70,0,1
170464,-100,4,2,2,60,0,0
171964,-100,4,2,2,60,0,0
172864,-100,4,2,2,70,0,1
173164,-100,4,2,2,70,0,1
173464,-100,4,2,2,70,0,1
173764,-100,4,2,2,70,0,1
174064,-100,4,2,2,70,0,1
174364,-100,4,2,2,70,0,1
174664,-100,4,2,2,70,0,1
174964,-100,4,2,2,70,0,1
175264,-100,4,2,2,70,0,1
175564,-100,4,2,2,70,0,1
175864,-100,4,2,2,70,0,1
176164,-100,4,2,2,70,0,1
176464,-100,4,2,2,70,0,1
176764,-100,4,2,2,70,0,1
177064,-100,4,2,2,70,0,1
177364,-100,4,2,2,70,0,1
177964,-100,4,2,2,70,0,1
178264,-100,4,2,2,70,0,1
178564,-100,4,2,2,70,0,1
178864,-100,4,2,2,70,0,1
179164,-100,4,2,2,70,0,1
179464,-100,4,2,2,70,0,1
180064,-100,4,2,2,60,0,0
181564,-100,4,2,2,60,0,0
182464,-100,4,2,2,70,0,1
182764,-100,4,2,2,70,0,1
183064,-100,4,2,2,70,0,1
183364,-100,4,2,2,70,0,1
183664,-100,4,2,2,70,0,1
183964,-100,4,2,2,70,0,1
184264,-100,4,2,2,70,0,1
184564,-100,4,2,2,70,0,1
184864,-100,4,2,2,70,0,1
185164,-100,4,2,2,70,0,1
185464,-100,4,2,2,70,0,1
185764,-100,4,2,2,70,0,1
186064,-100,4,2,2,70,0,1
186364,-100,4,2,2,70,0,1
186664,-100,4,2,2,70,0,1
186964,-100,4,2,2,70,0,1
187564,-100,4,2,2,70,0,1
187864,-100,4,2,2,70,0,1
188164,-100,4,2,2,70,0,1
188464,-100,4,2,2,70,0,1
188764,-100,4,2,2,70,0,1
189064,-100,4,2,2,70,0,1
189664,-100,4,2,2,60,0,0
191164,-100,4,2,2,60,0,0
192064,-100,4,2,2,70,0,1
192364,-100,4,2,2,70,0,1
192664,-100,4,2,2,70,0,1
192964,-100,4,2,2,70,0,1
193264,-100,4,2,2,70,0,1
193564,-100,4,2,2,70,0,1
193864,-100,4,2,2,70,0,1
194164,-100,4,2,2,70,0,1
194464,-100,4,2,2,70,0,1
194764,-100,4,2,2,70,0,1
195064,-100,4,2,2,70,0,1
195364,-100,4,2,2,70,0,1
195664,-100,4,2,2,70,0,1
195964,-100,4,2,2,70,0,1
196264,-100,4,2,2,70,0,1
196564,-100,4,2,2,70,0,1
197164,-100,4,2,2,70,0,1
197464,-100,4,2,2,70,0,1
197764,-100,4,2,2,70,0,1
198064,-100,4,2,2,70,0,1
198364,-100,4,2,2,70,0,1
198664,-100,4,2,2,70,0,1
199264,-100,4,2,2,60,0,0
200764,-100,4,2,2,60,0,0

[Colours]
Combo1 : 248,63,1
Combo2 : 3,131,199
Combo3 : 165,22,250
Combo4 : 249,0,0
Combo5 : 220,189,12
Combo6 : 174,174,174

[HitObjects]
7,254,64,70,0,P|71:241|150:269,1,150,2|0,1:0|1:0,0:0:0:0:
191,303,664,1,0,1:0:0:0:
183,138,1114,2,0,L|175:4,2,100,0|0|0,1:0|1:0|0:0,0:0:0:0:
189,192,1864,1,0,1:0:0:0:
288,239,2164,1,0,1:0:0:0:
359,155,2464,38,0,B|395:195|395:195|384:323,1,150,2|0,1:0|1:0,0:0:0:0:
381,345,3064,1,0,1:0:0:0:
220,307,3514,2,0,P|171:297|122:307,2,100,0|0|0,1:0|1:0|1:0,0:0:0:0:
266,336,4264,1,0,1:0:0:0:
480,287,4864,38,0,L|475:125,1,150,2|2,1:0|1:2,0:0:0:0:
467,82,5464,1,0,1:0:0:0:
308,128,5914,2,0,L|311:10,2,100,0|0|2,1:0|1:0|1:2,0:0:0:0:
303,182,6664,1,2,1:2:0:0:
207,127,6964,1,0,1:0:0:0:
199,236,7264,38,0,P|128:257|60:230,1,150,2|2,1:0|1:2,0:0:0:0:
46,177,7864,2,0,B|38:129|38:129|63:69,1,100,0|2,0:0|0:0,0:0:0:0:
91,37,8314,1,0,1:0:0:0:
452,61,9664,54,0,L|443:189,1,100,4|2,3:2|0:1,0:0:0:0:
423,268,10264,2,0,L|363:275,1,50,8|0,0:0|0:0,0:0:0:0:
318,271,10564,2,0,B|265:264|265:264|230:285|230:285|149:278,1,150,0|0,3:0|0:0,0:0:0:0:
119,277,11164,1,0,3:0:0:0:
16,237,11464,2,0,P|8:272|14:305,2,50,8|0|2,0:0|3:0|0:0,0:0:0:0:
50,132,12064,37,0,3:0:0:0:
202,194,12514,1,0,3:0:0:0:
174,241,12664,2,0,P|170:268|176:304,1,50,8|0,0:0|0:0,0:0:0:0:
226,306,12964,2,0,B|338:275|304:371|445:341,1,200,0|2,3:0|3:2,0:0:0:0:
392,237,13864,2,0,L|389:169,1,50,8|0,0:0|3:0,0:0:0:0:
386,132,14164,1,2,0:0:0:0:
291,188,14464,38,0,L|171:179,1,100,4|2,3:2|0:1,0:0:0:0:
140,278,15064,2,0,L|90:273,1,50,8|0,0:0|0:0,0:0:0:0:
35,269,15364,2,0,P|-2:199|41:117,1,150,0|0,3:0|0:0,0:0:0:0:
69,112,15964,1,0,3:0:0:0:
171,72,16264,2,0,P|176:96|176:121,1,50,8|0,0:0|3:0,0:0:0:0:
173,176,16564,1,2,0:0:0:0:
182,278,16864,53,2,3:2:0:0:
291,277,17164,2,0,L|384:272,2,50,2|2|10,0:2|3:2|0:0,0:0:0:0:
251,173,17764,2,0,L|344:168,2,50,2|2|2,3:2|0:0|0:0,0:0:0:0:
141,184,18364,1,2,3:2:0:0:
98,285,18664,2,0,L|5:290,2,50,8|0|0,3:2|0:0|3:0,0:0:0:0:
182,355,19264,70,0,B|198:305|198:305|180:261,1,100,4|2,3:2|0:1,0:0:0:0:
98,187,19864,2,0,P|92:140|92:117,1,50,8|0,0:0|0:0,0:0:0:0:
110,84,20164,2,0,P|181:49|261:86,1,150,0|0,3:0|0:0,0:0:0:0:
264,121,20764,1,0,3:0:0:0:
361,171,21064,2,0,L|435:161,2,50,8|0|2,0:0|3:0|0:0,0:0:0:0:
278,243,21664,37,0,3:0:0:0:
134,161,22114,1,0,3:0:0:0:
96,201,22264,2,0,P|89:226|93:263,1,50,8|0,0:0|0:0,0:0:0:0:
83,305,22564,2,0,B|136:299|136:299|174:322|174:322|219:310|219:310|284:342,1,200,0|0,3:0|0:0,0:0:0:0:
371,374,23464,2,0,P|376:331|372:304,1,50,8|0,3:2|3:0,0:0:0:0:
359,271,23764,1,0,0:0:0:0:
262,218,24064,38,0,P|251:169|262:121,1,100,4|2,3:2|0:1,0:0:0:0:
340,42,24664,2,0,P|316:36|284:41,1,50,8|0,0:0|0:0,0:0:0:0:
236,42,24964,2,0,L|78:33,1,150,0|0,3:0|0:0,0:0:0:0:
31,30,25564,1,0,3:0:0:0:
46,138,25864,2,0,L|50:187,1,50,8|0,0:0|3:0,0:0:0:0:
58,242,26164,1,2,0:0:0:0:
70,346,26464,5,2,3:1:0:0:
172,307,26764,2,0,P|178:348|175:373,2,50,2|2|10,1:0|3:1|1:0,0:0:0:0:
168,197,27364,2,0,P|168:172|173:147,1,50,2|2,3:1|0:1,0:0:0:0:
226,131,27664,1,2,1:0:0:0:
320,167,27964,2,0,P|321:218|312:267,2,100,2|2|2,1:0|1:0|1:0,0:0:0:0:
369,68,28864,6,0,L|457:57,2,50,2|0|0,3:1|0:0|0:0,0:0:0:0:
262,40,29464,2,0,L|185:34,1,50,8|0,0:0|0:0,0:0:0:0:
157,28,29764,1,0,3:0:0:0:
44,216,30364,1,0,3:0:0:0:
140,162,30664,2,0,P|151:219|140:249,1,50,8|0,0:0|0:0,0:0:0:0:
144,264,30964,1,0,0:0:0:0:
74,349,31264,22,0,B|114:335|114:335|144:349|176:335|176:335|249:368,1,150,2|0,3:1|3:0,0:0:0:0:
269,364,31864,2,0,P|280:307|269:277,1,50,8|0,0:0|0:0,0:0:0:0:
273,262,32164,1,0,3:0:0:0:
255,153,32464,1,0,0:0:0:0:
357,191,32764,2,0,L|498:179,2,100,0|8|0,0:0|0:0|0:0,0:0:0:0:
337,82,33664,54,0,L|343:14,2,50,2|0|0,3:1|0:0|0:0,0:0:0:0:
255,153,34264,2,0,L|259:202,1,50,8|0,0:0|0:0,0:0:0:0:
265,257,34564,1,0,3:0:0:0:
56,327,35164,2,0,P|50:288|55:267,1,50,0|0,3:0|0:0,0:0:0:0:
72,227,35464,1,8,0:0:0:0:
102,121,35764,1,0,0:0:0:0:
18,49,36064,21,0,3:0:0:0:
122,15,36364,2,0,P|161:9|182:14,1,50,0|0,0:0|0:0,0:0:0:0:
223,31,36664,1,8,0:0:0:0:
209,140,36964,1,0,3:0:0:0:
309,95,37264,2,0,P|334:136|313:228,1,100,0|0,0:0|0:0,0:0:0:0:
239,241,37864,2,0,P|214:282|235:374,1,100,8|0,0:0|0:0,0:0:0:0:
309,367,38464,6,0,L|370:361,1,50,2|0,3:1|0:0,0:0:0:0:
413,357,38764,1,0,0:0:0:0:
472,264,39064,1,8,0:0:0:0:
392,188,39364,2,0,L|453:182,1,50,0|0,3:0|0:0,0:0:0:0:
496,177,39664,1,0,0:0:0:0:
445,79,39964,1,0,3:0:0:0:
343,36,40264,2,0,B|295:21|295:21|227:43,1,100,8|0,0:0|0:0,0:0:0:0:
184,126,40864,70,0,L|181:198,1,50,0|0,3:0|0:0,0:0:0:0:
180,230,41164,1,0,0:0:0:0:
197,338,41464,1,8,0:0:0:0:
106,275,41764,2,0,L|103:347,1,50,0|0,3:0|0:0,0:0:0:0:
102,379,42064,1,0,0:0:0:0:
13,313,42364,2,0,L|16:183,1,100,0|8,0:0|0:0,0:0:0:0:
38,105,42964,2,0,P|79:95|123:102,1,50
140,107,43264,6,0,B|188:120|188:120|248:102,1,100,2|0,3:1|0:0,0:0:0:0:
283,204,43864,2,0,P|242:194|198:201,1,50,8|0,0:0|0:0,0:0:0:0:
182,213,44164,1,0,3:0:0:0:
240,306,44464,2,0,B|288:319|288:319|348:301,1,100,0|0,0:0|3:0,0:0:0:0:
421,234,45064,2,0,L|423:162,1,50,8|0,0:0|0:0,0:0:0:0:
423,128,45364,1,0,0:0:0:0:
417,23,45664,6,0,B|387:33|356:29|356:29|330:47|330:47|301:35|257:51,2,150,4|4|4,3:2|3:2|3:2,0:0:0:0:
497,98,46864,1,0,0:0:0:0:
411,166,47164,2,0,P|404:213|403:228,1,50,0|0,1:0|1:0,0:0:0:0:
397,270,47464,2,0,P|368:312|240:296,1,150,0|0,1:0|1:0,0:0:0:0:
228,294,48064,6,0,L|88:302,1,100,14|8,3:2|0:0,0:0:0:0:
39,234,48664,1,8,0:0:0:0:
103,144,48964,2,0,L|3:149,2,100,8|8|8,0:0|0:0|0:0,0:0:0:0:
208,113,49864,2,0,P|211:86|212:36,1,50,8|0,0:0|0:0,0:0:0:0:
210,8,50164,1,8,0:0:0:0:
318,23,50464,6,0,P|315:98|304:166,1,100,10|8,0:0|0:0,0:0:0:0:
252,216,51064,2,0,P|249:243|248:293,2,50,8|0|8,0:0|0:0|0:0,0:0:0:0:
361,226,51664,2,0,P|358:301|347:369,1,100,8|8,0:0|0:0,0:0:0:0:
314,362,52114,1,0,0:0:0:0:
259,358,52264,2,0,B|212:345|212:345|161:355,1,100,8|8,0:0|0:0,0:0:0:0:
67,298,52864,70,0,L|59:179,1,100,10|8,0:0|0:0,0:0:0:0:
160,151,53464,1,8,0:0:0:0:
254,100,53764,2,0,L|260:0,2,100,8|8|8,0:0|0:0|0:0,0:0:0:0:
248,210,54664,2,0,P|293:215|319:209,1,50,8|0,0:0|0:0,0:0:0:0:
348,193,54964,1,8,0:0:0:0:
320,299,55264,6,0,P|263:302|211:291,1,100,10|8,0:0|0:0,0:0:0:0:
140,219,55864,2,0,P|115:218|90:223,2,50,8|0|8,0:0|0:0|0:0,0:0:0:0:
161,111,56464,2,0,P|111:107|62:115,1,100,8|10,0:0|0:0,0:0:0:0:
86,8,57064,2,0,B|113:2|113:2|135:5,1,50,8|0,0:0|0:0,0:0:0:0:
188,18,57364,1,10,0:0:0:0:
287,64,57664,6,0,B|335:72|335:72|399:59,1,100,14|8,3:2|0:0,0:0:0:0:
439,49,58114,2,0,L|442:-1,2,50,0|8|0,1:0|1:2|0:0,0:0:0:0:
485,77,58564,1,8,0:0:0:0:
415,162,58864,2,0,P|392:240|397:304,1,100,8|8,0:0|0:0,0:0:0:0:
377,311,59314,2,0,P|299:334|235:329,1,100,0|0,1:0|2:2,0:0:0:0:
240,297,59764,1,8,0:0:0:0:
139,342,60064,70,0,B|123:298|123:298|153:219,1,100,8|8,1:2|0:0,0:0:0:0:
133,193,60514,2,0,P|108:188|83:186,2,50,0|8|0,1:0|1:2|0:0,0:0:0:0:
165,148,60964,1,8,0:0:0:0:
268,186,61264,2,0,P|268:122|239:64,1,100,8|8,0:0|0:0,0:0:0:0:
240,35,61714,2,0,L|374:33,1,100,0|0,1:0|2:0,0:0:0:0:
394,30,62164,1,8,0:0:0:0:
378,138,62464,6,0,L|373:264,1,100,8|8,3:2|3:2,0:0:0:0:
358,346,63064,1,8,3:2:0:0:
275,273,63364,2,0,P|250:272|225:277,1,50,8|0,3:2|1:0,0:0:0:0:
172,293,63664,2,0,P|87:302|32:290,1,100,8|8,3:2|3:2,0:0:0:0:
1,216,64264,1,8,3:2:0:0:
104,179,64564,2,0,P|105:131|102:100,1,50,8|0,3:2|0:0,0:0:0:0:
88,76,64864,5,8,3:2:0:0:
187,123,65164,1,8,3:2:0:0:
271,52,65464,1,8,3:2:0:0:
366,106,65764,2,0,L|483:97,1,100,0|0,3:0|0:0,0:0:0:0:
419,337,67264,22,0,B|373:358|373:358|284:347,1,100,6|2,3:2|0:1,0:0:0:0:
258,262,67864,2,0,P|221:261|198:268,1,50,8|0,0:0|0:0,0:0:0:0:
154,274,68164,2,0,B|114:246|114:246|139:143,1,150,0|0,3:0|0:0,0:0:0:0:
159,97,68764,1,0,3:0:0:0:
245,164,69064,2,0,P|269:168|294:165,1,50,8|0,0:0|3:0,0:0:0:0:
346,148,69364,2,0,P|370:143|395:146,1,50,2|0,0:0|0:0,0:0:0:0:
444,171,69664,37,0,3:0:0:0:
403,330,70114,1,0,3:0:0:0:
349,319,70264,2,0,L|294:318,1,50,8|0,0:0|0:0,0:0:0:0:
244,311,70564,2,0,B|213:301|213:301|174:311|174:311|140:294|140:294|102:304,1,150,0|0,3:0|0:0,0:0:0:0:
52,326,71164,1,2,0:0:0:0:
18,221,71464,2,0,B|15:197|15:197|23:171,1,50,10|0,3:2|3:0,0:0:0:0:
49,124,71764,2,0,B|52:100|52:100|43:74,1,50,2|0,3:2|0:0,0:0:0:0:
21,25,72064,37,4,3:2:0:0:
125,59,72364,2,0,P|168:60|199:50,1,50,2|0,0:1|0:0,0:0:0:0:
227,43,72664,1,8,0:0:0:0:
329,3,72964,2,0,B|360:92|294:58|337:193,1,150,0|0,3:0|0:0,0:0:0:0:
332,204,73564,1,0,3:0:0:0:
440,223,73864,2,0,P|442:247|439:272,1,50,10|0,0:0|3:0,0:0:0:0:
438,327,74164,2,0,P|413:329|388:326,1,50,2|0,0:0|0:0,0:0:0:0:
334,312,74464,6,0,B|288:315|255:283|255:283|219:285|188:305,1,150,0|2,3:0|3:2,0:0:0:0:
147,327,75064,1,10,1:2:0:0:
43,364,75364,2,0,B|17:318|17:318|50:215,1,150,2|2,3:2|0:0,0:0:0:0:
74,177,75964,1,2,3:2:0:0:
38,72,76264,2,0,B|70:65|70:65|103:71,1,50,10|0,0:0|3:0,0:0:0:0:
140,81,76564,2,0,B|172:88|172:88|205:82,1,50,2|0,3:2|0:0,0:0:0:0:
243,77,76864,70,0,L|252:188,1,100,4|2,3:2|0:1,0:0:0:0:
339,242,77464,2,0,L|342:192,1,50,8|0,0:0|0:0,0:0:0:0:
364,141,77764,2,0,P|449:151|479:233,1,150,0|0,3:0|0:0,0:0:0:0:
472,256,78364,1,0,3:0:0:0:
386,325,78664,2,0,P|350:332|303:330,1,50,8|0,0:0|3:0,0:0:0:0:
283,318,78964,2,0,P|247:311|200:313,1,50,2|0,0:0|0:0,0:0:0:0:
179,319,79264,37,0,3:0:0:0:
57,207,79714,1,0,0:0:0:0:
77,156,79864,2,0,L|84:93,1,50,8|0,0:0|0:0,0:0:0:0:
110,58,80164,2,0,B|169:50|169:50|196:75|196:75|274:93,1,150,0|0,3:0|0:0,0:0:0:0:
303,93,80764,1,2,0:0:0:0:
411,72,81064,2,0,B|416:96|416:96|411:121,1,50,8|0,3:2|3:0,0:0:0:0:
400,174,81364,2,0,B|395:198|395:198|400:223,1,50,2|0,3:2|0:0,0:0:0:0:
411,276,81664,37,4,3:2:0:0:
301,261,81964,2,0,P|262:256|243:260,1,50,2|0,0:1|0:0,0:0:0:0:
199,275,82264,1,8,0:0:0:0:
109,338,82564,2,0,P|85:272|145:181,1,150,0|0,3:0|0:0,0:0:0:0:
165,180,83164,1,0,3:0:0:0:
135,73,83464,2,0,P|159:67|184:69,1,50,10|0,0:0|0:0,0:0:0:0:
239,69,83764,2,0,P|244:93|242:118,1,50,2|0,0:0|0:0,0:0:0:0:
255,171,84064,6,0,B|281:207|318:221|318:221|353:207|375:182,1,150,2|2,3:1|3:1,0:0:0:0:
397,133,84664,1,10,1:2:0:0:
499,172,84964,2,0,L|489:332,1,150,2|2,3:1|1:1,0:0:0:0:
483,376,85564,1,2,1:1:0:0:
397,307,85864,2,0,L|339:316,1,50,2|0,1:1|0:0,0:0:0:0:
292,311,86164,2,0,L|234:302,1,50,2|0,1:1|1:0,0:0:0:0:
188,293,86464,5,2,0:1:0:0:
89,96,87064,1,2,0:0:0:0:
186,147,87364,2,0,P|210:148|235:145,1,50,2|0,0:0|0:0,0:0:0:0:
288,129,87664,1,2,0:0:0:0:
275,238,87964,2,0,P|299:239|324:236,1,50,2|0,0:0|0:0,0:0:0:0:
377,220,88264,1,2,0:0:0:0:
464,286,88564,2,0,P|466:261|465:236,1,50,2|0,0:0|0:0,0:0:0:0:
456,182,88864,22,0,B|444:134|444:134|462:37,1,100,2|2,0:1|0:0,0:0:0:0:
468,31,89314,1,0,0:0:0:0:
416,11,89464,2,0,L|286:19,1,100,2|2,0:0|0:0,0:0:0:0:
225,79,90064,2,0,P|167:111|190:218,1,150,2|0,0:0|0:0,0:0:0:0:
199,229,90664,2,0,P|270:227|308:166,1,150,2|0,0:0|0:0,0:0:0:0:
317,111,91264,53,2,0:1:0:0:
399,183,91564,1,0,1:0:0:0:
353,283,91864,1,2,0:0:0:0:
251,325,92164,2,0,L|178:324,1,50,2|0,0:0|0:0,0:0:0:0:
145,321,92464,1,2,0:0:0:0:
177,215,92764,2,0,B|154:208|154:208|128:212,1,50,2|0,1:2|0:0,0:0:0:0:
74,223,93064,1,2,0:0:0:0:
48,116,93364,2,0,L|52:55,1,50,2|0,0:0|1:0,0:0:0:0:
87,24,93664,22,0,P|153:15|216:60,1,100,2|0,0:0|1:0,0:0:0:0:
232,51,94114,1,0,0:0:0:0:
285,38,94264,2,0,B|337:38|320:68|386:71,2,100,2|2|2,0:0|0:0|0:0,0:0:0:0:
225,130,95164,2,0,L|228:179,1,50,2|0,0:0|0:0,0:0:0:0:
231,234,95464,2,0,L|220:354,1,100,2|0,0:0|1:0,0:0:0:0:
315,276,96064,6,0,P|359:255|409:261,1,100,0|0,3:0|0:0,0:0:0:0:
458,284,96514,1,0,0:0:0:0:
499,247,96664,2,0,B|513:202|513:202|494:136,1,100,8|0,0:0|3:0,0:0:0:0:
420,73,97264,1,0,0:0:0:0:
324,127,97564,2,0,P|283:128|244:111,1,50,0|0,3:0|0:0,0:0:0:0:
221,112,97864,2,0,L|214:292,1,150,8|0,0:0|0:0,0:0:0:0:
214,316,98464,69,2,3:1:0:0:
109,350,98764,2,0,L|114:260,1,50,0|0,0:0|3:0,0:0:0:0:
114,245,99064,2,0,L|119:124,1,100,8|0,0:0|3:0,0:0:0:0:
126,35,99664,1,0,0:0:0:0:
219,93,99964,2,0,B|243:100|243:100|267:95,1,50,0|0,3:0|0:0,0:0:0:0:
318,79,100264,2,0,P|349:139|334:241,1,150,8|0,0:0|0:0,0:0:0:0:
321,269,100864,5,2,3:1:0:0:
217,305,101164,2,0,P|209:278|210:250,1,50,0|0,0:0|0:0,0:0:0:0:
205,201,101464,2,0,P|228:193|253:192,2,50,8|0|0,0:0|0:0|3:0,0:0:0:0:
97,179,102064,2,0,P|51:182|-14:162,2,100,0|0|8,0:0|3:0|0:0,0:0:0:0:
159,88,102964,1,2,0:0:0:0:
258,132,103264,70,0,P|407:171|268:238,1,400,2|0,0:0|0:0,0:0:0:0:
81,129,105664,38,0,L|65:268,1,100,14|8,3:2|0:0,0:0:0:0:
129,321,106264,1,8,0:0:0:0:
228,273,106564,2,0,L|238:372,2,100,8|8|8,0:0|0:0|0:0,0:0:0:0:
257,166,107464,2,0,P|284:164|334:166,1,50,8|0,0:0|0:0,0:0:0:0:
362,164,107764,1,8,0:0:0:0:
356,54,108064,6,0,P|280:53|212:60,1,100,10|8,0:0|0:0,0:0:0:0:
173,127,108664,2,0,P|145:128|95:126,2,50,8|0|8,0:0|0:0|0:0,0:0:0:0:
154,18,109264,2,0,P|78:17|10:24,1,100,8|8,0:0|0:0,0:0:0:0:
17,58,109714,1,0,0:0:0:0:
16,112,109864,2,0,B|5:159|5:159|18:210,1,100,8|8,0:0|0:0,0:0:0:0:
77,302,110464,70,0,L|195:316,1,100,10|8,0:0|0:0,0:0:0:0:
218,212,111064,1,8,0:0:0:0:
303,143,111364,2,0,L|421:157,2,100,8|8|8,0:0|0:0|0:0,0:0:0:0:
199,114,112264,2,0,P|196:68|203:43,1,50,8|0,0:0|0:0,0:0:0:0:
202,9,112564,1,8,0:0:0:0:
94,32,112864,6,0,P|88:88|96:141,1,100,10|8,0:0|0:0,0:0:0:0:
152,221,113464,2,0,P|151:246|145:270,2,50,8|0|8,0:0|0:0|0:0,0:0:0:0:
261,206,114064,2,0,P|262:256|251:304,1,100,8|10,0:0|0:0,0:0:0:0:
360,286,114664,2,0,B|388:285|388:285|423:298,1,50,8|0,0:0|0:0,0:0:0:0:
459,313,114964,1,10,0:0:0:0:
457,203,115264,6,0,L|464:78,1,100,12|8,3:2|0:0,0:0:0:0:
417,71,115714,2,0,L|414:21,2,50,0|8|0,1:0|1:2|0:0,0:0:0:0:
368,96,116164,1,8,0:0:0:0:
260,121,116464,2,0,P|206:133|141:118,1,100,8|8,0:0|0:0,0:0:0:0:
109,108,116914,2,0,L|103:230,1,100,0|0,1:0|0:0,0:0:0:0:
99,263,117364,1,8,0:0:0:0:
180,337,117664,70,0,B|228:326|228:326|300:347,1,100,8|0,0:0|0:0,0:0:0:0:
328,320,118114,2,0,P|332:293|328:270,2,50,0|8|0,1:0|1:2|0:0,0:0:0:0:
379,339,118564,1,8,0:0:0:0:
472,281,118864,2,0,B|476:148,1,100,8|8,0:0|0:0,0:0:0:0:
460,127,119314,2,0,P|411:120|350:140,1,100,0|0,1:0|0:0,0:0:0:0:
346,186,119764,1,8,0:0:0:0:
230,229,120064,6,0,L|85:218,1,100,8|8,3:2|3:2,0:0:0:0:
55,140,120664,1,8,3:2:0:0:
111,45,120964,2,0,P|153:43|181:49,1,50,8|0,3:2|0:1,0:0:0:0:
214,57,121264,2,0,B|270:68|270:68|338:49,1,100,8|8,3:2|3:2,0:0:0:0:
421,57,121864,1,8,3:2:0:0:
367,153,122164,2,0,L|371:223,1,50,8|0,3:2|0:0,0:0:0:0:
373,258,122464,5,8,3:2:0:0:
271,216,122764,1,8,3:2:0:0:
283,325,123064,1,8,3:2:0:0:
180,284,123364,2,0,P|143:275|79:293,1,100,0|0,3:0|0:0,0:0:0:0:
444,37,124864,22,0,B|462:85|462:85|444:143,1,100,4|2,3:2|0:1,0:0:0:0:
347,85,125464,2,0,L|283:92,1,50,8|0,0:0|0:0,0:0:0:0:
243,100,125764,2,0,B|238:140|258:166|258:166|244:198|244:198|256:289,1,150,0|0,3:0|0:0,0:0:0:0:
257,297,126364,1,0,3:0:0:0:
151,267,126664,2,0,P|128:262|87:263,1,50,8|0,0:0|3:0,0:0:0:0:
46,264,126964,2,0,P|41:240|42:199,1,50,2|0,0:0|0:0,0:0:0:0:
50,160,127264,37,0,3:0:0:0:
193,78,127714,1,0,3:0:0:0:
247,84,127864,2,0,L|319:77,1,50,8|0,0:0|0:0,0:0:0:0:
351,72,128164,2,0,B|378:120|378:120|356:227,1,150,0|0,3:0|0:0,0:0:0:0:
340,265,128764,1,2,0:0:0:0:
368,373,129064,2,0,B|343:377|343:377|308:371,1,50,10|0,3:2|3:0,0:0:0:0:
266,354,129364,2,0,B|241:350|241:350|206:356,1,50,2|0,3:2|0:0,0:0:0:0:
162,366,129664,37,4,3:2:0:0:
65,313,129964,2,0,P|64:279|69:227,1,50,2|0,0:1|0:0,0:0:0:0:
81,210,130264,1,8,0:0:0:0:
63,101,130564,2,0,B|137:80|130:145|230:129,1,150,0|0,3:0|0:0,0:0:0:0:
260,128,131164,1,0,3:0:0:0:
366,100,131464,2,0,P|373:148|373:187,1,50,8|0,0:0|3:0,0:0:0:0:
357,202,131764,2,0,P|350:250|350:289,1,50,2|0,0:0|0:0,0:0:0:0:
347,306,132064,6,0,B|311:293|277:295|277:295|252:324|209:329,1,150,2|2,3:2|3:2,0:0:0:0:
153,326,132664,1,10,1:2:0:0:
190,222,132964,2,0,B|195:172|195:172|179:133|179:133|188:67,1,150,2|2,3:2|0:0,0:0:0:0:
197,22,133564,1,2,3:0:0:0:
276,97,133864,2,0,L|357:87,1,50,10|0,3:2|3:0,0:0:0:0:
380,91,134164,2,0,L|461:101,1,50,2|0,3:2|0:0,0:0:0:0:
483,107,134464,70,0,P|490:146|472:216,1,100,4|2,3:2|0:1,0:0:0:0:
403,285,135064,2,0,P|399:252|406:222,1,50,8|0,0:0|0:0,0:0:0:0:
389,181,135364,2,0,B|344:177|344:177|294:197|294:197|227:187,1,150,0|0,3:0|0:0,0:0:0:0:
189,179,135964,1,0,3:0:0:0:
87,135,136264,2,0,P|83:184|93:215,1,50,8|0,0:0|3:0,0:0:0:0:
101,236,136564,2,0,P|105:285|95:316,1,50,2|0,0:0|0:0,0:0:0:0:
96,339,136864,37,0,3:0:0:0:
257,372,137314,1,0,3:0:0:0:
308,353,137464,2,0,L|381:350,1,50,8|0,0:0|0:0,0:0:0:0:
407,327,137764,2,0,B|414:216|414:216|369:241,1,150,0|0,3:0|0:0,0:0:0:0:
333,263,138364,1,2,0:0:0:0:
230,223,138664,2,0,B|222:198|222:198|226:174,1,50,10|0,3:2|3:0,0:0:0:0:
273,146,138964,2,0,B|281:121|281:121|276:97,1,50,0|0,3:0|0:0,0:0:0:0:
270,43,139264,38,0,P|317:27|366:33,1,100,4|2,3:2|0:1,0:0:0:0:
471,67,139864,2,0,P|477:104|472:132,1,50,8|0,0:0|0:0,0:0:0:0:
445,162,140164,2,0,B|437:208|437:208|450:239|450:239|441:270|441:270|445:339,1,150,0|0,3:0|0:0,0:0:0:0:
454,361,140764,1,0,3:0:0:0:
350,323,141064,2,0,B|325:321|325:321|300:324,1,50,10|0,0:0|0:0,0:0:0:0:
246,333,141364,2,0,B|221:335|221:335|196:331,1,50,2|0,0:0|0:0,0:0:0:0:
143,316,141664,6,0,P|105:279|183:233,1,150,2|2,3:1|3:1,0:0:0:0:
213,236,142264,1,10,1:0:0:0:
168,135,142564,2,0,P|227:126|306:178,1,150,2|0,3:1|1:0,0:0:0:0:
321,222,143164,1,2,1:0:0:0:
389,307,143464,2,0,P|416:263|422:243,1,50,2|0,1:0|0:0,0:0:0:0:
427,211,143764,2,0,P|414:160|405:142,1,50,2|0,1:0|1:0,0:0:0:0:
389,113,144064,53,4,3:2:0:0:
281,135,144364,2,0,B|180:102|196:193|71:166,1,200,0|0,0:0|0:0,0:0:0:0:
137,269,145264,2,0,P|65:271|25:286,2,100,2|0|2,0:0|0:0|0:0,0:0:0:0:
180,369,146164,1,0,3:0:0:0:
269,304,146464,37,0,3:0:0:0:
233,199,146764,2,0,B|334:166|318:257|443:230,1,200,0|0,0:0|0:0,0:0:0:0:
394,126,147664,2,0,P|443:124|492:136,2,100,2|0|2,0:0|0:0|0:0,0:0:0:0:
309,55,148564,1,0,0:0:0:0:
284,162,148864,37,4,3:2:0:0:
202,88,149164,2,0,B|101:55|117:146|-8:119,1,200,0|0,0:0|0:0,0:0:0:0:
7,232,150064,2,0,P|0:286|10:338,1,100,2|0,0:0|0:0,0:0:0:0:
110,368,150664,1,2,0:0:0:0:
198,302,150964,2,0,P|240:298|275:304,1,50,0|0,3:0|0:0,0:0:0:0:
301,313,151264,37,2,3:2:0:0:
308,93,151864,2,0,B|361:85|399:123|399:123|446:95|495:113,2,200,2|2|2,0:0|0:0|0:0,0:0:0:0:
92,48,153664,6,0,L|75:194,1,100,12|8,0:0|0:0,0:0:0:0:
53,254,154264,2,0,L|152:242,1,100,8|10,0:0|0:0,0:0:0:0:
206,233,154714,1,0,0:0:0:0:
260,224,154864,2,0,P|281:298|277:355,1,100,10|8,0:0|0:0,0:0:0:0:
381,366,155464,2,0,P|385:316|402:269,1,100,10|10,0:0|0:0,0:0:0:0:
475,187,156064,70,0,L|470:75,1,100,8|8,0:0|0:0,0:0:0:0:
378,27,156664,2,0,L|373:126,1,100,8|8,0:0|0:0,0:0:0:0:
275,176,157264,2,0,P|214:162|138:171,1,100,10|8,0:0|0:0,0:0:0:0:
122,171,157714,2,0,P|117:139|117:115,2,50,2|8|0,0:0|0:0|0:0,0:0:0:0:
78,204,158164,1,10,0:0:0:0:
69,313,158464,6,0,L|197:317,1,100,10|8,0:0|0:0,0:0:0:0:
236,229,159064,2,0,L|335:232,1,100,2|8,0:0|0:0,0:0:0:0:
383,331,159664,2,0,L|511:335,1,100,10|10,0:0|0:0,0:0:0:0:
500,225,160264,1,10,0:0:0:0:
398,183,160564,2,0,P|388:146|392:123,1,50,10|0,0:0|0:0,0:0:0:0:
399,80,160864,5,8,3:2:0:0:
302,26,161164,1,8,3:2:0:0:
233,111,161464,1,8,3:2:0:0:
147,41,161764,2,0,B|122:37|122:37|83:46,1,50,0|0,3:0|3:0,0:0:0:0:
44,56,162064,1,0,0:0:0:0:
386,331,163264,21,4,3:2:0:0:
294,270,163564,2,0,P|297:221|303:198,1,50,10|8,1:0|1:0,0:0:0:0:
315,169,163864,1,0,3:0:0:0:
374,76,164164,2,0,B|329:66|329:66|271:79,1,100,8|0,1:0|3:0,0:0:0:0:
176,123,164764,2,0,L|118:119,1,50,8|0,1:0|0:0,0:0:0:0:
71,113,165064,1,0,3:0:0:0:
112,215,165364,1,8,1:0:0:0:
86,322,165664,38,0,B|137:329|168:306|168:306|197:303|230:318,1,150,4|8,3:2|1:0,0:0:0:0:
278,345,166264,1,0,3:2:0:0:
336,251,166564,2,0,L|411:246,1,50,12|0,1:2|0:0,0:0:0:0:
441,244,166864,1,0,3:0:0:0:
474,139,167164,2,0,P|472:114|466:89,1,50,12|0,1:2|0:0,0:0:0:0:
424,53,167464,2,0,P|399:54|374:60,1,50,4|0,3:2|0:0,0:0:0:0:
335,99,167764,1,12,1:2:0:0:
252,172,168064,37,0,3:0:0:0:
163,106,168364,2,0,B|97:98,2,50,10|8|0,1:0|1:0|3:2,0:0:0:0:
136,212,168964,2,0,L|139:324,1,100,8|0,1:0|3:2,0:0:0:0:
228,375,169564,1,8,1:0:0:0:
299,290,169864,2,0,B|323:284|323:284|348:287,1,50,2|0,3:2|0:0,0:0:0:0:
400,304,170164,2,0,B|424:310|424:310|449:306,1,50,10|8,1:0|1:0,0:0:0:0:
502,292,170464,6,0,L|505:169,1,100,2|10,3:2|0:2,0:0:0:0:
467,88,171064,2,0,P|422:68|348:97,1,100,2|2,3:2|1:2,0:0:0:0:
339,181,171664,1,10,3:2:0:0:
261,102,171964,1,10,1:2:0:0:
231,208,172264,2,0,P|211:214|175:214,1,50,10|8,3:2|1:0,0:0:0:0:
135,185,172564,2,0,P|115:179|79:179,1,50,10|0,1:2|1:0,0:0:0:0:
31,185,172864,69,0,3:2:0:0:
87,279,173164,2,0,L|81:343,2,50,10|8|0,1:0|1:0|3:2,0:0:0:0:
191,315,173764,2,0,L|313:305,1,100,8|0,1:0|3:2,0:0:0:0:
399,323,174364,2,0,B|402:294|402:294|388:249,1,50,8|0,1:0|0:0,0:0:0:0:
375,223,174664,1,0,3:2:0:0:
467,162,174964,1,10,1:0:0:0:
369,111,175264,38,0,B|327:100|327:100|295:114|295:114|261:101|261:101|217:113,1,150,4|8,3:2|1:0,0:0:0:0:
174,127,175864,1,0,3:2:0:0:
71,86,176164,2,0,B|56:137|56:137|84:206,1,100,12|0,1:2|3:2,0:0:0:0:
166,238,176764,1,12,1:2:0:0:
274,219,177064,2,0,L|270:280,1,50,4|0,3:2|0:0,0:0:0:0:
273,323,177364,2,0,L|334:319,1,50,12|8,1:2|1:0,0:0:0:0:
377,313,177664,37,0,3:2:0:0:
461,242,177964,2,0,L|510:245,2,50,10|8|0,1:0|1:0|3:2,0:0:0:0:
357,205,178564,2,0,P|354:141|372:100,1,100,8|0,1:0|3:2,0:0:0:0:
446,32,179164,1,8,1:0:0:0:
337,11,179464,2,0,P|307:13|274:27,1,50,2|0,3:2|0:0,0:0:0:0:
239,43,179764,2,0,P|209:41|176:27,1,50,10|8,1:0|1:0,0:0:0:0:
136,19,180064,6,0,L|128:134,1,100,2|2,3:1|0:1,0:0:0:0:
224,173,180664,2,0,L|232:288,1,100,2|2,3:1|1:0,0:0:0:0:
249,381,181264,1,2,3:1:0:0:
336,314,181564,1,10,1:2:0:0:
434,363,181864,2,0,L|427:290,1,50,10|8,3:2|1:0,0:0:0:0:
419,259,182164,2,0,L|412:186,1,50,10|0,1:2|1:0,0:0:0:0:
405,155,182464,70,0,B|356:147|356:147|305:164,1,100,4|10,3:2|1:0,0:0:0:0:
225,235,183064,1,0,3:2:0:0:
122,194,183364,2,0,P|113:141|136:82,1,100,8|0,1:0|3:2,0:0:0:0:
214,31,183964,2,0,L|279:38,1,50,8|0,1:0|0:0,0:0:0:0:
318,43,184264,1,0,3:2:0:0:
390,125,184564,2,0,L|325:132,1,50,8|8,1:0|1:0,0:0:0:0:
285,136,184864,38,0,B|277:246|277:246|316:234,1,150,4|8,3:2|1:0,0:0:0:0:
366,214,185464,1,0,3:2:0:0:
475,211,185764,2,0,B|495:263|495:263|478:308,1,100,12|0,1:2|3:2,0:0:0:0:
382,357,186364,1,12,1:2:0:0:
274,333,186664,2,0,P|241:324|217:327,1,50,4|0,3:2|0:0,0:0:0:0:
171,334,186964,2,0,L|162:260,1,50,12|8,1:2|1:0,0:0:0:0:
158,229,187264,37,0,3:0:0:0:
235,150,187564,2,0,L|244:76,2,50,10|8|0,1:0|1:0|3:2,0:0:0:0:
317,223,188164,2,0,P|380:233|442:211,1,100,8|0,1:0|3:2,0:0:0:0:
483,139,188764,1,8,1:0:0:0:
427,43,189064,2,0,B|401:39|401:39|377:44,1,50,0|0,3:2|0:0,0:0:0:0:
324,59,189364,2,0,B|298:63|298:63|274:57,1,50,8|8,1:0|1:0,0:0:0:0:
221,43,189664,6,0,P|171:40|117:55,1,100,2|10,3:2|0:2,0:0:0:0:
134,161,190264,2,0,P|184:164|238:149,1,100,2|2,3:2|1:2,0:0:0:0:
338,123,190864,1,10,3:2:0:0:
304,227,191164,1,10,1:2:0:0:
410,201,191464,2,0,P|420:248|418:271,1,50,10|8,3:2|1:0,0:0:0:0:
426,304,191764,2,0,P|379:314|356:312,1,50,10|0,1:2|1:0,0:0:0:0:
322,314,192064,69,0,3:2:0:0:
219,353,192364,2,0,B|193:351|193:351|164:357,2,50,10|8|0,1:0|1:0|3:2,0:0:0:0:
251,248,192964,2,0,B|268:201|268:201|246:133,1,100,8|0,1:0|3:2,0:0:0:0:
174,75,193564,2,0,L|168:128,1,50,8|0,1:0|0:0,0:0:0:0:
160,179,193864,1,0,3:2:0:0:
53,150,194164,1,8,1:0:0:0:
21,255,194464,38,0,B|65:269|97:248|97:248|123:272|123:272|193:277,1,150,4|8,3:2|1:0,0:0:0:0:
213,280,195064,1,0,3:2:0:0:
310,330,195364,2,0,P|324:285|302:221,1,100,12|0,1:2|3:2,0:0:0:0:
223,168,195964,1,12,1:2:0:0:
264,66,196264,2,0,L|351:60,1,50,4|0,3:2|0:0,0:0:0:0:
368,60,196564,2,0,L|362:147,1,50,12|8,1:2|1:0,0:0:0:0:
358,164,196864,37,0,3:2:0:0:
433,243,197164,2,0,L|482:246,2,50,10|8|0,1:0|1:0|3:2,0:0:0:0:
364,329,197764,2,0,B|316:342|316:342|263:319,1,100,8|0,1:0|3:2,0:0:0:0:
249,213,198364,1,8,1:0:0:0:
157,274,198664,2,0,L|147:184,1,50,2|0,3:2|0:0,0:0:0:0:
154,169,198964,2,0,L|164:79,1,50,8|8,1:0|1:0,0:0:0:0:
166,64,199264,6,0,P|230:53|283:82,1,100,2|10,3:1|0:1,0:0:0:0:
343,138,199864,2,0,P|354:202|325:255,1,100,2|8,3:1|0:1,0:0:0:0:
232,241,200464,1,2,3:1:0:0:
298,328,200764,1,10,1:2:0:0:
188,340,201064,2,0,P|162:347|132:345,1,50,2|8,3:2|1:0,0:0:0:0:
95,312,201364,2,0,P|88:286|98:191,1,100,10|0,1:2|2:0,0:0:0:0:
