osu file format v14

[General]
AudioFilename: audio.mp3
AudioLeadIn: 0
PreviewTime: 8614
Countdown: 0
SampleSet: Soft
StackLeniency: 0.2
Mode: 0
LetterboxInBreaks: 0
WidescreenStoryboard: 1

[Editor]
DistanceSpacing: 1.3
BeatDivisor: 8
GridSize: 16
TimelineZoom: 2.599999

[Metadata]
Title:FIRE
TitleUnicode:불타오르네
Artist:BTS
ArtistUnicode:방탄소년단
Creator:sukiNathan
Version:Hard
Source:
Tags:bangtan boys kpop 420 bultaoreuene k-pop moombah moombahcore moombahton aerous appleeaterx
BeatmapID:1084703
BeatmapSetID:479385

[Difficulty]
HPDrainRate:5
CircleSize:4
OverallDifficulty:6
ApproachRate:8
SliderMultiplier:2.4
SliderTickRate:1

[Events]
//Background and Video events
0,0,"fire.jpg",0,0
Video,0,"bultaoreune.avi"
//Break Periods
//Storyboard Layer 0 (Background)
//Storyboard Layer 1 (Fail)
//Storyboard Layer 2 (Pass)
//Storyboard Layer 3 (Foreground)
//Storyboard Sound Samples

[TimingPoints]
64,600,4,2,1,60,1,0
64,-100,4,2,1,60,0,0
1114,-100,4,2,1,60,0,0
2464,-100,4,2,1,60,0,0
3514,-100,4,2,1,60,0,0
4864,-100,4,2,1,60,0,0
6064,-100,4,2,1,60,0,0
7264,-100,4,2,1,60,0,0
9664,-100,4,2,1,60,0,1
9964,-100,4,2,1,60,0,1
10264,-100,4,2,1,60,0,1
10564,-100,4,2,1,60,0,1
11464,-100,4,2,1,60,0,1
11764,-100,4,2,1,60,0,1
11864,-100,4,2,1,60,0,1
12064,-100,4,2,1,60,0,1
12664,-100,4,2,1,60,0,1
12964,-100,4,2,1,60,0,1
13864,-100,4,2,1,60,0,1
14164,-100,4,2,1,60,0,1
14464,-100,4,2,1,60,0,1
15064,-100,4,2,1,60,0,1
15364,-100,4,2,1,60,0,1
16264,-100,4,2,1,60,0,1
16564,-100,4,2,1,60,0,1
16864,-100,4,2,1,60,0,0
18664,-100,4,2,1,60,0,0
19264,-100,4,2,1,60,0,1
19864,-100,4,2,1,60,0,1
20164,-100,4,2,1,60,0,1
21064,-100,4,2,1,60,0,1
21364,-100,4,2,1,60,0,1
21664,-100,4,2,1,60,0,1
22264,-100,4,2,1,60,0,1
22564,-100,4,2,1,60,0,1
23464,-100,4,2,1,60,0,1
23764,-100,4,2,1,60,0,1
24064,-100,4,2,1,60,0,1
24364,-100,4,2,1,60,0,1
24664,-100,4,2,1,60,0,1
24964,-100,4,2,1,60,0,1
25864,-100,4,2,1,60,0,1
26164,-100,4,2,1,60,0,1
26464,-100,4,2,1,60,0,0
28864,-100,4,2,1,60,0,0
38464,-100,4,2,1,60,0,0
45664,-100,4,2,1,60,0,0
48064,-100,4,2,2,60,0,0
48964,-133.333333333333,4,2,2,60,0,0
49564,-100,4,2,2,60,0,0
49864,-100,4,2,2,60,0,0
50764,-133.333333333333,4,2,2,60,0,0
51964,-100,4,2,2,60,0,0
52264,-100,4,2,2,60,0,0
53764,-133.333333333333,4,2,2,60,0,0
54364,-100,4,2,2,60,0,0
54664,-100,4,2,2,60,0,0
55564,-133.333333333333,4,2,2,60,0,0
56764,-100,4,2,2,60,0,0
58864,-100,4,2,2,60,0,0
59464,-100,4,2,2,60,0,0
59764,-100,4,2,2,60,0,0
60064,-100,4,2,2,60,0,0
61264,-100,4,2,2,60,0,0
61864,-100,4,2,2,60,0,0
62164,-100,4,2,2,60,0,0
62464,-100,4,2,2,60,0,0
63664,-100,4,2,2,60,0,0
64864,-100,4,2,2,40,0,0
65839,-100,4,2,2,30,0,0
67264,-100,4,2,1,60,0,1
67864,-100,4,2,1,60,0,1
68164,-100,4,2,1,60,0,1
69064,-100,4,2,1,60,0,1
69364,-100,4,2,1,60,0,1
70264,-100,4,2,1,60,0,1
70564,-100,4,2,1,60,0,1
71164,-100,4,2,1,60,0,1
72664,-100,4,2,1,60,0,1
72964,-100,4,2,1,60,0,1
73864,-100,4,2,1,60,0,1
74164,-100,4,2,1,60,0,1
74464,-100,4,2,1,60,0,0
75964,-100,4,2,1,60,0,0
76864,-100,4,2,1,60,0,1
77464,-100,4,2,1,60,0,1
77764,-100,4,2,1,60,0,1
78664,-100,4,2,1,60,0,1
78964,-100,4,2,1,60,0,1
79864,-100,4,2,1,60,0,1
80464,-100,4,2,1,60,0,1
80764,-100,4,2,1,60,0,1
82264,-100,4,2,1,60,0,1
82564,-100,4,2,1,60,0,1
83464,-100,4,2,1,60,0,1
83764,-100,4,2,1,60,0,1
84064,-100,4,2,1,60,0,0
86464,-100,4,2,1,60,0,0
95164,-100,4,2,1,60,0,0
96064,-100,4,2,1,60,0,0
97264,-100,4,2,1,60,0,0
97864,-100,4,2,1,60,0,0
98464,-100,4,2,1,60,0,0
99664,-100,4,2,1,60,0,0
100264,-100,4,2,1,60,0,0
100864,-100,4,2,1,60,0,0
102064,-100,4,2,1,60,0,0
102964,-100,4,2,1,60,0,0
105664,-100,4,2,2,60,0,0
106564,-133.333333333333,4,2,2,60,0,0
107164,-100,4,2,2,60,0,0
107464,-100,4,2,2,60,0,0
108364,-133.333333333333,4,2,2,60,0,0
109564,-100,4,2,2,60,0,0
110464,-100,4,2,2,60,0,0
111364,-133.333333333333,4,2,2,60,0,0
112264,-100,4,2,2,60,0,0
113164,-100,4,2,2,60,0,0
114364,-100,4,2,2,60,0,0
116464,-100,4,2,2,60,0,0
116914,-100,4,2,2,60,0,0
117364,-100,4,2,2,60,0,0
117664,-100,4,2,2,60,0,0
118864,-100,4,2,2,60,0,0
119464,-100,4,2,2,60,0,0
119764,-100,4,2,2,60,0,0
120064,-100,4,2,2,60,0,0
121264,-100,4,2,2,60,0,0
122464,-100,4,2,2,40,0,0
123439,-100,4,2,2,30,0,0
124864,-100,4,2,1,60,0,1
125464,-100,4,2,1,60,0,1
125764,-100,4,2,1,60,0,1
126664,-100,4,2,1,60,0,1
126964,-100,4,2,1,60,0,1
127864,-100,4,2,1,60,0,1
128164,-100,4,2,1,60,0,1
128764,-100,4,2,1,60,0,1
130564,-100,4,2,1,60,0,1
131464,-100,4,2,1,60,0,1
131764,-100,4,2,1,60,0,1
132064,-100,4,2,1,60,0,0
133564,-100,4,2,1,60,0,0
134464,-100,4,2,1,60,0,1
135064,-100,4,2,1,60,0,1
135364,-100,4,2,1,60,0,1
136264,-100,4,2,1,60,0,1
136564,-100,4,2,1,60,0,1
137464,-100,4,2,1,60,0,1
138064,-100,4,2,1,60,0,1
138364,-100,4,2,1,60,0,1
139864,-100,4,2,1,60,0,1
140164,-100,4,2,1,60,0,1
141064,-100,4,2,1,60,0,1
141364,-100,4,2,1,60,0,1
141664,-100,4,2,1,60,0,0
144064,-133.333333333333,4,2,1,60,0,0
153664,-100,4,2,2,60,0,0
160864,-100,4,2,2,40,0,0
161839,-100,4,2,2,30,0,0
163264,-100,4,2,2,70,0,1
163564,-100,4,2,2,70,0,1
163864,-100,4,2,2,70,0,1
164164,-100,4,2,2,70,0,1
164464,-100,4,2,2,70,0,1
164764,-100,4,2,2,70,0,1
165064,-100,4,2,2,70,0,1
165364,-100,4,2,2,70,0,1
165664,-100,4,2,2,70,0,1
165964,-100,4,2,2,70,0,1
166264,-100,4,2,2,70,0,1
166564,-100,4,2,2,70,0,1
166864,-100,4,2,2,70,0,1
167164,-100,4,2,2,70,0,1
167464,-100,4,2,2,70,0,1
167764,-100,4,2,2,70,0,1
168364,-100,4,2,2,70,0,1
168664,-100,4,2,2,70,0,1
168964,-100,4,2,2,70,0,1
169264,-100,4,2,2,70,0,1
169564,-100,4,2,2,70,0,1
169864,-100,4,2,2,70,0,1
170464,-100,4,2,2,60,0,0
171964,-100,4,2,2,60,0,0
172864,-100,4,2,2,70,0,1
173164,-100,4,2,2,70,0,1
173464,-100,4,2,2,70,0,1
173764,-100,4,2,2,70,0,1
174064,-100,4,2,2,70,0,1
174364,-100,4,2,2,70,0,1
174664,-100,4,2,2,70,0,1
174964,-100,4,2,2,70,0,1
175264,-100,4,2,2,70,0,1
175564,-100,4,2,2,70,0,1
175864,-100,4,2,2,70,0,1
176164,-100,4,2,2,70,0,1
176464,-100,4,2,2,70,0,1
176764,-100,4,2,2,70,0,1
177064,-100,4,2,2,70,0,1
177364,-100,4,2,2,70,0,1
177964,-100,4,2,2,70,0,1
178264,-100,4,2,2,70,0,1
178564,-100,4,2,2,70,0,1
178864,-100,4,2,2,70,0,1
179164,-100,4,2,2,70,0,1
179464,-100,4,2,2,70,0,1
180064,-100,4,2,2,60,0,0
181564,-100,4,2,2,60,0,0
182464,-100,4,2,2,70,0,1
182764,-100,4,2,2,70,0,1
183064,-100,4,2,2,70,0,1
183364,-100,4,2,2,70,0,1
183664,-100,4,2,2,70,0,1
183964,-100,4,2,2,70,0,1
184264,-100,4,2,2,70,0,1
184564,-100,4,2,2,70,0,1
184864,-100,4,2,2,70,0,1
185164,-100,4,2,2,70,0,1
185464,-100,4,2,2,70,0,1
185764,-100,4,2,2,70,0,1
186064,-100,4,2,2,70,0,1
186364,-100,4,2,2,70,0,1
186664,-100,4,2,2,70,0,1
186964,-100,4,2,2,70,0,1
187564,-100,4,2,2,70,0,1
187864,-100,4,2,2,70,0,1
188164,-100,4,2,2,70,0,1
188464,-100,4,2,2,70,0,1
188764,-100,4,2,2,70,0,1
189064,-100,4,2,2,70,0,1
189664,-100,4,2,2,60,0,0
191164,-100,4,2,2,60,0,0
192064,-100,4,2,2,70,0,1
192364,-100,4,2,2,70,0,1
192664,-100,4,2,2,70,0,1
192964,-100,4,2,2,70,0,1
193264,-100,4,2,2,70,0,1
193564,-100,4,2,2,70,0,1
193864,-100,4,2,2,70,0,1
194164,-100,4,2,2,70,0,1
194464,-100,4,2,2,70,0,1
194764,-100,4,2,2,70,0,1
195064,-100,4,2,2,70,0,1
195364,-100,4,2,2,70,0,1
195664,-100,4,2,2,70,0,1
195964,-100,4,2,2,70,0,1
196264,-100,4,2,2,70,0,1
196564,-100,4,2,2,70,0,1
197164,-100,4,2,2,70,0,1
197464,-100,4,2,2,70,0,1
197764,-100,4,2,2,70,0,1
198064,-100,4,2,2,70,0,1
198364,-100,4,2,2,70,0,1
198664,-100,4,2,2,70,0,1
199264,-100,4,2,2,60,0,0
200764,-100,4,2,2,60,0,0

[Colours]
Combo1 : 248,63,1
Combo2 : 3,131,199
Combo3 : 165,22,250
Combo4 : 249,0,0
Combo5 : 220,189,12
Combo6 : 174,174,174

[HitObjects]
262,91,64,70,0,L|429:68,1,120,2|0,1:0|0:0,0:0:0:0:
458,74,514,2,0,L|447:156,1,60,0|0,1:0|1:0,0:0:0:0:
184,172,1114,2,0,L|206:336,2,120,0|0|0,1:0|1:0|0:0,0:0:0:0:
172,94,1864,2,0,L|125:102,2,30,0|0|0,1:0|1:0|2:2,0:0:0:0:
244,124,2164,1,0,1:0:0:0:
376,42,2464,38,0,P|407:111|387:176,1,120,2|0,1:0|0:0,0:0:0:0:
352,214,2914,2,0,P|379:229|418:232,1,60,0|0,1:0|1:0,0:0:0:0:
184,172,3514,2,0,P|125:167|73:195,2,120,0|0|0,1:0|1:0|1:0,0:0:0:0:
184,249,4264,2,0,P|169:276|170:297,2,30,0|0|0,1:0|1:0|2:0,0:0:0:0:
400,338,4864,38,0,L|410:212,1,120,2|2,1:0|0:0,0:0:0:0:
438,145,5314,2,0,L|432:60,2,60,2|0|2,1:2|1:0|0:2,0:0:0:0:
361,158,5764,1,2,0:0:0:0:
217,97,6064,38,0,L|223:12,2,60,2|0|2,0:0|1:0|0:0,0:0:0:0:
305,84,6514,1,2,1:2:0:0:
247,170,6664,2,0,L|244:212,2,30,2|0|0,1:2|1:0|2:0,0:0:0:0:
168,164,6964,1,0,1:0:0:0:
271,280,7264,38,0,B|343:265|319:309|412:293,1,120,2|2,1:0|0:0,0:0:0:0:
431,201,7714,2,0,P|464:202|499:215,2,60,2|0|2,1:2|0:0|0:0,0:0:0:0:
325,130,8164,2,0,P|354:129|383:120,1,60,2|0,0:0|1:0,0:0:0:0:
96,20,9664,6,0,L|88:92,1,60,4|0,3:2|0:0,0:0:0:0:
91,182,9964,2,0,B|134:169|134:169|197:179,1,90,2|0,0:1|0:0,0:0:0:0:
216,186,10264,1,8,0:0:0:0:
346,100,10564,2,0,P|379:178|303:209,1,180,0|0,3:0|0:0,0:0:0:0:
252,265,11164,2,0,P|253:294|266:321,1,60,0|0,3:0|0:0,0:0:0:0:
368,306,11464,2,0,L|434:301,2,60,8|0|2,0:0|3:0|0:0,0:0:0:0:
271,182,12064,38,0,L|203:176,2,60,0|0|2,3:0|0:0|0:1,0:0:0:0:
328,234,12514,1,0,3:0:0:0:
350,159,12664,1,8,0:0:0:0:
215,79,12964,2,0,B|166:75|166:75|111:108|111:108|43:103,1,180,0|0,3:0|0:0,0:0:0:0:
42,181,13564,2,0,P|44:219|54:259,1,60,2|0,3:2|0:0,0:0:0:0:
128,329,13864,2,0,P|133:299|134:269,1,60,8|0,0:0|3:0,0:0:0:0:
209,214,14164,1,2,0:0:0:0:
221,369,14464,38,0,B|247:357|247:357|292:360,1,60,4|0,3:2|0:0,0:0:0:0:
409,382,14764,2,0,P|431:348|420:276,1,90,2|0,0:1|0:0,0:0:0:0:
421,262,15064,1,8,0:0:0:0:
346,125,15364,2,0,P|394:106|525:156,1,180,0|0,3:0|0:0,0:0:0:0:
489,216,15964,1,0,3:0:0:0:
333,214,16264,2,0,L|264:207,1,60,8|0,0:0|3:0,0:0:0:0:
366,304,16564,2,0,L|435:297,1,60,2|0,0:0|0:0,0:0:0:0:
308,375,16864,53,2,3:2:0:0:
161,320,17164,1,2,0:2:0:0:
99,367,17314,1,2,3:2:0:0:
99,367,17389,1,0,0:0:0:0:
99,367,17464,2,0,P|84:324|90:293,1,60,10|0,0:0|0:0,0:0:0:0:
109,236,17764,2,0,P|135:223|165:221,1,60,2|2,3:2|0:0,0:0:0:0:
227,270,18064,2,0,P|242:313|236:344,2,60,2|2|2,0:0|0:0|3:2,0:0:0:0:
127,148,18664,2,0,L|132:74,1,60,8|0,3:2|0:0,0:0:0:0:
248,27,18964,1,0,3:0:0:0:
248,27,19264,70,0,L|345:35,1,60,4|0,3:2|0:0,0:0:0:0:
378,118,19564,2,0,B|354:110|354:110|326:121|326:121|276:116,1,90,2|0,0:1|0:0,0:0:0:0:
252,111,19864,1,8,0:0:0:0:
366,217,20164,2,0,B|396:266|396:266|359:384,1,180,0|0,3:0|0:0,0:0:0:0:
282,367,20764,2,0,P|249:356|197:358,1,60,0|0,3:0|0:0,0:0:0:0:
94,310,21064,2,0,P|123:307|151:297,1,60,8|0,0:0|3:0,0:0:0:0:
234,261,21364,1,2,0:0:0:0:
221,80,21664,37,0,3:0:0:0:
367,133,21964,2,0,P|374:79|364:57,1,60,2|0,0:1|3:0,0:0:0:0:
330,8,22264,1,8,0:0:0:0:
204,83,22564,2,0,L|59:78,1,120,0|0,3:0|0:0,0:0:0:0:
74,234,23164,2,0,L|146:237,1,60,0|0,0:0|0:0,0:0:0:0:
248,242,23464,1,8,3:2:0:0:
248,242,23614,1,0,3:0:0:0:
352,207,23764,2,0,B|364:238|364:238|350:286,1,60,0|0,0:0|0:0,0:0:0:0:
278,364,24064,37,4,3:2:0:0:
139,264,24364,2,0,P|95:255|52:267,1,90,2|0,0:1|0:0,0:0:0:0:
20,290,24664,1,8,0:0:0:0:
152,172,24964,2,0,B|213:103|213:103|133:46,1,180,0|0,3:0|0:0,0:0:0:0:
59,115,25564,2,0,L|65:191,1,60,0|0,3:0|0:0,0:0:0:0:
139,264,25864,2,0,P|174:259|208:242,1,60,8|0,0:0|3:0,0:0:0:0:
332,204,26164,2,0,P|304:192|274:189,1,60,2|0,0:0|0:0,0:0:0:0:
152,172,26464,5,2,3:1:0:0:
283,280,26764,2,0,L|277:356,2,60,2|2|10,1:0|3:1|1:0,0:0:0:0:
226,117,27364,2,0,L|220:41,2,60,2|2|2,3:1|0:1|1:0,0:0:0:0:
284,196,27814,1,2,1:0:0:0:
284,196,27889,1,0,1:0:0:0:
284,196,27964,2,0,L|343:200,1,60,2|0,1:0|1:0,0:0:0:0:
405,150,28264,1,2,1:0:0:0:
317,279,28564,1,2,1:0:0:0:
467,321,28864,6,0,B|488:284|488:284|462:197,1,120,2|0,3:1|0:0,0:0:0:0:
333,127,29464,2,0,B|319:94|319:94|331:56,1,60,8|0,0:0|0:0,0:0:0:0:
389,25,29764,1,0,3:0:0:0:
82,81,30364,1,0,3:0:0:0:
82,81,30664,2,0,P|45:71|-3:72,1,60,8|0,0:0|0:0,0:0:0:0:
67,174,30964,2,0,P|95:165|125:161,1,60,0|0,0:0|0:0,0:0:0:0:
208,84,31264,21,2,3:1:0:0:
208,84,31564,2,0,L|201:43,2,30,0|0|0,0:0|0:0|3:0,0:0:0:0:
251,157,31864,2,0,P|288:147|336:148,1,60,8|0,0:0|0:0,0:0:0:0:
266,250,32164,2,0,P|238:241|208:237,1,60,0|0,3:0|0:0,0:0:0:0:
125,160,32464,1,0,0:0:0:0:
125,160,32764,2,0,L|114:289,1,120,0|8,0:0|0:0,0:0:0:0:
53,328,33214,2,0,B|111:311|111:311|164:336,1,120,0|0,0:0|0:0,0:0:0:0:
242,349,33664,54,0,P|265:348|308:336,1,60,2|0,3:1|0:0,0:0:0:0:
371,306,33964,2,0,P|377:330|377:348,2,30,0|0|0,0:0|0:0|0:0,0:0:0:0:
390,230,34264,2,0,P|367:229|324:217,1,60,8|0,0:0|0:0,0:0:0:0:
230,176,34564,1,0,3:0:0:0:
481,35,35164,1,0,3:0:0:0:
481,35,35464,2,0,L|475:110,1,60,8|0,0:0|0:0,0:0:0:0:
381,145,35764,2,0,L|321:149,1,60,0|0,0:0|0:0,0:0:0:0:
467,199,36064,21,0,3:0:0:0:
335,313,36364,2,0,L|329:238,1,60,0|0,0:0|0:0,0:0:0:0:
235,203,36664,2,0,L|175:198,1,60,8|0,0:0|0:0,0:0:0:0:
321,149,36964,1,0,3:0:0:0:
321,149,37264,1,0,0:0:0:0:
208,41,37564,1,0,0:0:0:0:
360,8,37864,2,0,P|423:39|452:92,1,120,8|0,0:0|0:0,0:0:0:0:
457,157,38314,1,0,0:0:0:0:
353,146,38464,6,0,L|293:140,1,60,2|0,3:1|0:0,0:0:0:0:
201,111,38764,2,0,L|171:113,2,30,0|0|0,0:0|0:0|0:0,0:0:0:0:
271,44,39064,1,8,0:0:0:0:
211,242,39364,70,0,L|270:236,1,60,0|0,3:0|0:0,0:0:0:0:
360,293,39664,2,0,L|366:234,1,60,0|0,0:0|0:0,0:0:0:0:
293,140,39964,1,0,3:0:0:0:
126,219,40264,2,0,B|119:249|119:249|128:276,1,60,8|0,0:0|0:0,0:0:0:0:
193,335,40564,1,0,0:0:0:0:
153,138,40864,6,0,P|110:136|89:144,1,60,0|0,3:0|0:0,0:0:0:0:
11,172,41164,2,0,P|12:187|10:202,2,30,0|0|0,0:0|0:0|0:0,0:0:0:0:
25,85,41464,1,8,0:0:0:0:
126,219,41764,2,0,P|169:221|190:213,1,60,0|0,3:0|0:0,0:0:0:0:
270,143,42064,2,0,P|268:186|276:207,1,60,0|0,0:0|0:0,0:0:0:0:
345,263,42364,1,0,0:0:0:0:
337,77,42664,2,0,L|403:73,2,60,8|0|0,0:0|0:0|0:0,0:0:0:0:
165,169,43264,70,0,B|174:235|174:235|150:267|150:267|165:345,1,180,2|0,3:1|0:0,0:0:0:0:
267,302,43864,1,8,0:0:0:0:
267,302,44164,2,0,P|302:299|344:306,1,60,0|0,3:0|0:0,0:0:0:0:
426,342,44464,2,0,B|439:269|439:269|415:237|415:237|424:171,1,180,0|0,0:0|0:0,0:0:0:0:
448,73,45064,1,8,0:0:0:0:
448,73,45364,2,0,L|369:64,1,60,0|0,0:0|0:0,0:0:0:0:
306,170,45664,6,0,B|331:166|347:172|347:172|375:165|375:165|432:173,1,120,4|0,3:2|0:0,0:0:0:0:
462,260,46114,2,0,B|436:256|421:262|421:262|393:255|393:255|336:263,1,120,4|0,3:2|0:0,0:0:0:0:
385,349,46564,1,4,3:2:0:0:
218,316,46864,2,0,P|186:264|245:223,1,120,0|0,0:0|1:0,0:0:0:0:
278,157,47314,1,0,1:0:0:0:
192,142,47464,2,0,L|189:100,3,30,0|0|0|0,1:0|1:0|1:0|1:0,0:0:0:0:
184,72,47764,2,0,P|217:66|244:64,1,60,0|0,1:0|1:0,0:0:0:0:
346,88,48064,22,0,L|485:95,1,120,14|8,3:2|0:0,0:0:0:0:
465,94,48664,1,8,0:0:0:0:
442,232,48964,2,0,L|352:227,1,90.0000034332277,8|8,0:0|0:0,0:0:0:0:
167,258,49564,2,0,L|171:324,2,60,8|0|8,0:0|0:0|0:0,0:0:0:0:
231,115,50164,1,8,0:0:0:0:
75,126,50464,5,10,0:0:0:0:
75,126,50764,2,0,L|69:62,2,45.0000017166138,8|0|8,0:0|0:0|0:0,0:0:0:0:
158,179,51364,1,8,0:0:0:0:
231,115,51664,1,8,0:0:0:0:
308,172,51964,2,0,P|337:166|378:164,2,60,8|0|8,0:0|0:0|0:0,0:0:0:0:
158,179,52564,1,8,0:0:0:0:
312,360,52864,70,0,P|337:322|337:248,1,120,10|8,0:0|0:0,0:0:0:0:
337,249,53464,1,8,0:0:0:0:
200,360,53764,2,0,P|174:324|168:277,1,90.0000034332277,8|8,0:0|0:0,0:0:0:0:
204,142,54364,2,0,L|206:73,2,60,8|0|8,0:0|0:0|0:0,0:0:0:0:
55,180,54964,1,8,0:0:0:0:
168,280,55264,5,10,0:0:0:0:
168,280,55564,2,0,L|170:327,2,45.0000017166138,8|0|8,0:0|0:0|0:0,0:0:0:0:
244,222,56164,1,8,0:0:0:0:
322,278,56464,1,8,0:0:0:0:
322,278,56764,6,0,B|336:247|336:247|337:210,1,60,10|0,0:0|0:0,0:0:0:0:
229,165,57064,2,0,B|229:190|229:190|243:221,1,60,8|0,0:0|0:0,0:0:0:0:
307,139,57364,1,10,0:0:0:0:
158,241,57664,69,14,3:2:0:0:
39,139,57964,1,8,0:0:0:0:
39,139,58114,1,0,1:0:0:0:
186,88,58414,1,0,0:0:0:0:
186,88,58564,1,8,0:0:0:0:
158,241,58864,2,0,L|166:310,2,60,8|0|8,0:0|1:0|0:0,0:0:0:0:
231,212,59314,2,0,L|237:152,2,60,0|8|0,1:0|1:2|2:2,0:0:0:0:
298,252,59764,1,8,0:0:0:0:
427,339,60064,5,8,1:2:0:0:
437,183,60364,1,8,0:0:0:0:
437,183,60514,1,0,1:0:0:0:
302,255,60814,1,0,0:0:0:0:
302,255,60964,1,8,0:0:0:0:
427,339,61264,2,0,P|467:334|500:335,2,60,8|0|8,0:0|1:0|0:0,0:0:0:0:
349,350,61714,2,0,P|319:354|289:354,2,60,0|8|0,1:0|1:2|2:0,0:0:0:0:
376,276,62164,1,8,0:0:0:0:
199,370,62464,6,0,B|193:340|193:340|202:303,1,60,8|0,3:2|0:0,0:0:0:0:
240,232,62764,2,0,B|211:221|211:221|173:226,1,60,8|0,3:2|1:0,0:0:0:0:
98,143,63064,2,0,L|230:130,1,120,8|8,3:2|3:2,0:0:0:0:
408,181,63664,2,0,L|401:252,1,60,8|0,3:2|1:0,0:0:0:0:
382,316,63964,2,0,L|311:323,1,60,8|0,3:2|1:0,0:0:0:0:
205,250,64264,2,0,B|250:243|250:243|280:221|280:221|325:216,1,120,8|8,3:2|3:2,0:0:0:0:
133,298,64864,70,0,P|120:253|126:221,1,60,8|8,3:2|3:2,0:0:0:0:
128,156,65164,2,0,P|98:156|70:168,1,60,8|8,3:2|3:2,0:0:0:0:
205,250,65464,2,0,P|234:249|262:237,1,60,8|8,3:2|3:2,0:0:0:0:
297,122,65764,2,0,P|312:117|327:118,3,30,0|0|0|0,3:0|3:0|1:0|3:0,0:0:0:0:
36,18,67264,38,0,L|45:95,1,60,6|0,3:2|0:0,0:0:0:0:
20,198,67564,2,0,B|60:177|60:177|103:181,1,90,2|0,0:1|0:0,0:0:0:0:
143,186,67864,1,8,0:0:0:0:
170,355,68164,2,0,P|86:331|136:275,1,180,0|0,3:0|0:0,0:0:0:0:
212,270,68764,1,0,3:0:0:0:
159,122,69064,1,8,0:0:0:0:
159,122,69214,1,0,3:0:0:0:
70,156,69364,2,0,P|64:116|68:90,1,60,2|0,0:0|0:0,0:0:0:0:
184,20,69664,38,0,P|235:49|256:104,1,120,0|2,3:0|0:1,0:0:0:0:
319,179,70114,1,0,3:0:0:0:
223,195,70264,1,8,0:0:0:0:
305,335,70564,2,0,B|349:299|349:299|318:172,1,180,0|0,3:0|0:0,0:0:0:0:
256,104,71164,2,0,P|313:82|354:88,1,90,2|0,0:0|0:0,0:0:0:0:
378,96,71464,2,0,P|406:103|447:99,1,60,10|0,3:2|3:0,0:0:0:0:
335,8,71764,2,0,P|305:6|276:13,1,60,2|0,3:2|0:0,0:0:0:0:
171,73,72064,37,4,3:2:0:0:
171,73,72364,2,0,B|157:117|157:117|190:171,1,90,2|0,0:1|0:0,0:0:0:0:
208,181,72664,2,0,L|211:263,1,60,8|0,0:0|0:0,0:0:0:0:
230,332,72964,2,0,B|130:342|168:271|57:293,1,180,0|0,3:0|0:0,0:0:0:0:
93,377,73564,1,0,3:0:0:0:
53,204,73864,2,0,P|82:198|115:202,1,60,10|0,0:0|3:0,0:0:0:0:
239,231,74164,2,0,P|220:208|206:178,1,60,2|0,0:0|0:0,0:0:0:0:
140,74,74464,5,0,3:0:0:0:
302,151,74764,1,2,0:2:0:0:
272,78,74914,1,2,3:2:0:0:
272,78,74989,1,0,0:0:0:0:
272,78,75064,2,0,L|262:-6,1,60,10|0,1:2|0:0,0:0:0:0:
357,85,75364,2,0,L|416:77,2,60,2|2|2,3:2|0:2|0:0,0:0:0:0:
302,151,75814,1,2,0:0:0:0:
354,249,75964,2,0,P|297:231|245:236,1,90,2|0,3:2|0:0,0:0:0:0:
228,240,76264,2,0,L|168:232,1,60,10|0,0:0|3:0,0:0:0:0:
57,219,76564,1,2,3:2:0:0:
57,219,76864,70,0,B|51:186|51:186|67:133,1,60,4|0,3:2|0:0,0:0:0:0:
164,104,77164,2,0,L|168:212,1,90,2|0,0:1|0:0,0:0:0:0:
168,232,77464,1,8,0:0:0:0:
253,101,77764,2,0,B|295:170|295:170|241:275,1,180,0|0,3:0|0:0,0:0:0:0:
192,327,78364,1,0,3:0:0:0:
372,368,78664,1,8,0:0:0:0:
372,368,78814,1,0,3:0:0:0:
392,274,78964,2,0,L|386:192,1,60,2|0,0:0|0:0,0:0:0:0:
323,128,79264,38,0,B|359:129|359:129|380:114|380:114|404:126|404:126|457:119,1,120,0|2,3:0|0:1,0:0:0:0:
416,36,79714,1,0,0:0:0:0:
502,64,79864,1,8,0:0:0:0:
454,253,80164,2,0,B|422:208|422:208|349:213|349:213|321:256,1,180,0|0,3:0|0:0,0:0:0:0:
231,343,80764,2,0,L|224:241,1,90,2|0,0:0|0:0,0:0:0:0:
226,214,81064,2,0,L|162:209,1,60,8|0,3:2|3:0,0:0:0:0:
30,199,81364,1,2,3:2:0:0:
30,199,81664,38,0,L|37:111,1,60,4|0,3:2|0:0,0:0:0:0:
117,40,81964,2,0,P|148:73|156:143,1,90,2|0,0:1|0:0,0:0:0:0:
161,154,82264,1,8,0:0:0:0:
325,75,82564,2,0,B|418:46|397:138|517:103,1,180,0|0,3:0|0:0,0:0:0:0:
470,18,83164,1,0,3:0:0:0:
354,161,83464,2,0,L|362:227,1,60,10|0,0:0|0:0,0:0:0:0:
424,288,83764,2,0,B|456:283|456:283|480:297,1,60,2|0,0:0|0:0,0:0:0:0:
340,309,84064,6,0,B|320:306|305:294|305:294|271:311|271:311|252:304|227:308,1,120,2|2,3:1|0:1,0:0:0:0:
164,229,84514,1,2,3:1:0:0:
128,318,84664,1,10,1:2:0:0:
54,156,84964,2,0,L|47:84,2,60,2|2|2,3:1|0:1|1:1,0:0:0:0:
150,131,85414,1,2,1:1:0:0:
150,131,85489,1,0,1:0:0:0:
150,131,85564,2,0,B|179:127|179:127|228:144,1,60,2|0,1:1|1:0,0:0:0:0:
269,229,85864,2,0,L|408:214,1,120,2|2,1:1|1:1,0:0:0:0:
462,240,86314,1,0,1:0:0:0:
449,163,86464,6,0,L|459:40,1,120,2|0,0:1|0:0,0:0:0:0:
326,126,87064,2,0,L|331:59,1,60,2|0,0:0|0:0,0:0:0:0:
251,28,87364,2,0,L|191:32,2,60,2|0|2,0:0|0:0|0:0,0:0:0:0:
323,204,87964,2,0,L|264:209,1,60,2|0,0:0|0:0,0:0:0:0:
193,242,88264,1,2,0:0:0:0:
39,216,88564,1,2,0:0:0:0:
39,216,88714,1,0,0:0:0:0:
99,167,88864,22,0,B|121:200|121:200|101:279,1,120,2|2,0:1|0:0,0:0:0:0:
81,353,89314,1,0,0:0:0:0:
164,325,89464,2,0,P|202:325|242:333,1,60,2|0,0:0|0:0,0:0:0:0:
287,372,89764,1,2,0:0:0:0:
434,307,90064,2,0,B|387:298|367:248|367:248|339:291|295:288,1,180,2|0,0:0|0:0,0:0:0:0:
293,202,90664,2,0,B|249:199|221:242|221:242|201:192|154:183,1,180,2|0,0:0|0:0,0:0:0:0:
138,269,91264,54,0,P|86:230|79:172,1,120,2|0,0:1|1:0,0:0:0:0:
237,123,91864,2,0,P|254:104|261:46,1,60,2|0,0:0|1:0,0:0:0:0:
177,52,92164,2,0,B|150:46|150:46|119:55,2,60,2|0|2,0:0|0:0|0:0,0:0:0:0:
272,206,92764,2,0,B|241:215|241:215|214:209,1,60,2|0,1:2|0:0,0:0:0:0:
117,163,93064,2,0,L|108:245,1,60,2|0,0:0|1:0,0:0:0:0:
102,317,93364,1,2,0:0:0:0:
102,317,93514,1,0,1:0:0:0:
194,305,93664,22,0,B|258:291|244:339|323:330,1,120,2|0,0:0|1:0,0:0:0:0:
373,288,94114,1,0,0:0:0:0:
307,245,94264,2,0,P|305:215|308:185,1,60,2|0,0:0|1:0,0:0:0:0:
380,140,94564,1,2,0:0:0:0:
222,173,94864,54,0,B|203:175|181:166|181:166|145:183|145:183|107:178,1,120,2|2,0:0|0:0,0:0:0:0:
43,132,95314,1,0,0:0:0:0:
35,222,95464,2,0,B|31:258|31:258|46:297|46:297|39:346,1,120,2|0,0:0|1:0,0:0:0:0:
201,368,96064,38,0,P|224:342|334:379,1,120,0|0,3:0|0:0,0:0:0:0:
388,369,96514,1,0,0:0:0:0:
351,270,96664,2,0,L|338:118,1,120,8|0,0:0|3:0,0:0:0:0:
185,26,97264,2,0,L|101:32,1,60,0|0,0:0|0:0,0:0:0:0:
216,104,97564,2,0,L|300:98,1,60,0|0,3:0|0:0,0:0:0:0:
194,188,97864,2,0,B|156:161|156:161|53:168,1,120,8|0,0:0|0:0,0:0:0:0:
53,347,98464,70,0,B|84:338|84:338|110:352|110:352|137:343|137:343|163:355,1,120,2|0,3:1|0:0,0:0:0:0:
215,296,98914,1,0,3:0:0:0:
270,350,99064,2,0,P|290:284|231:220,1,120,8|0,0:0|3:0,0:0:0:0:
221,85,99664,2,0,B|252:76|252:76|303:84,1,60,0|0,0:0|0:0,0:0:0:0:
342,151,99964,2,0,B|369:155|369:155|400:146,1,60,0|0,3:0|0:0,0:0:0:0:
480,93,100264,2,0,L|472:212,1,120,8|0,0:0|0:0,0:0:0:0:
421,358,100864,6,0,B|388:350|370:329|370:329|341:331|311:344,1,120,2|0,3:1|0:0,0:0:0:0:
229,373,101314,1,0,0:0:0:0:
229,373,101389,1,0,0:0:0:0:
229,373,101464,2,0,P|167:378|89:369,1,120,8|0,0:0|3:0,0:0:0:0:
50,321,101914,1,0,0:0:0:0:
123,293,102064,2,0,P|169:296|198:293,1,60,0|0,0:0|0:0,0:0:0:0:
60,239,102364,2,0,P|14:242|-15:239,1,60,0|0,3:0|0:0,0:0:0:0:
105,165,102664,2,0,P|170:149|216:202,1,120,8|2,0:0|0:0,0:0:0:0:
208,179,103264,70,0,B|329:176|258:257|413:247|413:247|452:156|383:82|383:82|384:120|364:155,1,480,2|0,0:0|0:0,0:0:0:0:
317,342,105664,38,0,L|456:335,1,120,14|8,3:2|0:0,0:0:0:0:
436,336,106264,1,8,0:0:0:0:
413,198,106564,2,0,L|323:203,1,90.0000034332277,8|8,0:0|0:0,0:0:0:0:
138,172,107164,2,0,L|142:106,2,60,8|0|8,0:0|0:0|0:0,0:0:0:0:
202,315,107764,1,8,0:0:0:0:
46,304,108064,5,10,0:0:0:0:
46,304,108364,2,0,L|40:368,2,45.0000017166138,8|0|8,0:0|0:0|0:0,0:0:0:0:
129,251,108964,1,8,0:0:0:0:
202,315,109264,1,8,0:0:0:0:
279,258,109564,2,0,P|308:264|349:266,2,60,8|0|8,0:0|0:0|0:0,0:0:0:0:
129,251,110164,1,8,0:0:0:0:
283,70,110464,70,0,P|308:108|308:182,1,120,10|8,0:0|0:0,0:0:0:0:
308,181,111064,1,8,0:0:0:0:
192,160,111364,2,0,P|218:196|224:243,1,90.0000034332277,8|0,0:0|0:0,0:0:0:0:
138,319,111964,2,0,L|140:382,2,45.0000017166138,8|0|0,0:0|0:0|0:0,0:0:0:0:
5,236,112564,1,8,0:0:0:0:
139,150,112864,5,10,0:0:0:0:
139,150,113164,2,0,L|141:89,2,60,8|0|8,0:0|0:0|0:0,0:0:0:0:
215,208,113764,1,8,0:0:0:0:
293,152,114064,1,8,0:0:0:0:
363,222,114364,6,0,B|390:228|390:228|432:222,1,60,10|0,0:0|0:0,0:0:0:0:
457,128,114664,2,0,B|430:122|430:122|388:128,1,60,8|0,0:0|0:0,0:0:0:0:
293,152,114964,1,10,0:0:0:0:
362,313,115264,69,12,3:2:0:0:
209,284,115564,1,8,0:0:0:0:
209,284,115714,1,0,1:0:0:0:
297,156,116014,1,0,0:0:0:0:
297,156,116164,1,8,0:0:0:0:
362,313,116464,2,0,P|418:315|443:312,2,60,8|0|8,0:0|1:0|0:0,0:0:0:0:
329,241,116914,2,0,P|299:240|269:242,2,60,0|8|0,1:0|1:2|0:0,0:0:0:0:
388,190,117364,1,8,0:0:0:0:
291,67,117664,5,8,0:0:0:0:
445,48,117964,1,0,0:0:0:0:
445,48,118114,1,0,1:0:0:0:
392,194,118414,1,0,0:0:0:0:
392,194,118564,1,8,0:0:0:0:
291,67,118864,2,0,L|296:-1,2,60,8|0|8,0:0|1:0|0:0,0:0:0:0:
223,109,119314,2,0,L|218:168,2,60,0|8|0,1:0|1:2|0:0,0:0:0:0:
161,61,119764,1,8,0:0:0:0:
65,184,120064,6,0,P|107:193|131:189,1,60,8|0,3:2|0:0,0:0:0:0:
192,264,120364,2,0,P|234:255|258:259,1,60,8|0,3:2|0:1,0:0:0:0:
312,168,120664,2,0,L|316:32,1,120,8|8,3:2|3:2,0:0:0:0:
481,160,121264,2,0,B|493:187|493:187|482:217,1,60,8|0,3:2|0:1,0:0:0:0:
397,268,121564,2,0,B|370:280|370:280|340:269,1,60,8|0,3:2|1:0,0:0:0:0:
312,168,121864,2,0,B|256:152|256:199|195:184,1,120,8|8,3:2|3:2,0:0:0:0:
29,330,122464,70,0,L|17:255,1,60,8|8,3:2|3:2,0:0:0:0:
114,207,122764,2,0,L|104:266,1,60,8|8,3:2|3:2,0:0:0:0:
198,333,123064,2,0,L|186:258,1,60,8|8,3:2|3:2,0:0:0:0:
272,207,123364,2,0,L|268:236,3,30,0|0|0|0,3:0|3:0|1:0|3:0,0:0:0:0:
443,26,124864,38,0,L|450:110,1,60,4|0,3:2|0:0,0:0:0:0:
352,134,125164,2,0,B|332:109|332:109|347:28,1,90,2|0,0:1|0:0,0:0:0:0:
353,14,125464,1,8,0:0:0:0:
242,141,125764,2,0,P|214:103|73:113,1,180,0|0,3:0|0:0,0:0:0:0:
27,142,126364,1,0,3:0:0:0:
108,288,126664,1,8,0:0:0:0:
108,288,126814,1,0,3:0:0:0:
177,231,126964,2,0,P|211:232|262:238,1,60,2|0,0:0|0:0,0:0:0:0:
345,297,127264,38,0,B|339:270|339:270|349:241|349:241|336:211|336:211|343:182,1,120,0|2,3:0|0:1,0:0:0:0:
393,114,127714,1,0,3:0:0:0:
428,196,127864,1,8,0:0:0:0:
305,102,128164,2,0,B|249:100|249:100|201:133|201:133|125:129,1,180,0|0,3:0|0:0,0:0:0:0:
37,165,128764,2,0,B|57:135|57:135|42:66,1,90,2|0,0:0|0:0,0:0:0:0:
42,43,129064,2,0,L|127:38,1,60,10|0,3:2|3:0,0:0:0:0:
217,27,129364,2,0,L|212:112,1,60,2|0,3:2|0:0,0:0:0:0:
163,204,129664,37,4,3:2:0:0:
163,204,129964,2,0,B|281:211,1,90,2|0,0:1|0:0,0:0:0:0:
291,214,130264,1,8,0:0:0:0:
446,320,130564,2,0,B|401:279|358:280|358:280|331:311|282:310,1,180,0|0,3:0|0:0,0:0:0:0:
207,357,131164,1,0,3:0:0:0:
291,214,131464,2,0,P|295:167|291:133,1,60,8|0,0:0|3:0,0:0:0:0:
206,65,131764,2,0,P|205:94|209:124,1,60,2|0,0:0|0:0,0:0:0:0:
173,231,132064,5,2,3:2:0:0:
286,76,132364,1,2,0:2:0:0:
366,112,132514,1,2,3:2:0:0:
366,112,132589,1,0,0:0:0:0:
366,112,132664,2,0,L|450:102,1,60,10|0,1:2|0:0,0:0:0:0:
355,193,132964,2,0,B|342:220|342:220|349:257,2,60,2|2|2,3:2|0:0|0:0,0:0:0:0:
429,235,133414,1,2,0:0:0:0:
405,324,133564,2,0,B|365:345|365:345|320:340,1,90,2|0,3:0|0:0,0:0:0:0:
290,336,133864,2,0,P|263:330|230:328,1,60,10|0,3:2|3:0,0:0:0:0:
126,346,134164,1,2,3:2:0:0:
126,346,134464,70,0,P|120:311|119:263,1,60,4|0,3:2|0:0,0:0:0:0:
187,187,134764,2,0,P|142:201|96:185,1,90,2|0,0:1|0:0,0:0:0:0:
73,163,135064,1,8,0:0:0:0:
261,141,135364,2,0,B|305:230|227:226|267:321,1,180,0|0,3:0|0:0,0:0:0:0:
347,268,135964,1,0,3:0:0:0:
512,219,136264,1,8,0:0:0:0:
512,219,136414,1,0,3:0:0:0:
447,138,136564,2,0,L|436:57,1,60,2|0,0:0|0:0,0:0:0:0:
345,55,136864,38,0,B|315:57|315:57|301:66|301:66|264:57|264:57|251:64|251:64|228:68,1,120,0|2,3:0|0:1,0:0:0:0:
141,85,137314,1,0,3:0:0:0:
203,151,137464,1,8,0:0:0:0:
62,10,137764,2,0,B|63:54|63:54|48:90|67:127|67:127|70:186,1,180,0|0,3:0|0:0,0:0:0:0:
67,303,138364,2,0,B|97:291|97:291|157:296,1,90,2|0,0:0|0:0,0:0:0:0:
193,297,138664,2,0,P|200:268|199:238,1,60,10|0,3:2|3:0,0:0:0:0:
159,128,138964,1,0,3:0:0:0:
159,128,139264,38,0,L|229:122,1,60,4|0,3:2|0:0,0:0:0:0:
327,71,139564,2,0,P|316:105|328:178,1,90,2|0,0:1|0:0,0:0:0:0:
336,193,139864,1,8,0:0:0:0:
451,307,140164,2,0,B|419:300|390:287|390:287|338:303|338:303|311:289|273:286,1,180,0|0,3:0|0:0,0:0:0:0:
195,262,140764,1,0,3:0:0:0:
55,357,141064,2,0,P|21:352|-7:342,1,60,10|0,0:0|0:0,0:0:0:0:
50,265,141364,2,0,P|78:255|108:251,1,60,2|0,0:0|0:0,0:0:0:0:
192,340,141664,6,0,L|199:193,1,120,2|2,3:1|0:0,0:0:0:0:
158,139,142114,1,2,3:1:0:0:
249,144,142264,1,10,1:0:0:0:
155,42,142564,2,0,P|125:43|98:56,2,60,2|2|2,3:1|0:1|1:0,0:0:0:0:
270,52,143014,1,0,1:0:0:0:
270,52,143089,1,0,1:0:0:0:
270,52,143164,2,0,P|312:74|323:93,1,60,2|0,1:0|1:0,0:0:0:0:
291,173,143464,2,0,B|357:201|353:146|433:180,1,120,2|2,1:0|1:0,0:0:0:0:
389,254,143914,1,0,1:0:0:0:
466,233,144064,53,4,3:2:0:0:
466,233,144364,2,0,B|497:179|497:179|457:54,1,180.000006866455,0|0,0:0|0:0,0:0:0:0:
461,66,145264,2,0,L|358:72,2,90.0000034332277,2|0|2,0:0|0:0|0:0,0:0:0:0:
386,159,146164,1,0,3:0:0:0:
292,128,146464,37,0,3:0:0:0:
292,128,146764,2,0,B|238:96|238:96|125:132,1,180.000006866455,0|0,0:0|0:0,0:0:0:0:
126,131,147664,2,0,L|129:41,2,90.0000034332277,2|0|2,0:0|0:0|0:0,0:0:0:0:
131,289,148564,1,0,0:0:0:0:
274,365,148864,37,4,3:2:0:0:
274,365,149164,2,0,B|242:311|242:311|278:198,1,180.000006866455,0|0,0:0|0:0,0:0:0:0:
414,211,150064,2,0,P|452:208|504:199,1,90.0000034332277,2|0,0:0|0:0,0:0:0:0:
394,126,150664,2,0,P|356:123|304:114,1,90.0000034332277,2|0,0:0|3:0,0:0:0:0:
423,44,151264,37,2,3:2:0:0:
208,47,151864,2,0,P|148:106|213:174,2,180.000006866455,2|2|2,0:0|0:0|0:0,0:0:0:0:
374,279,153664,5,12,0:0:0:0:
341,294,153964,1,8,0:0:0:0:
307,280,154264,1,8,0:0:0:0:
273,293,154564,2,0,L|199:305,1,60,10|0,0:0|0:0,0:0:0:0:
166,364,154864,2,0,P|138:309|163:241,2,120,10|8|10,0:0|0:0|0:0,0:0:0:0:
32,283,155764,1,10,0:0:0:0:
137,167,156064,69,8,0:0:0:0:
168,184,156364,1,8,0:0:0:0:
201,170,156664,1,8,0:0:0:0:
232,188,156964,1,8,0:0:0:0:
265,174,157264,2,0,L|275:98,2,60,10|0|8,0:0|0:0|0:0,0:0:0:0:
334,225,157714,2,0,P|359:220|398:223,2,60,2|8|0,0:0|0:0|0:0,0:0:0:0:
273,284,158164,2,0,L|280:343,1,60,10|0,0:0|0:0,0:0:0:0:
199,361,158464,6,0,L|67:346,1,120,10|8,0:0|0:0,0:0:0:0:
75,191,159064,2,0,L|207:176,1,120,2|8,0:0|0:0,0:0:0:0:
405,241,159664,2,0,L|338:233,1,60,10|0,0:0|0:0,0:0:0:0:
281,285,159964,2,0,B|254:247|254:247|281:153,2,120,10|10|10,0:0|0:0|0:0,0:0:0:0:
478,283,160864,6,0,P|489:251|480:206,1,60,8|8,3:2|3:2,0:0:0:0:
359,204,161164,2,0,P|381:229|424:244,1,60,8|8,3:2|3:2,0:0:0:0:
488,133,161464,2,0,P|454:139|420:169,1,60,8|8,3:2|3:2,0:0:0:0:
310,125,161764,2,0,P|296:118|281:114,3,30,0|0|0|0,3:0|3:0|3:0|3:0,0:0:0:0:
67,357,163264,22,0,B|43:328|43:328|65:263,1,90,4|0,3:2|0:0,0:0:0:0:
93,257,163564,2,0,L|170:252,1,60,10|8,1:0|1:0,0:0:0:0:
245,244,163864,1,0,3:0:0:0:
131,49,164164,2,0,B|123:127,1,60,8|0,1:0|0:0,0:0:0:0:
187,176,164464,1,0,3:0:0:0:
285,52,164764,1,8,1:0:0:0:
285,52,164914,1,0,0:0:0:0:
363,102,165064,2,0,P|404:97|428:91,1,60,0|0,3:0|0:0,0:0:0:0:
325,178,165364,2,0,P|295:171|265:168,1,60,8|8,1:0|1:0,0:0:0:0:
331,258,165664,38,0,P|388:239|447:231,1,120,4|10,3:2|0:1,0:0:0:0:
434,308,166114,1,8,1:0:0:0:
509,287,166264,1,0,3:2:0:0:
299,348,166564,2,0,P|241:329|182:321,1,120,12|0,1:2|3:0,0:0:0:0:
0,227,167164,2,0,P|46:216|78:203,1,60,12|0,1:2|0:0,0:0:0:0:
151,143,167464,2,0,L|144:243,1,90,4|0,3:2|0:0,0:0:0:0:
182,241,167764,2,0,L|251:245,1,60,12|8,1:2|1:0,0:0:0:0:
353,253,168064,37,0,3:0:0:0:
353,253,168364,2,0,B|365:223|354:191,1,60,10|8,1:0|1:0,0:0:0:0:
264,132,168664,1,0,3:2:0:0:
470,56,168964,2,0,B|478:87|478:87|465:133,1,60,8|0,1:0|0:0,0:0:0:0:
447,208,169264,1,0,3:2:0:0:
323,49,169564,2,0,L|390:45,1,60,8|0,1:0|0:0,0:0:0:0:
334,149,169864,2,0,B|293:138|293:138|247:152,1,90,2|0,3:2|0:0,0:0:0:0:
213,171,170164,2,0,P|198:132|199:109,1,60,10|8,1:0|1:0,0:0:0:0:
225,16,170464,5,2,3:2:0:0:
74,84,170764,2,0,L|-3:81,2,60,10|10|2,0:2|1:2|3:2,0:0:0:0:
213,171,171364,2,0,L|290:168,2,60,2|2|10,1:2|0:2|3:2,0:0:0:0:
126,164,171814,1,2,0:2:0:0:
191,259,171964,2,0,B|222:265|222:265|249:257,1,60,10|0,1:2|0:0,0:0:0:0:
102,256,172264,2,0,B|71:250|71:250|43:257,1,60,10|8,3:2|1:0,0:0:0:0:
114,360,172564,2,0,B|145:366|145:366|172:358,1,60,10|0,1:2|1:0,0:0:0:0:
210,347,172789,1,0,1:0:0:0:
210,347,172864,70,0,P|252:339|326:361,1,120,0|10,3:2|1:0,0:0:0:0:
345,284,173314,1,8,1:0:0:0:
402,337,173464,1,0,3:2:0:0:
277,199,173764,2,0,B|268:172|268:172|283:132,1,60,8|0,1:0|0:0,0:0:0:0:
355,103,174064,1,0,3:2:0:0:
202,242,174364,2,0,L|126:237,1,60,8|0,1:0|0:0,0:0:0:0:
58,195,174664,2,0,P|102:151|166:152,1,120,0|10,3:2|1:0,0:0:0:0:
248,173,175114,1,8,1:0:0:0:
225,87,175264,38,0,B|321:80|321:80|300:106,1,120,4|10,3:2|1:0,0:0:0:0:
330,172,175714,1,8,1:0:0:0:
389,121,175864,1,0,3:2:0:0:
195,265,176164,2,0,B|99:258|99:258|120:284,1,120,12|0,1:2|3:2,0:0:0:0:
281,309,176764,2,0,B|291:285|291:285|286:247,1,60,12|0,1:2|0:0,0:0:0:0:
213,178,177064,2,0,L|109:171,1,90,4|0,3:2|0:0,0:0:0:0:
83,169,177364,2,0,B|73:145|73:145|78:107,1,60,12|8,1:2|1:0,0:0:0:0:
157,25,177664,37,0,3:2:0:0:
157,25,177964,2,0,P|210:24|240:34,1,60,10|8,1:0|1:0,0:0:0:0:
254,102,178264,1,0,3:2:0:0:
406,34,178564,2,0,B|416:58|416:58|411:96,1,60,8|0,1:0|0:0,0:0:0:0:
376,181,178864,1,0,3:2:0:0:
159,253,179164,2,0,L|244:258,1,60,8|0,1:0|0:0,0:0:0:0:
287,304,179464,2,0,B|308:277|308:277|294:222,1,90,2|0,3:2|0:0,0:0:0:0:
280,186,179764,2,0,P|282:149|294:122,1,60,10|8,1:0|1:0,0:0:0:0:
388,210,180064,6,0,L|395:348,1,120,2|2,3:1|0:1,0:0:0:0:
324,381,180514,1,2,1:0:0:0:
287,304,180664,1,2,3:1:0:0:
139,374,180964,2,0,L|72:369,2,60,2|2|2,1:0|0:1|3:1,0:0:0:0:
198,303,181414,1,2,0:1:0:0:
99,270,181564,2,0,B|90:238|90:238|103:207,1,60,10|0,1:2|0:0,0:0:0:0:
202,139,181864,2,0,B|211:171|211:171|198:202,1,60,10|8,3:2|1:0,0:0:0:0:
102,101,182164,2,0,B|93:69|93:69|106:38,1,60,10|0,1:2|1:0,0:0:0:0:
135,21,182389,1,0,1:0:0:0:
135,21,182464,70,0,B|174:27|174:27|199:14|199:14|217:25|249:25,1,120,4|10,3:2|1:0,0:0:0:0:
298,85,182914,1,8,1:0:0:0:
331,14,183064,1,0,3:2:0:0:
473,155,183364,2,0,B|441:149|441:149|402:158,1,60,8|0,1:0|0:0,0:0:0:0:
328,177,183664,1,0,3:2:0:0:
440,367,183964,2,0,L|441:293,1,60,8|0,1:0|0:0,0:0:0:0:
442,229,184264,1,0,3:2:0:0:
314,328,184564,2,0,P|274:328|244:326,1,60,8|8,1:0|1:0,0:0:0:0:
181,234,184864,38,0,B|245:208|236:264|317:231,1,120,4|10,3:2|1:0,0:0:0:0:
276,162,185314,1,8,1:0:0:0:
352,178,185464,1,0,3:2:0:0:
130,132,185764,2,0,B|66:106|75:162|-6:129,1,120,12|0,1:2|3:2,0:0:0:0:
212,24,186364,2,0,P|214:64|207:97,1,60,12|0,1:2|0:0,0:0:0:0:
190,208,186664,2,0,P|230:204|286:250,1,90,4|0,3:2|0:0,0:0:0:0:
310,218,186964,2,0,P|306:188|308:158,1,60,12|8,1:2|1:0,0:0:0:0:
406,82,187264,37,0,3:0:0:0:
468,255,187564,2,0,B|437:263|437:263|410:253,1,60,10|8,1:0|1:0,0:0:0:0:
441,170,187864,1,0,3:2:0:0:
364,348,188164,2,0,L|285:342,1,60,8|0,1:0|0:0,0:0:0:0:
226,330,188464,1,0,3:2:0:0:
309,164,188764,2,0,L|230:170,1,60,8|0,1:0|0:0,0:0:0:0:
173,216,189064,2,0,B|151:190|151:190|172:108,1,90,0|0,3:2|0:0,0:0:0:0:
160,97,189364,2,0,L|100:101,1,60,8|8,1:0|1:0,0:0:0:0:
35,200,189664,5,2,3:2:0:0:
198,301,189964,2,0,P|202:345|201:366,2,60,10|10|2,0:2|1:2|3:2,0:0:0:0:
309,164,190564,2,0,P|305:120|306:99,2,60,2|2|10,1:2|0:2|3:2,0:0:0:0:
269,244,191014,1,2,0:2:0:0:
354,278,191164,2,0,B|382:271|382:271|411:281,1,60,10|0,1:2|0:0,0:0:0:0:
292,328,191464,2,0,B|263:334|263:334|234:324,1,60,10|8,3:2|1:0,0:0:0:0:
131,256,191764,2,0,B|159:249|159:249|188:259,1,60,10|0,1:2|1:0,0:0:0:0:
224,244,191989,1,0,1:0:0:0:
224,244,192064,70,0,L|229:109,1,120,0|10,3:2|1:0,0:0:0:0:
272,59,192514,1,8,1:0:0:0:
194,55,192664,1,0,3:2:0:0:
391,34,192964,2,0,B|400:68|400:68|384:106,1,60,8|0,1:0|0:0,0:0:0:0:
318,143,193264,1,0,3:2:0:0:
441,301,193564,2,0,L|443:227,1,60,8|0,1:0|0:0,0:0:0:0:
443,159,193864,1,0,3:2:0:0:
333,305,194164,2,0,P|294:308|261:298,1,60,8|8,1:0|1:0,0:0:0:0:
216,207,194464,38,0,B|187:208|161:190|161:190|147:220|118:233,1,120,4|10,3:2|1:0,0:0:0:0:
91,160,194914,1,8,1:0:0:0:
42,221,195064,1,0,3:2:0:0:
225,98,195364,2,0,B|254:99|280:81|280:81|294:111|322:124,1,120,12|0,1:2|3:2,0:0:0:0:
479,293,195964,2,0,L|483:213,1,60,12|0,1:2|0:0,0:0:0:0:
410,150,196264,2,0,B|401:169|390:190|390:190|396:208|410:246,1,90,4|0,3:2|0:0,0:0:0:0:
395,271,196564,2,0,P|354:277|318:269,1,60,12|8,1:2|1:0,0:0:0:0:
233,237,196864,37,0,3:2:0:0:
333,40,197164,2,0,B|341:69|341:69|333:102,1,60,10|8,1:0|1:0,0:0:0:0:
279,160,197464,1,0,3:2:0:0:
102,46,197764,2,0,L|173:44,1,60,8|0,1:0|0:0,0:0:0:0:
244,70,198064,1,0,3:2:0:0:
151,277,198364,2,0,P|144:231|147:215,1,60,8|0,1:0|0:0,0:0:0:0:
133,130,198664,2,0,B|102:142|102:142|64:135,1,60,2|0,3:2|0:0,0:0:0:0:
215,170,198964,2,0,B|246:158|246:158|284:165,1,60,8|8,1:0|1:0,0:0:0:0:
357,255,199264,6,0,P|370:198|365:126,1,120,2|10,3:1|0:1,0:0:0:0:
304,90,199714,1,10,1:1:0:0:
376,60,199864,1,2,3:1:0:0:
248,243,200164,2,0,P|217:244|183:256,2,60,8|2|2,0:1|0:1|3:1,0:0:0:0:
290,328,200614,1,2,0:1:0:0:
370,284,200764,2,0,B|383:317|383:317|377:355,1,60,10|0,1:2|0:0,0:0:0:0:
321,216,201064,2,0,B|343:188|343:188|378:174,1,60,2|8,3:2|1:0,0:0:0:0:
469,253,201364,2,0,L|477:335,1,60,10|0,1:2|1:0,0:0:0:0:
480,351,201589,1,0,1:0:0:0:
480,351,201664,1,0,0:0:0:0:
