osu file format v14

[General]
AudioFilename: audio.mp3
AudioLeadIn: 0
PreviewTime: 86908
Countdown: 0
SampleSet: Soft
StackLeniency: 0.4
Mode: 0
LetterboxInBreaks: 0
WidescreenStoryboard: 0

[Editor]
Bookmarks: 75295
DistanceSpacing: 1.6
BeatDivisor: 8
GridSize: 32
TimelineZoom: 2.999999

[Metadata]
Title:FAKE LOVE
TitleUnicode:FAKE LOVE
Artist:BTS
ArtistUnicode:방탄소년단
Creator:DeRandom Otaku
Version:Frontier's Hyper
Source:
Tags:love yourself 轉 tear bangtan boys sonyeondan bangtansonyeondan beyond the scene bulletproof boy scouts bighit entertainment 빅히트엔터테인먼트 랩몬스터 슈가 진 제이홉 지민 뷔 정국 jungkook rap monster j-hope jimin v suga jin hot yoongi k-pop kpop trap Ren FunnyA -_Frontier_- keyboard akitoshi corinn laura shocolatte jung kook -laura-
BeatmapID:1660656
BeatmapSetID:787712

[Difficulty]
HPDrainRate:6
CircleSize:4.5
OverallDifficulty:8
ApproachRate:8.6
SliderMultiplier:2.2
SliderTickRate:1

[Events]
//Background and Video events
0,0,"BG.jpg",0,0
//Break Periods
2,63108,74521
2,150005,161346
//Storyboard Layer 0 (Background)
//Storyboard Layer 1 (Fail)
//Storyboard Layer 2 (Pass)
//Storyboard Layer 3 (Foreground)
//Storyboard Sound Samples

[TimingPoints]
393,774.193548387097,4,2,0,35,1,0
973,774.193548387097,4,2,0,50,1,0
13360,-100,4,2,0,50,0,0
24585,-100,4,2,0,55,0,0
25747,-66.6666666666667,4,2,0,82,0,1
36779,-83.3333333333333,4,2,0,82,0,1
38134,-400,4,2,0,75,0,0
38327,-400,4,2,0,55,0,0
40456,-200,4,2,0,55,0,0
41231,-400,4,2,0,55,0,0
43553,-100,4,2,0,55,0,0
44521,-200,4,2,0,55,0,0
45102,-400,4,2,0,55,0,0
46650,-200,4,2,0,55,0,0
47424,-100,4,2,0,55,0,0
47618,-133.333333333333,4,2,0,55,0,0
48198,-400,4,2,0,55,0,0
49747,-150.0000015,4,2,0,55,0,0
50134,-66.6666666666667,4,2,0,55,0,0
50521,-66.6666666666667,4,2,0,60,0,0
54779,-50,4,2,0,60,0,0
55166,-66.6666666666667,4,2,0,60,0,0
59424,-33.3333333333333,4,2,0,60,0,0
59811,-66.6666666666667,4,2,0,60,0,0
62908,-100,4,2,0,50,0,0
86908,-100,4,2,0,50,0,0
87682,-66.6666666666667,4,2,0,70,0,1
88069,-66.6666666666667,4,2,0,70,0,0
112456,-66.6666666666667,4,2,0,82,0,1
124843,-83.3333333333333,4,2,0,58,0,0
137231,-75.7575757575758,4,2,0,60,0,0
140327,-50,4,2,0,60,0,0
140714,-75.7575757575758,4,2,0,60,0,0
143424,-50,4,2,0,60,0,0
143811,-75.7575757575758,4,2,0,60,0,0
144392,-75.7575757575758,4,2,0,5,0,0
144489,-75.7575757575758,4,2,0,60,0,0
146521,-50,4,2,0,60,0,0
146908,-75.7575757575758,4,2,0,60,0,0
149618,-100,4,2,0,60,0,0
160843,-1000,4,2,0,60,0,0
162005,-100,4,2,0,60,0,0
174392,-66.6666666666667,4,2,0,70,0,1
174779,-66.6666666666667,4,2,0,70,0,0
199166,-66.6666666666667,4,2,0,82,0,1
211553,-100,4,2,0,40,0,0
235360,-66.6666666666667,4,2,0,40,0,0
235650,-66.6666666666667,4,2,0,5,0,0
235747,-50,4,2,0,40,0,0
235940,-50,4,2,0,5,0,0

[Colours]
Combo1 : 165,74,255
Combo2 : 170,85,85
Combo3 : 128,128,192
Combo4 : 176,176,176

[HitObjects]
206,154,393,6,0,P|175:158|141:164,2,55,0|0|0,0:0|0:0|0:0,0:0:0:0:
283,112,973,6,0,P|312:112|344:129,1,55,2|0,0:0|0:0,0:0:0:0:
419,95,1360,2,0,P|385:138|384:192,2,110,0|0|0,0:0|0:0|0:0,0:0:0:0:
467,169,2327,1,0,0:0:0:0:
445,252,2521,2,0,P|423:270|381:279,1,55,2|0,0:0|0:0,0:0:0:0:
330,334,2908,2,0,P|356:343|378:361,1,55,0|0,0:0|0:0,0:0:0:0:
255,256,3295,2,0,P|283:252|310:249,1,55,8|0,0:0|0:0,0:0:0:0:
170,331,3682,2,0,P|197:335|225:337,1,55,0|0,0:0|0:0,0:0:0:0:
108,268,4069,6,0,P|100:227|149:173,1,110,2|2,0:0|0:0,0:0:0:0:
71,119,4650,2,0,B|138:130|138:130|172:106,2,110,0|2|0,0:0|0:0|0:0,0:0:0:0:
163,35,5618,2,0,P|213:45|244:103,1,110,2|2,0:0|0:0,0:0:0:0:
218,158,6198,2,0,P|263:129|315:142,1,110,2|0,0:0|0:0,0:0:0:0:
372,210,6779,2,0,P|365:244|361:280,1,55,0|0,0:0|0:0,0:0:0:0:
432,317,7166,6,0,P|459:313|486:307,1,55,2|0,0:0|0:0,0:0:0:0:
350,349,7553,2,0,B|315:344|315:344|278:357|278:357|243:353,2,110,0|0|0,0:0|0:0|0:0,0:0:0:0:
362,264,8521,1,0,0:0:0:0:
362,264,8714,2,0,P|366:236|372:210,1,55,2|0,0:0|0:0,0:0:0:0:
449,166,9102,2,0,P|455:193|459:221,1,55,0|0,0:0|0:0,0:0:0:0:
374,120,9489,2,0,P|346:107|305:106,1,55,0|0,0:0|0:0,0:0:0:0:
260,32,9876,2,0,P|287:28|312:16,1,55,0|0,0:0|0:0,0:0:0:0:
183,12,10263,6,0,P|223:48|219:106,1,110,2|2,0:0|0:0,0:0:0:0:
160,164,10843,2,0,P|120:155|35:152,2,110,0|2|0,0:0|0:0|0:0,0:0:0:0:
245,184,11811,2,0,B|287:197|287:197|367:179,1,110,2|2,0:0|0:0,0:0:0:0:
438,170,12392,2,0,P|394:190|397:247,1,110,2|0,0:0|0:0,0:0:0:0:
459,306,12973,2,0,L|513:297,1,55,0|0,0:0|0:0,0:0:0:0:
395,367,13360,6,0,L|367:362,1,27.5,6|0,0:0|0:0,0:0:0:0:
274,269,13747,2,0,L|246:273,1,27.5,0|0,0:0|0:0,0:0:0:0:
154,367,14134,2,0,P|134:330|151:263,1,110,0|0,0:0|0:0,0:0:0:0:
206,200,14714,1,0,0:0:0:0:
139,142,14908,2,0,P|104:146|76:148,1,55,2|0,0:0|0:0,0:0:0:0:
223,113,15295,2,0,B|280:101|266:151|323:140,1,110,0|0,0:0|0:0,0:0:0:0:
402,181,15876,1,0,0:0:0:0:
475,133,16069,2,0,P|480:105|483:78,1,55,0|0,0:0|0:0,0:0:0:0:
481,222,16456,6,0,L|485:249,1,27.5,2|0,0:0|0:0,0:0:0:0:
389,340,16843,2,0,L|393:312,1,27.5,0|0,0:0|0:0,0:0:0:0:
309,209,17231,2,0,P|278:193|198:214,1,110,0|0,0:0|0:0,0:0:0:0:
144,268,17811,1,0,0:0:0:0:
82,205,18005,2,0,P|85:177|88:150,1,55,2|0,0:0|0:0,0:0:0:0:
35,79,18392,2,0,B|67:102|67:102|151:91,1,110,0|0,0:0|0:0,0:0:0:0:
212,47,18973,2,0,P|219:20|227:-11,2,55,0|0|0,0:0|0:0|0:0,0:0:0:0:
214,134,19553,6,0,P|254:143|286:134,1,55,2|0,0:0|0:0,0:0:0:0:
371,60,19940,2,0,P|344:59|318:68,1,55,0|0,0:0|0:0,0:0:0:0:
349,200,20327,2,0,P|352:173|357:146,1,55,2|0,0:0|0:0,0:0:0:0:
438,115,20714,1,0,0:0:0:0:
438,115,21102,2,0,P|442:142|445:169,1,55,2|0,0:0|0:0,0:0:0:0:
502,236,21489,2,0,P|503:273|491:308,1,55,0|0,0:0|0:0,0:0:0:0:
388,329,21876,1,2,0:0:0:0:
321,287,22069,1,0,0:0:0:0:
362,221,22263,1,0,0:0:0:0:
429,262,22456,1,0,0:0:0:0:
388,329,22650,6,0,P|335:331|270:361,1,110,2|2,0:0|0:0,0:0:0:0:
220,289,23231,1,0,0:0:0:0:
102,347,23424,2,0,P|129:348|157:351,1,55,0|2,0:0|0:0,0:0:0:0:
281,344,23811,1,0,0:0:0:0:
219,281,24005,1,0,0:0:0:0:
101,339,24198,2,0,P|128:340|155:342,1,55,2|0,0:0|0:0,0:0:0:0:
280,336,24586,5,0,3:0:0:0:
218,273,24780,1,0,3:0:0:0:
328,166,24973,1,0,3:0:0:0:
304,251,25167,1,0,3:0:0:0:
157,210,25360,2,0,P|184:202|212:194,1,55,0|0,3:0|0:0,0:0:0:0:
386,258,25747,6,0,P|344:253|303:250,1,82.5000031471254,6|2,1:2|0:2,0:0:0:0:
428,183,26134,2,0,P|461:213|455:307,1,123.750004720688,2|0,0:2|0:0,0:0:0:0:
455,302,26521,2,0,P|458:343|462:384,1,82.5000031471254,8|0,0:0|0:0,0:0:0:0:
352,288,26908,2,0,P|355:246|359:205,1,82.5000031471254,0|0,1:0|0:0,0:0:0:0:
203,357,27295,6,0,P|243:361|280:343,1,82.5000031471254,2|2,0:0|0:0,0:0:0:0:
206,206,27682,2,0,P|130:199|56:192,1,123.750004720688,2|0,1:2|0:0,0:0:0:0:
68,207,28069,2,0,P|50:170|54:129,1,82.5000031471254,8|0,0:0|0:0,0:0:0:0:
192,32,28456,2,0,P|196:72|178:109,1,82.5000031471254,0|0,0:0|0:0,0:0:0:0:
5,44,28843,6,0,P|46:40|87:37,1,82.5000031471254,2|2,1:2|0:2,0:0:0:0:
235,183,29231,2,0,P|185:150|118:165,1,123.750004720688,2|0,0:2|0:0,0:0:0:0:
96,183,29618,2,0,P|99:224|103:265,1,82.5000031471254,8|0,0:0|0:0,0:0:0:0:
223,352,30005,2,0,P|226:310|230:269,1,82.5000031471254,0|0,0:0|0:0,0:0:0:0:
235,183,30392,5,0,0:0:0:0:
235,183,30779,1,2,1:2:0:0:
156,221,30973,1,2,1:2:0:0:
308,231,31166,1,10,0:0:0:0:
168,129,31360,1,2,0:0:0:0:
229,269,31553,1,2,0:0:0:0:
248,97,31747,1,2,0:0:0:0:
156,221,31940,6,0,P|127:227|71:212,1,82.5000031471254,2|2,1:2|0:2,0:0:0:0:
41,99,32327,2,0,P|107:80|160:128,1,123.750004720688,2|0,0:2|0:0,0:0:0:0:
168,129,32714,2,0,P|171:87|175:46,1,82.5000031471254,8|0,0:0|0:0,0:0:0:0:
314,145,33102,2,0,P|356:142|397:138,1,82.5000031471254,0|0,0:0|0:0,0:0:0:0:
512,256,33489,6,0,P|473:234|431:237,1,82.5000031471254,2|2,0:0|0:0,0:0:0:0:
322,336,33876,2,0,P|389:347|429:297,1,123.750004720688,2|0,1:2|0:0,0:0:0:0:
443,317,34263,2,0,P|440:275|436:234,1,82.5000031471254,8|0,0:0|0:0,0:0:0:0:
314,145,34650,2,0,P|311:187|307:228,1,82.5000031471254,0|0,0:0|0:0,0:0:0:0:
371,82,35037,6,0,P|332:60|290:63,1,82.5000031471254,2|2,1:2|0:0,0:0:0:0:
92,149,35424,2,0,B|138:155|175:161|175:161|229:139,1,123.750004720688,2|0,0:0|0:0,0:0:0:0:
221,132,35811,2,0,P|221:91|200:56,1,82.5000031471254,8|0,0:0|0:0,0:0:0:0:
32,92,36198,2,0,P|10:126|11:167,1,82.5000031471254,0|0,0:0|0:0,0:0:0:0:
159,256,36585,6,0,P|106:231|27:294,1,165.000006294251,0|0,0:0|1:0,0:0:0:0:
192,352,37166,1,0,1:0:0:0:
271,302,37360,2,0,P|282:261|284:211,1,65.9999979858399,8|0,0:0|0:0,0:0:0:0:
203,125,37747,2,0,P|207:157|216:189,1,65.9999979858399,0|0,0:0|0:0,0:0:0:0:
384,288,38134,6,0,L|442:283,1,55,6|8,1:2|0:0,0:0:0:0:
375,217,39295,2,0,L|433:212,1,55,0|0,1:0|1:0,0:0:0:0:
351,148,40456,1,8,0:0:0:0:
420,141,40650,2,0,L|366:146,1,55,0|0,1:0|0:0,0:0:0:0:
224,128,41231,6,0,P|251:131|273:146,1,55,2|8,1:2|0:0,0:0:0:0:
170,75,42392,2,0,P|191:57|218:53,1,55,0|0,0:0|1:0,0:0:0:0:
292,78,43360,1,0,1:0:0:0:
152,149,43553,1,8,0:0:0:0:
94,75,43747,2,0,P|97:47|112:25,2,55,0|0|0,1:0|0:0|0:0,0:0:0:0:
152,149,44327,6,0,L|157:111,1,27.5,2|0,1:2|0:0,0:0:0:0:
128,247,44521,2,0,B|153:234|153:234|181:240,1,55,0|0,0:0|0:0,0:0:0:0:
234,183,45102,6,0,B|272:196|272:196|295:231,1,82.5,8|0,0:0|1:0,0:0:0:0:
375,299,46650,1,8,0:0:0:0:
374,228,46843,2,0,B|385:252|385:252|380:279,1,55,0|0,1:0|0:0,0:0:0:0:
480,352,47424,6,0,L|451:347,1,27.5,2|0,1:2|0:0,0:0:0:0:
306,344,47618,2,0,P|336:340|383:372,1,82.5000031471254,0|0,0:0|0:0,0:0:0:0:
243,374,48198,6,0,L|256:293,1,82.5,8|0,0:0|1:0,0:0:0:0:
216,232,49747,2,0,B|203:206|203:206|209:178,1,55,0|0,3:0|3:0,0:0:0:0:
160,128,50134,6,0,L|304:152,1,123.750004720688,0|0,3:0|3:0,0:0:0:0:
297,161,50521,5,4,1:2:0:0:
297,161,50618,1,0,0:0:0:0:
384,64,50908,5,0,0:0:0:0:
384,64,51005,1,0,0:0:0:0:
424,187,51295,6,0,P|431:234|386:285,1,82.5000031471254,8|0,0:0|0:0,0:0:0:0:
268,322,51682,2,0,B|338:311|338:311|371:312|381:351,1,123.750004720688,0|0,1:0|0:0,0:0:0:0:
390,365,52069,5,0,0:0:0:0:
390,365,52166,1,0,0:0:0:0:
256,352,52456,5,0,1:0:0:0:
256,352,52553,1,0,0:0:0:0:
122,339,52843,6,0,P|110:293|139:252,1,82.5000031471254,8|0,0:0|0:0,0:0:0:0:
73,200,53231,2,0,L|224:224,1,123.750004720688,0|0,0:0|0:0,0:0:0:0:
218,215,53618,5,0,1:0:0:0:
218,215,53715,1,0,0:0:0:0:
305,312,54005,5,0,0:0:0:0:
305,312,54102,1,0,0:0:0:0:
345,189,54392,6,0,P|352:142|307:91,1,82.5000031471254,8|0,0:0|0:0,0:0:0:0:
416,32,54779,2,0,B|375:75|375:75|218:50,1,165,0|0,0:0|0:0,0:0:0:0:
252,43,55166,5,0,0:0:0:0:
252,43,55263,1,0,0:0:0:0:
265,177,55553,5,0,1:0:0:0:
265,177,55650,1,0,0:0:0:0:
278,311,55940,6,0,P|323:318|376:329,1,82.5000031471254,8|0,0:0|0:0,0:0:0:0:
512,224,56327,2,0,P|463:211|395:263,1,123.750004720688,0|0,0:0|0:0,0:0:0:0:
403,246,56714,6,0,L|389:184,3,55.0000020980836,0|0|0|0,1:0|0:0|0:0|0:0,0:0:0:0:
480,64,57489,2,0,L|433:107,3,55.0000020980836,8|0|0|0,0:0|0:0|0:0|0:0,0:0:0:0:
284,89,58263,6,0,L|344:107,2,55.0000020980836,0|0|0,0:0|0:0|0:0,0:0:0:0:
163,51,58650,2,0,L|223:32,2,55.0000020980836,0|0|0,1:0|0:0|0:0,0:0:0:0:
89,107,59037,6,0,P|145:96|195:160,1,123.750004720688,8|0,0:0|0:0,0:0:0:0:
191,137,59424,6,0,L|183:195,1,41.2500015735627,0|0,0:0|0:0,0:0:0:0:
124,263,59811,6,0,L|292:286,1,110.000004196167,0|0,1:0|0:0,0:0:0:0:
305,312,60198,1,0,0:0:0:0:
390,192,60585,2,0,P|355:195|328:219,3,55.0000020980836,8|0|0|0,0:0|0:0|0:0|0:0,0:0:0:0:
256,95,61360,6,0,P|228:95|204:82,2,55.0000020980836,0|0|0,0:0|0:0|0:0,0:0:0:0:
155,142,61747,2,0,P|132:115|136:56,1,82.5000031471254,0|0,1:0|0:0,0:0:0:0:
338,14,62134,6,0,L|329:73,2,55.0000020980836,8|0|0,0:0|0:0|0:0,0:0:0:0:
256,95,62521,2,0,L|264:149,2,55.0000020980836,0|0|0,0:0|0:0|0:0,0:0:0:0:
338,176,62908,5,6,0:0:0:0:
352,64,75295,6,0,L|361:33,1,27.5,10|0,0:0|0:0,0:0:0:0:
384,160,75682,2,0,L|406:183,1,27.5,8|0,0:0|0:0,0:0:0:0:
284,139,76069,2,0,L|175:165,1,110,8|8,0:0|0:0,0:0:0:0:
100,122,76650,1,0,0:0:0:0:
46,191,76843,2,0,P|41:220|50:252,1,55,10|0,0:0|0:0,0:0:0:0:
128,288,77231,2,0,P|101:279|26:327,1,110,8|8,0:0|0:0,0:0:0:0:
168,378,77811,1,0,0:0:0:0:
211,303,78005,2,0,P|219:267|226:232,1,55,8|0,0:0|0:0,0:0:0:0:
177,165,78392,6,0,L|171:138,1,27.5,10|0,0:0|0:0,0:0:0:0:
284,139,78779,2,0,L|289:112,1,27.5,8|0,0:0|0:0,0:0:0:0:
105,86,79166,2,0,P|150:94|200:54,1,110,8|8,0:0|0:0,0:0:0:0:
57,12,79747,1,0,0:0:0:0:
17,91,79940,2,0,P|25:133|30:163,1,55,10|0,0:0|0:0,0:0:0:0:
115,218,80327,2,0,B|149:213|149:213|186:226|186:226|221:222,1,110,8|8,0:0|0:0,0:0:0:0:
298,177,80908,1,0,0:0:0:0:
413,232,81102,2,0,P|386:241|359:237,1,55,8|0,0:0|0:0,0:0:0:0:
274,103,81489,6,0,P|301:99|327:107,1,55,10|0,0:0|0:0,0:0:0:0:
222,222,81876,2,0,P|215:180|210:148,1,55,8|0,0:0|0:0,0:0:0:0:
339,115,82263,2,0,P|332:157|327:189,1,55,8|0,0:0|0:0,0:0:0:0:
294,277,82650,1,8,0:0:0:0:
294,277,83037,2,0,P|349:270|399:316,2,110,10|8|8,0:0|0:0|0:0,0:0:0:0:
219,323,84005,1,0,0:0:0:0:
156,260,84198,2,0,L|165:187,1,55,8|0,0:0|0:0,0:0:0:0:
224,96,84585,5,10,0:0:0:0:
248,180,84779,1,8,0:0:0:0:
309,118,84973,5,8,0:0:0:0:
251,196,85166,1,8,0:0:0:0:
163,158,85360,5,8,0:0:0:0:
254,212,85553,1,8,0:0:0:0:
337,159,85747,5,8,0:0:0:0:
257,228,85940,1,8,0:0:0:0:
224,96,86134,6,0,L|228:68,3,27.5,8|8|8|8,0:0|0:0|0:0|0:0,0:0:0:0:
306,17,86521,2,0,L|310:44,3,27.5,8|8|8|8,0:0|0:0|0:0|0:0,0:0:0:0:
448,128,86908,6,0,P|392:104|348:116,2,82.5,2|2|2,0:0|0:0|0:0,0:0:0:0:
512,64,87682,6,0,P|474:118|490:228,1,165.000006294251,6|0,1:2|0:0,0:0:0:0:
356,128,88263,1,0,0:0:0:0:
239,218,88456,2,0,P|305:234|354:182,1,123.750004720688,10|2,0:0|0:0,0:0:0:0:
368,209,88843,2,0,P|361:168|356:128,1,82.5000031471254,0|2,1:0|0:0,0:0:0:0:
272,0,89231,6,0,P|249:34|261:92,1,82.5000031471254,2|0,0:0|0:0,0:0:0:0:
482,61,89618,2,0,B|427:67|427:67|370:47|370:47|315:53,1,165.000006294251,0|10,1:0|0:0,0:0:0:0:
203,150,90198,1,0,1:0:0:0:
203,150,90295,1,2,0:0:0:0:
203,150,90392,2,0,B|284:160,1,82.5000031471254,0|2,0:0|0:0,0:0:0:0:
453,138,90779,6,0,B|412:142,1,41.2500015735627,2|2,1:2|0:0,0:0:0:0:
300,245,91166,2,0,B|340:249,1,41.2500015735627,2|2,0:0|0:0,0:0:0:0:
448,384,91553,6,0,P|422:315|462:214,1,165.000006294251,10|2,0:0|0:0,0:0:0:0:
512,320,92134,1,2,0:0:0:0:
493,163,92327,2,0,P|443:145|399:168,1,82.5000031471254,2|0,0:0|0:0,0:0:0:0:
306,260,92714,1,0,1:0:0:0:
447,230,92908,1,0,1:0:0:0:
286,101,93102,6,0,P|280:142|275:183,1,82.5000031471254,10|0,0:0|1:0,0:0:0:0:
296,247,93392,1,2,0:0:0:0:
306,260,93489,2,0,P|311:300|316:341,1,82.5000031471254,0|2,0:0|0:0,0:0:0:0:
512,325,93876,6,0,P|460:265|375:289,1,165.000006294251,2|0,1:2|0:0,0:0:0:0:
321,358,94456,1,0,0:0:0:0:
159,260,94650,2,0,P|224:247|289:239,1,123.750004720688,10|2,0:0|0:0,0:0:0:0:
306,260,95037,2,0,P|311:219|318:178,1,82.5000031471254,0|2,0:0|0:0,0:0:0:0:
223,89,95424,6,0,P|220:97|243:174,1,82.5000031471254,2|0,0:0|0:0,0:0:0:0:
485,137,95811,2,0,B|388:149|388:149|370:115|334:107,1,165.000006294251,0|10,1:0|0:0,0:0:0:0:
236,167,96392,1,0,1:0:0:0:
236,167,96489,1,2,0:0:0:0:
236,167,96585,2,0,B|317:177,1,82.5000031471254,0|2,0:0|0:0,0:0:0:0:
423,71,96973,6,0,B|428:30,1,41.2500015735627,2|2,1:2|0:0,0:0:0:0:
271,72,97360,2,0,B|265:31,1,41.2500015735627,2|2,0:0|0:0,0:0:0:0:
123,107,97747,6,0,B|93:18|93:18|49:20|43:62,1,165.000006294251,10|2,0:0|0:0,0:0:0:0:
32,160,98327,1,2,0:0:0:0:
190,151,98521,2,0,P|156:184|122:188,1,82.5000031471254,2|0,0:0|0:0,0:0:0:0:
195,73,98908,1,0,1:0:0:0:
294,142,99102,1,0,1:0:0:0:
198,233,99295,6,0,P|193:181|185:124,1,82.5000031471254,10|0,0:0|1:0,0:0:0:0:
195,73,99585,1,2,0:0:0:0:
195,73,99682,2,0,P|154:78|112:81,1,82.5000031471254,0|2,0:0|0:0,0:0:0:0:
294,142,100069,6,0,P|362:95|458:121,1,165.000006294251,6|0,1:2|0:0,0:0:0:0:
392,10,100650,1,0,0:0:0:0:
495,54,100843,2,0,P|526:85|494:160,1,123.750004720688,10|2,0:0|0:0,0:0:0:0:
488,172,101231,2,0,P|492:224|498:266,1,82.5000031471254,0|2,1:2|0:0,0:0:0:0:
378,307,101618,6,0,P|382:255|388:213,1,82.5000031471254,2|0,0:0|0:0,0:0:0:0:
462,366,102005,2,0,P|401:340|314:396,1,165.000006294251,0|10,1:0|0:0,0:0:0:0:
207,282,102585,1,0,1:0:0:0:
207,282,102682,1,2,0:0:0:0:
207,282,102779,2,0,P|229:316|230:356,1,82.5000031471254,0|2,0:0|0:0,0:0:0:0:
105,353,103166,6,0,L|146:343,1,41.2500015735627,2|2,1:2|0:0,0:0:0:0:
233,207,103553,2,0,L|192:196,1,41.2500015735627,2|2,0:0|0:0,0:0:0:0:
96,128,103940,6,0,B|80:160|61:170|61:170|49:226|94:286,1,165.000006294251,10|2,0:0|0:0,0:0:0:0:
17,100,104521,1,2,0:0:0:0:
155,70,104714,2,0,P|121:48|81:46,1,82.5000031471254,2|0,0:0|0:0,0:0:0:0:
233,24,105102,1,0,1:0:0:0:
202,148,105295,1,0,1:0:0:0:
356,91,105489,6,0,P|319:84|269:111,1,82.5000031471254,10|0,0:0|1:0,0:0:0:0:
280,189,105779,1,2,0:0:0:0:
280,189,105876,2,0,P|286:228|292:280,1,82.5000031471254,0|2,0:0|0:0,0:0:0:0:
424,309,106263,6,0,B|337:291|357:367|270:350,1,165.000006294251,2|0,1:2|0:0,0:0:0:0:
461,382,106843,1,0,0:0:0:0:
334,191,107037,2,0,P|283:210|300:277,1,123.750004720688,10|2,0:0|0:0,0:0:0:0:
293,281,107424,2,0,P|243:271|208:266,1,82.5000031471254,0|2,1:0|0:0,0:0:0:0:
106,355,107811,6,0,P|153:362|190:334,1,82.5000031471254,2|0,0:0|0:0,0:0:0:0:
139,128,108198,2,0,B|110:176|110:176|119:218|135:283,1,165.000006294251,0|10,1:0|0:0,0:0:0:0:
291,210,108779,1,0,1:0:0:0:
291,210,108876,1,2,0:0:0:0:
291,210,108973,2,0,P|250:200|210:191,1,82.5000031471254,0|2,0:0|0:0,0:0:0:0:
91,74,109360,6,0,L|82:33,1,41.2500015735627,2|2,1:2|0:0,0:0:0:0:
307,10,109747,2,0,L|299:51,1,41.2500015735627,2|2,0:0|0:0,0:0:0:0:
128,145,110134,6,0,L|291:124,1,165.000006294251,10|2,0:0|0:0,0:0:0:0:
204,44,110714,1,2,0:0:0:0:
398,239,110908,2,0,L|275:223,1,123.750004720688,2|0,0:0|0:0,0:0:0:0:
264,229,111295,5,0,1:0:0:0:
291,124,111489,1,0,1:0:0:0:
341,304,111682,1,8,0:0:0:0:
187,154,111876,1,0,1:0:0:0:
368,199,112069,2,0,P|420:202|460:180,1,82.5000031471254,2|0,0:0|0:0,0:0:0:0:
422,44,112456,6,0,P|398:77|400:118,1,82.5000031471254,6|2,1:2|0:2,0:0:0:0:
512,263,112843,2,0,P|457:238|410:299,1,123.750004720688,2|0,0:2|0:0,0:0:0:0:
394,290,113231,2,0,P|405:334|414:378,1,82.5000031471254,8|0,0:0|0:0,0:0:0:0:
275,223,113618,2,0,P|286:179|295:135,1,82.5000031471254,0|0,1:0|0:0,0:0:0:0:
222,299,114005,6,0,P|262:315|306:308,1,82.5000031471254,2|2,0:0|0:0,0:0:0:0:
141,350,114392,2,0,P|176:302|133:226,1,123.750004720688,2|0,1:2|0:0,0:0:0:0:
148,225,114779,2,0,P|97:236|37:244,1,82.5000031471254,8|0,0:0|1:0,0:0:0:0:
212,126,115166,2,0,P|252:132|292:141,1,82.5000031471254,0|0,0:0|0:0,0:0:0:0:
79,46,115553,6,0,B|62:71|55:102|82:135,1,82.5000031471254,2|2,1:2|0:2,0:0:0:0:
189,266,115940,2,0,P|207:180|224:108,1,123.750004720688,2|0,0:2|0:0,0:0:0:0:
212,126,116327,2,0,P|252:132|292:141,1,82.5000031471254,8|0,0:0|0:0,0:0:0:0:
384,32,116714,2,0,P|343:41|303:47,1,82.5000031471254,0|0,0:0|0:0,0:0:0:0:
429,188,117102,5,0,0:0:0:0:
429,188,117489,1,2,1:2:0:0:
449,102,117682,1,2,1:2:0:0:
492,248,117876,1,10,0:0:0:0:
365,127,118069,1,2,1:2:0:0:
408,272,118263,1,2,0:0:0:0:
512,162,118456,1,2,0:0:0:0:
345,212,118650,6,0,P|295:204|241:199,1,82.5000031471254,2|2,1:2|0:2,0:0:0:0:
133,298,119037,2,0,P|191:308|245:247,1,123.750004720688,2|0,0:2|0:0,0:0:0:0:
252,282,119424,2,0,P|259:232|264:178,1,82.5000031471254,8|0,0:0|0:0,0:0:0:0:
160,64,119811,2,0,P|145:99|161:147,1,82.5000031471254,0|0,0:0|0:0,0:0:0:0:
331,165,120198,6,0,P|308:134|258:124,1,82.5000031471254,2|2,0:0|0:0,0:0:0:0:
111,198,120585,2,0,P|188:183|255:191,1,123.750004720688,2|0,1:2|0:0,0:0:0:0:
263,200,120973,2,0,P|258:241|252:282,1,82.5000031471254,8|0,0:0|1:0,0:0:0:0:
137,375,121360,2,0,P|132:334|125:293,1,82.5000031471254,0|0,0:0|0:0,0:0:0:0:
155,140,121747,6,0,P|158:180|138:215,1,82.5000031471254,2|2,1:2|0:0,0:0:0:0:
83,88,122134,2,0,P|145:94|198:51,1,123.750004720688,2|0,0:0|0:0,0:0:0:0:
216,76,122521,2,0,P|211:22|203:-19,1,82.5000031471254,8|0,0:0|0:0,0:0:0:0:
341,83,122908,2,0,P|336:137|328:178,1,82.5000031471254,0|0,0:0|0:0,0:0:0:0:
405,231,123295,6,0,P|346:203|256:264,1,165.000006294251,0|0,0:0|1:0,0:0:0:0:
356,297,123876,1,0,1:0:0:0:
471,280,124069,2,0,P|487:240|477:191,1,82.5000031471254,8|0,0:0|1:0,0:0:0:0:
352,128,124456,2,0,P|392:133|430:117,1,82.5000031471254,0|0,0:0|0:0,0:0:0:0:
352,32,124843,6,0,P|272:26|227:23,1,98.9999969787599,6|0,1:2|0:0,0:0:0:0:
249,4,125231,2,0,L|205:10,1,43.9999986572266,0|0,0:0|0:0,0:0:0:0:
118,71,125618,2,0,P|144:68|188:95,1,65.9999979858399,8|0,0:0|0:0,0:0:0:0:
330,164,126005,2,0,B|296:170|264:175|264:175|231:165,1,98.9999969787599,0|0,1:0|0:0,0:0:0:0:
233,165,126392,6,0,L|239:121,1,43.9999986572266,2|0,0:0|0:0,0:0:0:0:
93,217,126779,2,0,P|149:210|188:265,1,98.9999969787599,0|0,1:0|0:0,0:0:0:0:
192,256,127166,2,0,P|188:277|186:303,1,43.9999986572266,8|0,0:0|0:0,0:0:0:0:
60,349,127553,2,0,P|53:307|39:262,1,65.9999979858399,0|0,0:0|0:0,0:0:0:0:
72,135,127940,6,0,B|90:133|100:125|100:125|81:170|79:218,1,98.9999969787599,2|0,1:2|0:0,0:0:0:0:
93,217,128327,2,0,P|113:219|143:229,1,43.9999986572266,0|0,0:0|0:0,0:0:0:0:
230,181,128714,2,0,P|198:163|164:163,1,65.9999979858399,8|0,0:0|0:0,0:0:0:0:
288,242,129102,2,0,P|320:210|310:158,1,98.9999969787599,0|0,0:0|0:0,0:0:0:0:
303,143,129489,6,0,P|298:123|292:98,1,43.9999986572266,2|0,0:0|0:0,0:0:0:0:
118,88,129876,2,0,P|101:127|166:148,1,98.9999969787599,0|0,1:0|0:0,0:0:0:0:
153,151,130263,2,0,P|173:156|198:162,1,43.9999986572266,8|0,0:0|0:0,0:0:0:0:
292,100,130650,2,0,P|303:52|316:-7,1,98.9999969787599,0|0,0:0|0:0,0:0:0:0:
364,22,131037,6,0,P|402:59|382:99,1,98.9999969787599,2|0,1:2|0:0,0:0:0:0:
386,95,131424,2,0,P|382:116|378:138,1,32.99999899292,0|0,0:0|0:0,0:0:0:0:
460,137,131811,2,0,B|338:96|379:177|257:137,1,197.99999395752,8|0,0:0|0:0,0:0:0:0:
204,93,132585,6,0,P|211:64|217:46,1,43.9999986572266,2|0,0:0|0:0,0:0:0:0:
81,191,132973,2,0,P|135:175|187:214,1,98.9999969787599,0|0,1:0|0:0,0:0:0:0:
182,220,133360,2,0,P|203:217|225:213,1,43.9999986572266,8|0,0:0|0:0,0:0:0:0:
92,276,133747,2,0,P|55:269|21:265,1,65.9999979858399,0|0,0:0|0:0,0:0:0:0:
167,345,134134,6,0,P|214:335|273:340,1,98.9999969787599,2|0,1:2|0:0,0:0:0:0:
284,350,134521,2,0,P|298:370|307:388,1,43.9999986572266,0|0,0:0|0:0,0:0:0:0:
368,296,134908,2,0,P|437:308|400:224,1,197.99999395752,8|0,0:0|0:0,0:0:0:0:
324,226,135682,6,0,P|302:233|268:240,1,43.9999986572266,2|0,0:0|0:0,0:0:0:0:
176,176,136069,2,0,P|230:180|275:142,1,98.9999969787599,0|0,1:0|3:0,0:0:0:0:
275,138,136456,2,0,P|276:116|279:94,1,43.9999986572266,0|0,3:0|0:0,0:0:0:0:
125,122,136843,2,0,P|118:181|116:250,1,98.9999969787599,0|0,3:0|3:0,0:0:0:0:
108,245,137231,6,0,P|74:227|30:231,1,72.5999997784424,6|0,1:2|0:0,0:0:0:0:
147,313,137618,2,0,L|137:361,2,48.3999998522949,0|0|0,0:0|0:0|0:0,0:0:0:0:
187,245,138005,6,0,P|229:249|281:282,1,96.7999997045899,8|0,0:0|0:0,0:0:0:0:
333,334,138392,2,0,P|371:341|406:325,2,48.3999998522949,0|0|0,1:0|0:0|0:0,0:0:0:0:
353,256,138779,6,0,P|378:208|365:158,1,96.7999997045899,2|0,0:0|0:0,0:0:0:0:
414,104,139166,2,0,B|381:120|381:120|348:112|280:100,1,96.7999997045899,0|0,1:0|0:0,0:0:0:0:
271,45,139553,2,0,L|264:-8,2,48.3999998522949,8|0|0,0:0|0:0|0:0,0:0:0:0:
242,120,139940,2,0,P|201:134|146:120,1,96.7999997045899,0|0,0:0|0:0,0:0:0:0:
96,48,140327,6,0,L|114:242,1,165,2|0,1:2|0:0,0:0:0:0:
102,233,140714,6,0,P|68:220|11:217,2,48.3999998522949,0|0|0,0:0|0:0|0:0,0:0:0:0:
147,303,141102,2,0,P|190:278|270:294,1,96.7999997045899,8|0,0:0|0:0,0:0:0:0:
291,333,141489,2,0,L|282:386,2,48.3999998522949,0|0|0,0:0|0:0|0:0,0:0:0:0:
310,257,141876,2,0,L|363:266,2,48.3999998522949,2|0|0,0:0|0:0|0:0,0:0:0:0:
235,277,142263,6,0,P|236:220|245:166,1,108.899999667664,0|0,1:0|0:0,0:0:0:0:
294,107,142650,2,0,P|288:67|279:22,2,48.3999998522949,8|0|0,0:0|0:0|0:0,0:0:0:0:
363,150,143037,2,0,P|410:130|464:157,1,96.7999997045899,0|0,0:0|0:0,0:0:0:0:
512,103,143424,6,0,P|463:164|489:282,1,165,2|0,1:2|0:0,0:0:0:0:
477,267,143811,6,0,P|446:258|401:263,2,48.3999998522949,0|0|0,0:0|0:0|0:0,0:0:0:0:
439,345,144198,2,0,P|400:338|350:328,1,72.5999997784424,8|0,0:0|0:0,0:0:0:0:
358,311,144489,2,0,P|281:287|233:371,1,181.499999446106,0|2,0:0|0:0,0:0:0:0:
147,236,145360,2,0,P|166:281|149:334,1,72.5999997784424,0|0,1:0|0:0,0:0:0:0:
95,340,145747,2,0,L|39:324,2,48.3999998522949,8|0|0,0:0|0:0|0:0,0:0:0:0:
161,381,146134,2,0,L|230:361,1,72.5999997784424,0|0,0:0|0:0,0:0:0:0:
389,319,146521,6,0,P|335:252|271:277,1,165,2|0,1:2|0:0,0:0:0:0:
257,284,146908,6,0,P|246:246|253:200,2,48.3999998522949,0|0|0,0:0|0:0|0:0,0:0:0:0:
317,332,147295,2,0,L|407:315,1,72.5999997784424,8|0,0:0|0:0,0:0:0:0:
512,267,147682,2,0,P|453:267|410:209,1,108.899999667664,0|0,0:0|0:0,0:0:0:0:
365,188,148069,6,0,P|394:224|384:324,1,145.199999556885,2|0,0:0|1:0,0:0:0:0:
268,213,148650,1,0,0:0:0:0:
176,288,148843,2,0,P|212:293|251:303,2,48.3999998522949,0|0|0,3:0|3:0|3:0,0:0:0:0:
108,240,149231,2,0,P|84:243|60:247,2,48.3999998522949,0|0|0,3:0|3:0|3:0,0:0:0:0:
183,205,149618,5,6,0:0:0:0:
391,198,162005,6,0,P|427:250|416:325,2,110,6|0|8,0:0|0:0|0:0,0:0:0:0:
391,198,163166,5,0,0:0:0:0:
312,163,163360,1,0,0:0:0:0:
320,248,163553,1,2,0:0:0:0:
314,259,163940,5,0,0:0:0:0:
304,152,164133,1,0,0:0:0:0:
403,196,164327,1,8,0:0:0:0:
419,195,164714,5,0,0:0:0:0:
295,140,164908,1,0,0:0:0:0:
308,273,165102,2,0,B|308:274|308:274|308:275|308:275|308:276|308:276|308:277|308:277|308:278|308:278|309:279|309:279|309:280|309:280|310:281|310:281|310:282|310:282|311:283|311:283|312:283|312:283|313:284|313:284|314:284|314:284|315:285|315:285|316:285|316:285|317:285|317:285|318:285|318:285|319:285|319:285|320:285|320:285|321:284|321:284|322:284|322:284|323:283|323:283|324:283|324:283|325:282|325:282|325:281|325:281|326:280|326:280|326:279|326:279|327:278|327:278|327:277|327:277|327:276|327:276|327:275|327:275|327:274|327:274|327:273|327:273|326:272|326:272|326:271|326:271|325:270|325:270|325:269|325:269|324:268|324:268|323:268|323:268|322:267|322:267|321:267|321:267|320:266|320:266|319:266|319:266|318:266|318:266|317:266|317:266|316:266|316:266|315:266|315:266|314:267|314:267|313:267|313:267|312:268|312:268|311:268|311:268|310:269|310:270|310:270|309:271|309:271|309:272|309:272|308:273|308:273,1,55,0|0,0:0|0:0,0:0:0:0:
282,188,165489,6,0,B|274:141|274:141|324:108|334:36|279:-9|212:5|199:73,1,275,2|0,0:0|0:0,0:0:0:0:
308,273,166650,1,2,0:0:0:0:
308,273,167424,1,8,0:0:0:0:
199,209,167618,2,0,P|189:183|181:149,2,55,2|2|2,0:0|0:0|0:0,0:0:0:0:
177,329,168198,6,0,L|121:318,1,55,2|0,0:0|0:0,0:0:0:0:
45,277,168585,2,0,P|72:328|66:410,2,110,2|8|0,0:0|0:0|0:0,0:0:0:0:
45,277,169747,6,0,P|34:230|51:186,1,55,2|0,0:0|0:0,0:0:0:0:
0,168,170134,2,0,B|35:194|35:194|68:186|143:168,2,110,2|8|0,0:0|0:0|0:0,0:0:0:0:
147,257,171295,6,0,P|200:259|265:289,1,110,2|2,0:0|0:0,0:0:0:0:
315,217,171876,1,0,0:0:0:0:
433,275,172069,2,0,P|406:276|378:279,1,55,8|0,0:0|0:0,0:0:0:0:
254,272,172456,1,0,0:0:0:0:
316,209,172650,1,0,0:0:0:0:
434,267,172843,2,0,P|407:268|380:270,1,55,2|0,0:0|0:0,0:0:0:0:
255,264,173231,5,0,0:0:0:0:
317,201,173425,1,0,0:0:0:0:
169,241,173618,2,0,P|126:230|71:218,2,82.5,2|2|2,0:0|0:0|0:0,0:0:0:0:
318,326,174392,6,0,P|236:300|165:375,1,165.000006294251,6|0,1:2|0:0,0:0:0:0:
257,384,174973,1,0,0:0:0:0:
412,369,175166,2,0,P|428:303|376:254,1,123.750004720688,10|2,0:0|0:0,0:0:0:0:
374,244,175553,2,0,P|415:237|455:232,1,82.5000031471254,0|2,1:0|0:0,0:0:0:0:
331,101,175941,6,0,P|308:135|320:193,1,82.5000031471254,2|0,0:0|0:0,0:0:0:0:
417,72,176327,2,0,P|335:61|253:46,1,165.000006294251,0|10,1:0|0:0,0:0:0:0:
129,161,176908,1,0,1:0:0:0:
129,161,177005,1,2,0:0:0:0:
129,161,177102,2,0,B|210:151,1,82.5000031471254,0|2,0:0|0:0,0:0:0:0:
64,32,177489,6,0,B|60:73,1,41.2500015735627,2|2,1:2|0:0,0:0:0:0:
124,202,177876,2,0,B|128:162,1,41.2500015735627,2|2,0:0|0:0,0:0:0:0:
29,309,178263,6,0,P|98:283|199:323,1,165.000006294251,10|2,0:0|0:0,0:0:0:0:
259,242,178844,1,2,0:0:0:0:
321,384,179037,2,0,P|339:334|316:290,1,82.5000031471254,2|0,0:0|0:0,0:0:0:0:
250,231,179424,1,0,1:0:0:0:
361,189,179618,1,0,1:0:0:0:
283,71,179812,6,0,P|277:112|272:153,1,82.5000031471254,10|0,0:0|1:0,0:0:0:0:
241,220,180102,1,2,0:0:0:0:
250,231,180199,2,0,P|255:271|260:312,1,82.5000031471254,0|2,0:0|0:0,0:0:0:0:
47,300,180586,6,0,P|124:284|175:344,1,165.000006294251,2|0,1:2|0:0,0:0:0:0:
88,197,181166,1,0,0:0:0:0:
98,361,181360,2,0,P|163:348|228:340,1,123.750004720688,10|2,0:0|0:0,0:0:0:0:
247,354,181747,2,0,P|251:313|258:272,1,82.5000031471254,0|2,1:0|0:0,0:0:0:0:
415,329,182134,6,0,P|374:334|337:317,1,82.5000031471254,2|0,0:0|0:0,0:0:0:0:
195,207,182521,2,0,P|270:182|336:227,1,165.000006294251,0|10,1:0|0:0,0:0:0:0:
169,372,183102,1,0,1:0:0:0:
169,372,183199,1,2,0:0:0:0:
169,372,183295,2,0,B|159:291,1,82.5000031471254,0|2,0:0|0:0,0:0:0:0:
200,166,183683,6,0,B|195:207,1,41.2500015735627,2|2,1:2|0:0,0:0:0:0:
74,116,184070,2,0,B|68:75,1,41.2500015735627,2|2,0:0|0:0,0:0:0:0:
338,128,184456,6,0,B|249:146|270:67|181:86,1,165.000006294251,10|2,0:0|0:0,0:0:0:0:
318,47,185037,1,2,0:0:0:0:
200,166,185231,2,0,P|203:204|214:273,1,82.5000031471254,2|0,0:0|0:0,0:0:0:0:
182,66,185618,1,0,1:0:0:0:
284,206,185812,1,0,1:0:0:0:
118,153,186005,6,0,P|156:157|203:166,1,82.5000031471254,10|0,0:0|1:0,0:0:0:0:
271,202,186295,1,2,0:0:0:0:
284,206,186392,2,0,P|322:202|369:193,1,82.5000031471254,0|2,0:0|0:0,0:0:0:0:
404,4,186779,6,0,P|451:72|425:168,1,165.000006294251,6|0,1:2|0:0,0:0:0:0:
363,108,187360,1,0,0:0:0:0:
495,205,187553,2,0,P|440:191|373:254,1,123.750004720688,10|2,0:0|0:0,0:0:0:0:
369,224,187941,2,0,P|373:276|379:318,1,82.5000031471254,0|2,1:0|0:0,0:0:0:0:
271,202,188328,6,0,P|275:150|281:108,1,82.5000031471254,2|0,0:0|0:0,0:0:0:0:
158,293,188715,2,0,P|225:249|301:275,1,165.000006294251,0|10,1:0|0:0,0:0:0:0:
173,384,189295,1,0,1:0:0:0:
173,384,189392,1,2,0:0:0:0:
173,384,189489,2,0,P|129:373|86:363,1,82.5000031471254,0|2,0:0|0:0,0:0:0:0:
24,270,189876,6,0,L|65:260,1,41.2500015735627,2|2,1:2|0:0,0:0:0:0:
192,192,190263,2,0,L|151:181,1,41.2500015735627,2|2,0:0|0:0,0:0:0:0:
77,114,190650,6,0,B|39:150|39:150|65:266,1,165.000006294251,10|2,0:0|0:0,0:0:0:0:
152,181,191231,1,2,0:0:0:0:
137,57,191424,2,0,P|103:35|63:33,1,82.5000031471254,2|0,0:0|0:0,0:0:0:0:
5,157,191812,1,0,1:0:0:0:
201,110,192005,1,0,1:0:0:0:
61,33,192198,6,0,P|67:72|73:124,1,82.5000031471254,10|0,0:0|1:0,0:0:0:0:
123,174,192489,1,2,0:0:0:0:
123,174,192586,2,0,P|117:213|111:265,1,82.5000031471254,0|2,0:0|0:0,0:0:0:0:
316,338,192973,6,0,P|269:262|183:267,1,165.000006294251,2|0,1:2|0:0,0:0:0:0:
153,333,193553,1,0,0:0:0:0:
58,143,193747,2,0,P|23:185|44:258,1,123.750004720688,10|2,0:0|0:0,0:0:0:0:
30,270,194134,2,0,P|70:263|111:255,1,82.5000031471254,0|2,0:0|0:0,0:0:0:0:
256,206,194521,6,0,P|223:181|183:183,1,82.5000031471254,2|0,0:0|0:0,0:0:0:0:
153,333,194908,2,0,P|234:345|315:362,1,165.000006294251,0|10,1:0|0:0,0:0:0:0:
384,288,195489,1,0,1:0:0:0:
384,288,195586,1,2,0:0:0:0:
384,288,195683,2,0,P|394:247|403:207,1,82.5000031471254,0|2,0:0|0:0,0:0:0:0:
472,158,196070,6,0,L|513:149,1,41.2500015735627,2|2,1:2|0:0,0:0:0:0:
320,32,196456,2,0,L|361:41,1,41.2500015735627,2|2,0:0|0:0,0:0:0:0:
168,189,196843,6,0,L|331:168,1,165.000006294251,10|2,0:0|0:0,0:0:0:0:
402,207,197424,1,2,0:0:0:0:
334,345,197618,2,0,P|290:311|325:238,1,123.750004720688,2|0,0:0|0:0,0:0:0:0:
317,259,198005,5,0,1:0:0:0:
254,96,198199,1,0,1:0:0:0:
402,207,198392,1,8,0:0:0:0:
168,189,198586,1,0,1:0:0:0:
350,62,198779,2,0,P|353:114|331:154,1,82.5000031471254,2|0,0:0|0:0,0:0:0:0:
156,208,199166,6,0,P|211:203|259:201,1,82.5000031471254,6|2,1:2|0:2,0:0:0:0:
422,307,199553,2,0,P|360:314|312:265,1,123.750004720688,2|0,0:2|0:0,0:0:0:0:
305,250,199940,2,0,P|342:235|383:242,1,82.5000031471254,8|0,0:0|0:0,0:0:0:0:
490,136,200327,2,0,P|449:142|412:127,1,82.5000031471254,0|0,1:0|0:0,0:0:0:0:
318,81,200714,6,0,P|327:30|337:-23,1,82.5000031471254,2|2,0:0|0:0,0:0:0:0:
206,64,201102,2,0,P|218:137|233:214,1,123.750004720688,2|0,1:2|0:0,0:0:0:0:
238,201,201489,2,0,P|197:203|156:208,1,82.5000031471254,8|0,0:0|1:0,0:0:0:0:
32,288,201876,2,0,P|71:308|115:300,1,82.5000031471254,0|0,0:0|0:0,0:0:0:0:
96,96,202263,6,0,P|76:135|84:179,1,82.5000031471254,2|2,1:2|0:2,0:0:0:0:
157,362,202650,2,0,B|188:324|188:324|177:286|164:239,1,123.750004720688,2|0,0:2|0:0,0:0:0:0:
156,208,203037,2,0,P|167:170|180:123,1,82.5000031471254,8|0,0:0|0:0,0:0:0:0:
353,160,203424,2,0,P|313:164|265:168,1,82.5000031471254,0|0,0:0|0:0,0:0:0:0:
416,64,203811,5,0,0:0:0:0:
416,64,204198,1,2,1:2:0:0:
387,244,204392,1,2,1:2:0:0:
313,82,204585,1,10,0:0:0:0:
490,136,204779,1,2,1:2:0:0:
270,168,204973,1,2,0:0:0:0:
423,41,205166,1,2,0:0:0:0:
479,251,205360,6,0,P|433:266|390:254,1,82.5000031471254,2|2,1:2|0:2,0:0:0:0:
231,313,205747,2,0,B|271:303|302:298|302:298|325:303|336:332,1,123.750004720688,2|0,0:2|0:0,0:0:0:0:
326,358,206134,2,0,P|366:364|406:375,1,82.5000031471254,8|0,0:0|0:0,0:0:0:0:
160,339,206521,2,0,P|152:299|172:263,1,82.5000031471254,0|0,0:0|0:0,0:0:0:0:
267,150,206908,6,0,P|286:185|278:225,1,82.5000031471254,2|2,0:0|0:0,0:0:0:0:
102,231,207295,2,0,P|146:191|206:196,1,123.750004720688,2|0,1:2|0:0,0:0:0:0:
200,186,207682,2,0,P|183:144|199:92,1,82.5000031471254,8|0,0:0|1:0,0:0:0:0:
404,105,208069,2,0,P|356:93|293:86,1,82.5000031471254,0|0,0:0|0:0,0:0:0:0:
132,37,208456,6,0,P|172:30|212:20,1,82.5000031471254,2|2,1:2|0:0,0:0:0:0:
349,0,208843,2,0,P|305:39|309:98,1,123.750004720688,2|0,0:0|0:0,0:0:0:0:
323,88,209231,2,0,P|364:94|404:105,1,82.5000031471254,8|0,0:0|0:0,0:0:0:0:
467,227,209618,2,0,P|427:237|386:243,1,82.5000031471254,0|0,0:0|0:0,0:0:0:0:
192,288,210005,6,0,P|269:273|337:355,1,165.000006294251,0|0,0:0|1:0,0:0:0:0:
184,384,210585,1,0,1:0:0:0:
127,235,210779,2,0,P|106:275|122:329,1,82.5000031471254,8|0,0:0|1:0,0:0:0:0:
401,310,211166,2,0,P|405:270|385:235,1,82.5000031471254,0|0,0:0|0:0,0:0:0:0:
312,183,211553,6,0,P|304:136|315:107,1,55,6|0,0:0|0:0,0:0:0:0:
378,80,211940,2,0,P|440:87|503:99,2,110,0|0|0,0:0|0:0|0:0,0:0:0:0:
298,41,212908,1,0,0:0:0:0:
298,41,213102,2,0,P|275:26|249:21,1,55,2|0,0:0|0:0,0:0:0:0:
166,122,213489,2,0,P|193:117|216:102,1,55,0|0,0:0|0:0,0:0:0:0:
157,36,213876,2,0,P|129:31|102:28,1,55,8|0,0:0|0:0,0:0:0:0:
46,156,214263,2,0,P|73:158|100:163,1,55,0|0,0:0|0:0,0:0:0:0:
162,226,214650,6,0,P|177:257|156:332,1,110,2|2,0:0|0:0,0:0:0:0:
207,382,215231,2,0,B|159:373|119:365|119:365|82:384,2,110,0|2|0,0:0|0:0|0:0,0:0:0:0:
268,319,216198,2,0,P|328:343|380:321,1,110,2|2,0:0|0:0,0:0:0:0:
446,371,216779,2,0,P|408:318|428:260,1,110,2|0,0:0|0:0,0:0:0:0:
458,200,217360,2,0,L|511:210,1,55,0|0,0:0|0:0,0:0:0:0:
416,122,217747,6,0,L|362:132,1,55,2|0,0:0|0:0,0:0:0:0:
292,78,218134,2,0,P|274:55|332:8,2,110,0|0|0,0:0|0:0|0:0,0:0:0:0:
279,165,219102,1,0,0:0:0:0:
279,165,219295,2,0,P|283:198|285:227,1,55,2|0,0:0|0:0,0:0:0:0:
362,261,219682,2,0,P|364:233|366:206,1,55,0|0,0:0|0:0,0:0:0:0:
235,296,220069,2,0,P|269:297|299:320,1,55,0|0,0:0|0:0,0:0:0:0:
404,347,220456,2,0,P|379:358|352:357,1,55,0|0,0:0|0:0,0:0:0:0:
189,354,220843,6,0,P|183:295|178:239,1,110,2|2,0:0|0:0,0:0:0:0:
117,180,221424,2,0,P|79:166|14:213,2,110,0|2|0,0:0|0:0|0:0,0:0:0:0:
203,159,222392,2,0,P|256:170|312:181,1,110,2|2,0:0|0:0,0:0:0:0:
368,114,222973,2,0,P|413:113|459:172,1,110,2|0,0:0|0:0,0:0:0:0:
512,222,223553,2,0,P|513:251|488:285,1,55,0|0,0:0|0:0,0:0:0:0:
435,331,223940,6,0,L|407:326,1,27.5,6|0,0:0|0:0,0:0:0:0:
314,233,224327,2,0,L|286:237,1,27.5,0|0,0:0|0:0,0:0:0:0:
193,330,224714,2,0,P|156:310|89:327,1,110,0|0,0:0|0:0,0:0:0:0:
26,382,225294,1,0,0:0:0:0:
10,296,225488,2,0,P|14:261|16:233,1,55,2|0,0:0|0:0,0:0:0:0:
87,190,225875,2,0,B|144:178|130:228|187:217,1,110,0|0,0:0|0:0,0:0:0:0:
250,154,226456,1,0,0:0:0:0:
187,91,226649,2,0,P|159:96|132:99,1,55,0|0,0:0|0:0,0:0:0:0:
274,68,227037,6,0,L|305:72,1,27.5,2|0,0:0|0:0,0:0:0:0:
408,148,227424,2,0,L|446:144,1,27.5,0|0,0:0|0:0,0:0:0:0:
373,262,227811,2,0,P|342:246|262:267,1,110,0|0,0:0|0:0,0:0:0:0:
208,321,228391,1,0,0:0:0:0:
145,258,228585,2,0,P|117:261|90:264,1,55,2|0,0:0|0:0,0:0:0:0:
35,333,228973,2,0,P|55:262|33:215,1,110,0|0,0:0|0:0,0:0:0:0:
3,152,229553,2,0,P|10:125|18:94,2,55,0|0|0,0:0|0:0|0:0,0:0:0:0:
91,154,230134,6,0,P|119:152|144:163,1,55,2|0,0:0|0:0,0:0:0:0:
317,188,230521,2,0,P|289:189|264:178,1,55,0|0,0:0|0:0,0:0:0:0:
221,58,230908,2,0,P|223:86|212:111,1,55,0|0,0:0|0:0,0:0:0:0:
197,231,231294,1,0,0:0:0:0:
197,231,231682,2,0,P|224:227|251:224,1,55,2|0,0:0|0:0,0:0:0:0:
375,294,232069,2,0,P|348:291|321:287,1,55,0|0,0:0|0:0,0:0:0:0:
339,215,232456,1,0,0:0:0:0:
402,154,232650,1,0,0:0:0:0:
480,197,232843,1,0,0:0:0:0:
463,283,233037,1,0,0:0:0:0:
375,294,233231,6,0,P|322:293|279:337,1,110,2|2,0:0|0:0,0:0:0:0:
281,329,233811,2,0,P|292:266|296:214,2,110,0|2|0,0:0|0:0|0:0,0:0:0:0:
110,237,234779,6,0,P|167:245|228:253,1,110,2|2,0:0|0:0,0:0:0:0:
295,220,235360,2,0,P|353:217|392:269,1,123.750004720688,2|0,0:0|0:0,0:0:0:0:
467,278,235747,6,0,P|478:326|433:375,1,110,2|0,0:0|0:0,0:0:0:0:
