osu file format v14

[General]
AudioFilename: audio.mp3
AudioLeadIn: 0
PreviewTime: 122615
Countdown: 0
SampleSet: Soft
StackLeniency: 0.7
Mode: 0
LetterboxInBreaks: 0
WidescreenStoryboard: 0

[Editor]
Bookmarks: 11053,32871,79234
DistanceSpacing: 1.4
BeatDivisor: 4
GridSize: 8
TimelineZoom: 1

[Metadata]
Title:EPILOGUE : Young Forever
TitleUnicode:EPILOGUE : Young Forever
Artist:BTS
ArtistUnicode:방탄소년단
Creator:yeong seok
Version:attempt
Source:
Tags:kpop kpoop love yourself bangtan boys jungkook bighit the most beautiful moment in life 화양연화 방탄소년단 bulletproof boy scouts bangtan sonyeondan yeongseok 영석 korean chemistry
BeatmapID:3659423
BeatmapSetID:1786409

[Difficulty]
HPDrainRate:4.8
CircleSize:3.4
OverallDifficulty:7.2
ApproachRate:8.4
SliderMultiplier:1.9
SliderTickRate:1

[Events]
//Background and Video events
0,0,"IMG_5693.jpg",0,0
//Break Periods
//Storyboard Layer 0 (Background)
//Storyboard Layer 1 (Fail)
//Storyboard Layer 2 (Pass)
//Storyboard Layer 3 (Foreground)
//Storyboard Layer 4 (Overlay)
//Storyboard Sound Samples

[TimingPoints]
134,340.909090909091,4,2,2,40,1,0
134,-200,4,2,2,40,0,0
11043,340.909090909091,4,2,2,50,1,0
11043,-200,4,2,2,50,0,0
21952,-200,4,2,2,60,0,0
22037,-200,4,2,2,50,0,0
30304,-200,4,2,2,45,0,0
30474,-200,4,2,2,40,0,0
31156,-200,4,2,2,35,0,0
31497,-200,4,2,2,30,0,0
32179,-133.333333333333,4,2,2,50,0,0
45133,-133.333333333333,4,2,2,60,0,0
45815,-133.333333333333,4,2,2,50,0,0
47861,-133.333333333333,4,2,2,60,0,0
48543,-133.333333333333,4,2,2,50,0,0
50588,-133.333333333333,4,2,2,60,0,0
51270,-133.333333333333,4,2,2,50,0,0
54679,-133.333333333333,4,2,2,60,0,0
55361,-133.333333333333,4,2,2,50,0,0
56043,-133.333333333333,4,2,2,70,0,0
57065,-200,4,2,2,70,0,0
57406,-133.333333333333,4,2,2,70,0,0
59281,-133.333333333333,4,2,2,60,0,0
60133,-133.333333333333,4,2,2,70,0,0
60815,-133.333333333333,4,2,2,60,0,0
61497,-133.333333333333,4,2,2,70,0,0
64906,-133.333333333333,4,2,2,60,0,0
65588,-133.333333333333,4,2,2,50,0,0
73429,-100,4,2,2,60,0,0
73770,-100,4,2,2,70,0,0
76156,-133.333333333333,4,2,2,60,0,0
78543,-100,4,2,2,60,0,0
79224,-100,4,2,2,70,0,1
79906,-133.333333333333,4,2,2,70,0,1
81952,-100,4,2,2,70,0,1
82633,-133.333333333333,4,2,2,70,0,1
83656,-400,4,2,2,70,0,1
83997,-100,4,2,2,70,0,1
85361,-133.333333333333,4,2,2,70,0,1
87406,-100,4,2,2,70,0,1
87918,-133.333333333333,4,2,2,70,0,1
89452,-133.333333333333,4,2,2,70,0,0
90133,-100,4,2,2,70,0,1
90815,-133.333333333333,4,2,2,70,0,1
92861,-100,4,2,2,70,0,1
93543,-133.333333333333,4,2,2,70,0,1
94565,-400,4,2,2,70,0,1
95077,-100,4,2,2,70,0,1
96270,-133.333333333333,4,2,2,70,0,1
98315,-100,4,2,2,70,0,1
98997,-133.333333333333,4,2,2,70,0,1
101043,-200,4,2,2,70,0,0
108543,-133.333333333333,4,2,2,70,0,0
114508,-200,4,2,2,70,0,0
117406,-133.333333333333,4,2,2,70,0,0

[HitObjects]
496,171,10361,6,0,L|448:175,3,47.5
464,86,11043,6,0,L|352:76,1,95
200,35,11724,6,0,P|201:64|217:95,1,47.5
289,80,12065,2,0,P|288:109|272:140,1,47.5
165,152,12406,2,0,P|201:165|238:220,1,95
297,381,13088,6,0,L|302:317,3,47.5
388,259,13770,2,0,L|397:370,1,95
295,255,14452,6,0,P|260:262|242:287,1,47.5
187,331,14793,2,0,P|167:343|143:345,1,47.5
106,263,15134,2,0,P|147:255|194:201,1,95
188,48,15815,6,0,L|126:53,3,47.5
29,124,16497,2,0,L|139:133,1,95
216,133,17009,1,0,0:0:0:0:
142,222,17179,2,0,L|233:214,2,71.25
22,216,17861,6,0,P|54:250|65:296,1,95
0,357,18372,1,0,0:0:0:0:
125,383,18543,2,0,P|135:337|168:304,1,95
259,280,19054,1,0,0:0:0:0:
326,372,19224,6,0,L|228:380,1,95
259,280,19736,1,0,0:0:0:0:
340,223,19906,2,0,P|350:272|346:293,2,71.25
173,168,20588,2,0,P|159:212|170:258,1,95
316,80,21270,5,0,0:0:0:0:
336,55,21441,1,0,0:0:0:0:
367,46,21611,1,0,0:0:0:0:
399,47,21782,1,0,0:0:0:0:
430,63,21952,6,0,P|475:77|511:49,1,95
489,126,22463,1,0,0:0:0:0:
404,186,22633,2,0,P|389:165|382:145,1,47.5
488,261,22974,2,0,P|503:240|510:220,1,47.5
333,258,23315,2,0,P|379:268|412:301,1,95
329,363,23827,5,0,0:0:0:0:
257,310,23997,2,0,P|242:289|235:269,1,47.5
209,190,24338,2,0,P|201:168|187:149,1,47.5
246,70,24679,6,0,P|254:92|268:111,1,47.5
346,131,25020,2,0,P|337:153|323:172,1,47.5
340,41,25361,2,0,P|386:51|419:84,1,95
415,244,26043,2,0,P|427:198|461:167,1,95
504,244,26554,5,0,0:0:0:0:
504,244,26724,2,0,L|509:302,1,47.5
436,323,27065,2,0,L|430:381,2,31.6666666666667
339,384,27406,2,0,P|326:338|340:294,1,95
297,227,27918,2,0,P|278:241|256:251,1,47.5
243,342,28258,2,0,P|221:333|202:318,2,47.5
129,362,28770,6,0,P|116:316|130:272,1,95
185,199,29281,1,0,0:0:0:0:
185,199,29452,2,0,L|48:188,1,95
17,43,30133,5,0,0:0:0:0:
83,99,30304,1,0,0:0:0:0:
166,48,30474,1,0,0:0:0:0:
241,134,30815,2,0,L|377:123,1,95
512,27,31497,1,0,0:0:0:0:
451,373,32179,6,0,L|460:262,1,106.875004076958
431,229,32520,6,0,L|421:335,1,106.875004076958
405,383,32861,6,0,P|368:368|330:368,1,71.2500027179719
264,289,33202,2,0,P|301:274|339:274,1,71.2500027179719
230,382,33543,2,0,P|170:327|173:276,2,106.875004076958
195,212,34224,1,0,0:0:0:0:
416,42,35077,5,0,0:0:0:0:
310,149,35247,2,0,L|411:157,1,71.2500027179719
457,124,35588,6,0,P|463:165|451:206,1,71.2500027179719
343,300,35929,2,0,P|337:259|349:218,1,71.2500027179719
334,61,36270,2,0,L|222:70,2,106.875004076958
431,260,36952,1,0,0:0:0:0:
209,318,37804,5,0,0:0:0:0:
7,284,37974,1,0,0:0:0:0:
207,335,38145,1,0,0:0:0:0:
84,366,38315,6,0,P|81:325|96:286,1,71.2500027179719
123,223,38656,2,0,P|134:183|127:143,1,71.2500027179719
23,110,38997,1,0,0:0:0:0:
219,166,39338,5,0,0:0:0:0:
11,197,39508,1,0,0:0:0:0:
223,156,39679,2,0,P|211:116|218:76,1,71.2500027179719
275,238,40020,2,0,P|242:250|207:251,2,71.2500027179719
395,124,40531,5,0,0:0:0:0:
383,300,40702,1,0,0:0:0:0:
401,130,40872,1,0,0:0:0:0:
357,213,41043,2,0,P|397:209|436:223,1,71.2500027179719
512,352,41383,2,0,P|477:362|443:360,1,71.2500027179719
479,276,41724,2,0,L|491:139,2,106.875004076958
366,383,42406,1,0,0:0:0:0:
33,197,43258,6,0,P|89:240|78:325,1,142.500005435944
41,383,43770,5,0,0:0:0:0:
117,214,43940,1,0,0:0:0:0:
10,277,44111,1,0,0:0:0:0:
163,331,44281,1,0,0:0:0:0:
19,191,44452,2,0,L|11:272,1,71.2500027179719
110,133,44793,2,0,L|117:214,1,71.2500027179719
1,64,45133,2,0,P|70:63|112:8,1,142.500005435944
0,56,45815,2,0,P|68:54|110:0,1,142.500005435944
356,5,46497,5,0,0:0:0:0:
490,88,46668,5,0,0:0:0:0:
490,88,46838,2,0,L|413:94,1,71.2500027179719
274,105,47179,2,0,P|308:122|331:160,1,71.2500027179719
396,235,47520,2,0,P|412:203|440:183,1,71.2500027179719
484,273,47861,2,0,P|442:328|373:329,1,142.500005435944
485,282,48543,2,0,P|443:337|374:338,1,142.500005435944
78,271,49224,5,0,0:0:0:0:
156,368,49395,5,0,0:0:0:0:
156,368,49565,2,0,L|162:292,1,71.2500027179719
179,147,49906,1,0,0:0:0:0:
62,191,50077,1,0,0:0:0:0:
173,152,50247,1,0,0:0:0:0:
251,253,50418,1,0,0:0:0:0:
20,291,50588,2,0,L|162:279,1,142.500005435944
21,300,51270,2,0,L|163:288,1,142.500005435944
420,196,51952,5,0,0:0:0:0:
505,98,52122,5,0,0:0:0:0:
505,98,52293,2,0,L|425:104,1,71.2500027179719
329,113,52633,1,0,0:0:0:0:
468,286,52974,2,0,P|484:254|512:234,1,71.2500027179719
512,362,53315,2,0,L|352:375,1,142.500005435944
223,272,53827,5,0,0:0:0:0:
158,67,53997,1,0,0:0:0:0:
82,190,54168,1,0,0:0:0:0:
210,173,54338,2,0,P|244:169|277:183,1,71.2500027179719
141,379,54679,6,0,L|-6:366,1,142.500005435944
145,368,55361,2,0,L|-2:355,1,142.500005435944
75,147,56043,6,0,P|108:173|120:219,1,71.2500027179719
199,246,56383,1,0,0:0:0:0:
33,253,56554,1,0,0:0:0:0:
207,234,56724,2,0,P|213:192|246:159,1,71.2500027179719
216,76,57065,2,0,P|176:91|131:78,1,71.2500027179719
116,70,57406,5,0,0:0:0:0:
171,5,57577,1,0,0:0:0:0:
302,51,57747,1,0,0:0:0:0:
312,134,57918,1,0,0:0:0:0:
471,43,58088,1,0,0:0:0:0:
402,2,58258,1,0,0:0:0:0:
393,168,58429,2,0,P|431:141|478:140,1,71.2500027179719
439,356,58770,2,0,B|423:316|441:272|450:287|471:253|453:201,1,142.500005435944
184,192,59281,5,0,0:0:0:0:
238,354,59452,1,0,0:0:0:0:
278,240,59622,1,0,0:0:0:0:
254,360,59793,1,0,0:0:0:0:
296,248,59963,1,0,0:0:0:0:
158,293,60133,2,0,L|12:280,1,142.500005435944
162,281,60815,2,0,L|16:268,1,142.500005435944
66,19,61497,6,0,P|59:56|34:93,1,71.2500027179719
164,189,61838,1,0,0:0:0:0:
151,64,62008,1,0,0:0:0:0:
90,230,62179,2,0,P|72:199|65:164,1,71.2500027179719
156,60,62520,2,0,L|269:69,1,106.875004076958
272,61,62861,5,0,0:0:0:0:
315,124,63031,1,0,0:0:0:0:
476,89,63202,1,0,0:0:0:0:
415,28,63372,1,0,0:0:0:0:
373,187,63543,1,0,0:0:0:0:
293,208,63713,1,0,0:0:0:0:
469,312,63883,2,0,P|476:267|460:218,1,71.2500027179719
256,295,64224,2,0,B|296:311|340:293|325:284|359:263|411:281,1,142.500005435944
254,376,64906,6,0,P|195:372|144:328,2,106.875004076958
21,311,65588,6,0,P|76:297|117:246,1,95.0000036239625
174,87,66043,1,0,0:0:0:0:
222,207,66270,1,0,0:0:0:0:
228,214,66696,2,0,L|173:209,1,53.4375020384789
163,204,66952,2,0,L|330:189,1,142.500005435944
497,161,67633,1,0,0:0:0:0:
431,0,67974,5,0,0:0:0:0:
281,79,68145,1,0,0:0:0:0:
281,79,68230,1,0,0:0:0:0:
281,79,68315,2,0,L|374:87,1,95.0000036239625
500,153,68770,2,0,P|450:165|419:200,1,95.0000036239625
305,327,69423,2,0,L|298:268,1,53.4375020384789
288,197,69679,2,0,L|275:340,1,142.500005435944
499,239,70361,1,0,0:0:0:0:
344,4,70702,6,0,L|283:-1,2,47.5000018119813
274,6,71043,5,0,0:0:0:0:
125,47,71213,2,0,L|132:137,1,71.2500027179719
42,84,71554,1,0,0:0:0:0:
237,157,71724,2,0,P|229:191|207:218,2,71.2500027179719
220,73,72236,1,0,0:0:0:0:
96,253,72406,6,0,L|20:246,1,71.2500027179719
69,161,72747,1,0,0:0:0:0:
41,369,72918,1,0,0:0:0:0:
167,323,73088,2,0,L|280:332,1,106.875004076958
272,251,73429,6,0,P|299:305|385:311,1,142.5
433,243,73770,1,0,0:0:0:0:
467,324,73940,1,0,0:0:0:0:
478,119,74111,1,0,0:0:0:0:
512,200,74281,1,0,0:0:0:0:
378,61,74452,1,0,0:0:0:0:
344,142,74622,1,0,0:0:0:0:
184,0,74793,1,0,0:0:0:0:
218,81,74963,1,0,0:0:0:0:
64,143,75133,1,0,0:0:0:0:
409,381,76156,5,0,0:0:0:0:
413,371,76327,1,0,0:0:0:0:
486,335,76497,2,0,P|422:324|388:264,1,106.875004076958
392,278,76838,1,0,0:0:0:0:
389,266,77008,1,0,0:0:0:0:
306,179,77179,1,0,0:0:0:0:
299,233,77349,1,0,0:0:0:0:
441,106,77520,1,0,0:0:0:0:
444,133,77690,1,0,0:0:0:0:
321,37,77861,1,0,0:0:0:0:
486,224,78543,6,0,B|437:243|385:221|403:210|362:185|299:207,1,190
234,293,79054,5,0,0:0:0:0:
68,332,79224,6,0,P|134:290|127:161,1,190
182,44,79736,1,0,0:0:0:0:
182,44,79821,1,0,0:0:0:0:
182,44,79906,2,0,P|218:103|287:111,1,142.500005435944
384,179,80418,6,0,L|396:30,1,142.500005435944
227,250,80929,2,0,L|215:113,1,106.875004076958
319,248,81270,1,0,0:0:0:0:
230,62,81440,2,0,P|162:76|133:139,1,142.500005435944
0,311,81952,6,0,L|195:328,1,190
285,380,82463,1,0,0:0:0:0:
285,380,82548,1,0,0:0:0:0:
285,380,82633,2,0,P|299:312|361:283,1,142.500005435944
503,360,83145,2,0,L|396:369,1,106.875004076958
383,364,83486,1,0,0:0:0:0:
472,169,83656,2,0,L|476:214,1,35.625
441,307,83997,1,0,0:0:0:0:
335,120,84168,5,0,0:0:0:0:
247,141,84338,1,0,0:0:0:0:
308,205,84508,1,0,0:0:0:0:
178,56,84679,6,0,P|107:-1|19:24,1,190
23,152,85190,1,0,0:0:0:0:
23,152,85275,1,0,0:0:0:0:
23,152,85361,2,0,P|66:166|80:83,1,142.500005435944
56,344,85872,1,0,0:0:0:0:
105,175,86043,1,0,0:0:0:0:
218,314,86213,2,0,P|276:352|346:349,1,142.500005435944
358,340,86724,1,0,0:0:0:0:
399,261,86895,5,0,0:0:0:0:
460,324,87065,1,0,0:0:0:0:
483,241,87236,1,0,0:0:0:0:
481,162,87406,6,0,P|410:105|322:130,1,190
249,239,87918,1,0,0:0:0:0:
249,239,88003,1,0,0:0:0:0:
249,239,88088,2,0,L|236:93,1,142.500005435944
191,170,88599,1,0,0:0:0:0:
301,35,88770,1,0,0:0:0:0:
105,21,88940,1,0,0:0:0:0:
137,104,89111,1,0,0:0:0:0:
102,198,89281,5,0,0:0:0:0:
102,198,89366,1,0,0:0:0:0:
102,198,89452,2,0,P|71:220|12:217,1,71.2500027179719
128,285,89793,2,0,P|159:307|218:304,1,71.2500027179719
365,384,90133,6,0,P|449:351|472:262,1,190
409,148,90645,1,0,0:0:0:0:
409,148,90730,1,0,0:0:0:0:
409,147,90815,2,0,P|347:177|334:245,1,142.500005435944
317,152,91327,2,0,L|329:3,1,142.500005435944
499,181,91838,2,0,L|488:67,1,106.875004076958
406,168,92179,1,0,0:0:0:0:
283,76,92349,2,0,P|221:106|208:174,1,142.500005435944
196,346,92861,6,0,P|151:379|58:289,1,190
120,154,93372,1,0,0:0:0:0:
120,154,93457,1,0,0:0:0:0:
120,154,93543,2,0,L|133:309,1,142.500005435944
281,374,94054,2,0,P|290:319|234:270,1,106.875004076958
250,274,94395,1,0,0:0:0:0:
1,233,94565,2,0,L|39:229,1,35.625
165,217,94906,1,0,0:0:0:0:
88,137,95077,5,0,0:0:0:0:
155,82,95247,1,0,0:0:0:0:
74,55,95418,1,0,0:0:0:0:
252,6,95588,6,0,L|269:202,1,190
340,329,96099,1,0,0:0:0:0:
340,329,96185,1,0,0:0:0:0:
340,329,96270,2,0,P|387:294|397:210,1,142.500005435944
351,35,96781,1,0,0:0:0:0:
231,99,96952,1,0,0:0:0:0:
369,138,97122,2,0,L|470:128,1,71.2500027179719
277,204,97463,1,0,0:0:0:0:
277,204,97548,1,0,0:0:0:0:
277,204,97633,1,0,0:0:0:0:
152,223,97804,5,0,0:0:0:0:
124,303,97974,1,0,0:0:0:0:
64,245,98145,1,0,0:0:0:0:
230,384,98315,6,0,P|334:353|345:254,1,190
176,283,98827,1,0,0:0:0:0:
176,283,98912,1,0,0:0:0:0:
176,283,98997,2,0,L|248:290,1,71.2500027179719
332,194,99338,2,0,L|260:200,1,71.2500027179719
209,72,99679,5,0,0:0:0:0:
165,194,99849,1,0,0:0:0:0:
55,22,100020,1,0,0:0:0:0:
0,134,100190,1,0,0:0:0:0:
131,92,100361,1,0,0:0:0:0:
64,236,100531,1,0,0:0:0:0:
126,96,100702,1,0,0:0:0:0:
206,268,100872,5,0,0:0:0:0:
199,270,100957,1,0,0:0:0:0:
193,272,101043,2,0,L|303:280,1,95
499,288,101554,1,0,0:0:0:0:
507,195,101724,2,0,L|396:205,1,95
205,183,102236,1,0,0:0:0:0:
204,94,102406,2,0,L|314:103,1,95
507,101,102918,1,0,0:0:0:0:
503,19,103088,2,0,L|408:28,1,95
373,105,103599,5,0,0:0:0:0:
373,105,103685,1,0,0:0:0:0:
373,105,103770,2,0,P|353:142|303:166,1,95
365,241,104281,5,0,0:0:0:0:
365,241,104367,1,0,0:0:0:0:
365,241,104452,2,0,P|385:278|435:302,1,95
509,265,104963,1,0,0:0:0:0:
269,282,105304,6,0,L|292:280,1,23.75
208,348,105474,6,0,L|132:341,1,71.25
93,267,105815,6,0,L|186:258,1,95
294,140,106327,5,0,0:0:0:0:
139,15,106497,2,0,P|104:55|83:97,1,95
294,140,107008,1,0,0:0:0:0:
84,91,107179,2,0,P|69:142|67:188,1,95
294,140,107690,1,0,0:0:0:0:
67,183,107861,2,0,P|75:235|93:278,1,95
294,140,108372,1,0,0:0:0:0:
185,234,108543,2,0,P|254:223|318:253,1,142.500005435944
229,311,109054,5,0,0:0:0:0:
434,369,109224,2,0,P|464:302|446:223,1,142.500005435944
499,146,109736,1,0,0:0:0:0:
499,146,109821,1,0,0:0:0:0:
499,146,109906,2,0,P|433:142|361:186,1,142.500005435944
231,303,110418,2,0,L|377:290,1,142.500005435944
294,140,110929,1,0,0:0:0:0:
414,102,111099,5,0,0:0:0:0:
414,102,111184,1,0,0:0:0:0:
414,102,111270,2,0,P|452:84|474:51,1,71.2500027179719
383,7,111611,1,0,0:0:0:0:
256,3,111781,5,0,0:0:0:0:
256,3,111866,1,0,0:0:0:0:
256,3,111952,2,0,L|243:147,1,142.500005435944
139,265,112463,1,0,0:0:0:0:
3,91,112633,2,0,P|62:41|141:73,1,142.500005435944
156,189,113145,1,0,0:0:0:0:
9,170,113315,2,0,L|24:345,1,142.500005435944
171,112,113827,1,0,0:0:0:0:
353,197,113997,2,0,P|294:247|215:215,1,142.500005435944
87,131,114508,5,0,0:0:0:0:
87,131,114594,1,0,0:0:0:0:
87,131,114679,2,0,L|78:231,1,95
141,374,115190,5,0,0:0:0:0:
141,374,115275,1,0,0:0:0:0:
141,374,115361,2,0,L|149:273,1,95
159,183,115872,1,0,0:0:0:0:
314,274,116213,6,0,L|339:276,1,23.75
427,343,116383,6,0,L|357:351,1,71.25
418,262,116724,6,0,L|521:271,1,95
495,134,117236,5,0,0:0:0:0:
495,134,117321,1,0,0:0:0:0:
495,134,117406,2,0,L|333:148,1,142.500005435944
224,36,117918,1,0,0:0:0:0:
199,263,118088,2,0,P|276:267|298:186,1,142.500005435944
303,42,118599,1,0,0:0:0:0:
72,176,118770,2,0,L|223:162,1,142.500005435944
383,49,119281,1,0,0:0:0:0:
512,244,119452,2,0,P|435:248|413:167,1,142.500005435944
485,358,119963,5,0,0:0:0:0:
485,358,120048,1,0,0:0:0:0:
485,358,120133,2,0,L|338:345,1,142.500005435944
189,355,120645,5,0,0:0:0:0:
189,355,120730,1,0,0:0:0:0:
189,355,120815,2,0,P|245:336|269:257,1,142.500005435944
262,256,121327,1,0,0:0:0:0:
91,285,121497,5,0,0:0:0:0:
141,130,121668,1,0,0:0:0:0:
181,269,121838,1,0,0:0:0:0:
226,99,122008,1,0,0:0:0:0:
72,196,122179,5,0,0:0:0:0:
156,17,122349,1,0,0:0:0:0:
212,190,122520,1,0,0:0:0:0:
26,106,122690,1,0,0:0:0:0:
26,106,122775,1,0,0:0:0:0:
26,106,122861,1,0,0:0:0:0:
