osu file format v14

[General]
AudioFilename: audio.mp3
AudioLeadIn: 0
PreviewTime: 42365
Countdown: 0
SampleSet: Soft
StackLeniency: 0.5
Mode: 0
LetterboxInBreaks: 0
WidescreenStoryboard: 0

[Editor]
DistanceSpacing: 1
BeatDivisor: 4
GridSize: 32
TimelineZoom: 1.6

[Metadata]
Title:Dynamite
TitleUnicode:Dynamite
Artist:BTS
ArtistUnicode:방탄소년단
Creator:DeRandom Otaku
Version:Funk
Source:
Tags:bighit entertainment wings rap monster jungkook suga jimin j-hope v jin hot yoongi 랩몬스터 진 슈가 제이홉 지민 뷔 정국 k-pop kpop korean pop bangtan boys ren eli elinor [_elinor_] pepekcz pepe english
BeatmapID:2589557
BeatmapSetID:1245804

[Difficulty]
HPDrainRate:6
CircleSize:4
OverallDifficulty:8
ApproachRate:8.8
SliderMultiplier:1.8
SliderTickRate:1

[Events]
//Background and Video events
0,0,"bg.jpg",0,0
//Break Periods
2,127038,134630
2,143880,151472
//Storyboard Layer 0 (Background)
//Storyboard Layer 1 (Fail)
//Storyboard Layer 2 (Pass)
//Storyboard Layer 3 (Foreground)
//Storyboard Layer 4 (Overlay)
//Storyboard Sound Samples

[TimingPoints]
523,526.315789473684,4,2,0,40,1,0
8944,-117.647058823529,4,2,0,55,0,0
9733,-117.647058823529,4,2,0,40,0,0
9865,-117.647058823529,4,2,0,55,0,0
13943,-117.647058823529,4,2,0,40,0,0
14207,-117.647058823529,4,2,0,55,0,0
16180,-117.647058823529,4,2,0,40,0,0
16312,-117.647058823529,4,2,0,55,0,0
19075,-117.647058823529,4,2,0,40,0,0
19207,-117.647058823529,4,2,0,55,0,0
19338,-117.647058823529,4,2,0,40,0,0
19470,-117.647058823529,4,2,0,55,0,0
22890,-117.647058823529,4,2,0,40,0,0
23022,-117.647058823529,4,2,0,55,0,0
23285,-117.647058823529,4,2,0,40,0,0
23417,-117.647058823529,4,2,0,55,0,0
23548,-117.647058823529,4,2,0,40,0,0
23680,-117.647058823529,4,2,0,55,0,0
24601,-117.647058823529,4,2,0,40,0,0
24733,-117.647058823529,4,2,0,55,0,0
25786,-100,4,2,0,65,0,0
26049,-100,4,2,0,40,0,0
26312,-100,4,2,0,65,0,0
26575,-100,4,2,0,40,0,0
26838,-100,4,2,0,65,0,0
28154,-100,4,2,0,40,0,0
28286,-100,4,2,0,65,0,0
29733,-100,4,2,0,40,0,0
29996,-100,4,2,0,65,0,0
33022,-100,4,2,0,40,0,0
33154,-100,4,2,0,65,0,0
33329,-100,4,2,0,40,0,0
33417,-100,4,2,0,65,0,0
34470,-100,4,2,0,40,0,0
34733,-100,4,2,0,65,0,0
34996,-100,4,2,0,40,0,0
35259,-100,4,2,0,65,0,0
38680,-100,4,2,0,40,0,0
38812,-100,4,2,0,65,0,0
39732,-100,4,2,0,40,0,0
39865,-100,4,2,0,65,0,0
40259,-100,4,2,0,55,0,0
40391,-100,4,2,0,50,0,0
40522,-100,4,2,0,45,0,0
40786,-74.0740740740741,4,2,0,55,0,0
40917,-74.0740740740741,4,2,0,40,0,0
41049,-74.0740740740741,4,2,0,55,0,0
41443,-74.0740740740741,4,2,0,40,0,0
41575,-222.222222222222,4,2,0,55,0,0
41969,-222.222222222222,4,2,0,40,0,0
42101,-66.6666666666667,4,2,0,55,0,0
42298,-66.6666666666667,4,2,0,40,0,0
42365,-66.6666666666667,4,2,0,65,0,0
42628,-66.6666666666667,4,2,0,80,0,1
42891,-66.6666666666667,4,2,0,40,0,1
43154,-66.6666666666667,4,2,0,80,0,1
43417,-66.6666666666667,4,2,0,40,0,1
43680,-66.6666666666667,4,2,0,80,0,1
43943,-66.6666666666667,4,2,0,40,0,1
44207,-66.6666666666667,4,2,0,80,0,1
44338,-66.6666666666667,4,2,0,40,0,1
44470,-66.6666666666667,4,2,0,80,0,1
45127,-66.6666666666667,4,2,0,40,0,1
45259,-66.6666666666667,4,2,0,80,0,1
45390,-66.6666666666667,4,2,0,40,0,1
45522,-66.6666666666667,4,2,0,80,0,1
46707,-66.6666666666667,4,2,0,40,0,1
46838,-66.6666666666667,4,2,0,80,0,1
47101,-66.6666666666667,4,2,0,40,0,1
47365,-66.6666666666667,4,2,0,80,0,1
47628,-66.6666666666667,4,2,0,40,0,1
47891,-66.6666666666667,4,2,0,80,0,1
48154,-66.6666666666667,4,2,0,40,0,1
48417,-66.6666666666667,4,2,0,80,0,1
48548,-66.6666666666667,4,2,0,40,0,1
48680,-66.6666666666667,4,2,0,80,0,1
49338,-66.6666666666667,4,2,0,40,0,1
49470,-66.6666666666667,4,2,0,80,0,1
49601,-66.6666666666667,4,2,0,40,0,1
49733,-66.6666666666667,4,2,0,80,0,1
50259,-50,4,2,0,80,0,1
50390,-50,4,2,0,40,0,1
50522,-66.6666666666667,4,2,0,80,0,1
50785,-66.6666666666667,4,2,0,40,0,1
50917,-66.6666666666667,4,2,0,80,0,1
51312,-66.6666666666667,4,2,0,60,0,1
51444,-66.6666666666667,4,2,0,80,0,1
51838,-66.6666666666667,4,2,0,40,0,1
51970,-66.6666666666667,4,2,0,80,0,1
52364,-66.6666666666667,4,2,0,40,0,1
52496,-66.6666666666667,4,2,0,80,0,1
52890,-66.6666666666667,4,2,0,40,0,1
53022,-66.6666666666667,4,2,0,80,0,1
53417,-66.6666666666667,4,2,0,40,0,1
53549,-66.6666666666667,4,2,0,80,0,1
53943,-66.6666666666667,4,2,0,40,0,1
54075,-66.6666666666667,4,2,0,80,0,1
54470,-66.6666666666667,4,2,0,40,0,1
54601,-66.6666666666667,4,2,0,80,0,1
55128,-66.6666666666667,4,2,0,40,0,1
55259,-66.6666666666667,4,2,0,80,0,1
55522,-66.6666666666667,4,2,0,40,0,1
55786,-66.6666666666667,4,2,0,80,0,1
56049,-66.6666666666667,4,2,0,40,0,1
56312,-66.6666666666667,4,2,0,80,0,1
56575,-66.6666666666667,4,2,0,40,0,1
56838,-66.6666666666667,4,2,0,80,0,1
57101,-66.6666666666667,4,2,0,40,0,1
57233,-66.6666666666667,4,2,0,80,0,1
57759,-66.6666666666667,4,2,0,40,0,1
57891,-66.6666666666667,4,2,0,80,0,1
58944,-100,4,2,0,80,0,1
59075,-100,4,2,0,65,0,1
59470,-100,4,2,0,65,0,0
60259,-100,4,2,0,40,0,0
60522,-100,4,2,0,65,0,0
64470,-100,4,2,0,40,0,0
64733,-100,4,2,0,65,0,0
64996,-100,4,2,0,40,0,0
65128,-100,4,2,0,65,0,0
68680,-100,4,2,0,40,0,0
68944,-100,4,2,0,65,0,0
70785,-100,4,2,0,40,0,0
70917,-100,4,2,0,65,0,0
71312,-100,4,2,0,40,0,0
71575,-100,4,2,0,65,0,0
73943,-100,4,2,0,40,0,0
74075,-100,4,2,0,65,0,0
76312,-100,4,2,0,65,0,0
78680,-100,4,2,0,40,0,0
78812,-100,4,2,0,65,0,0
79733,-100,4,2,0,65,0,0
80259,-100,4,2,0,40,0,0
80522,-100,4,2,0,65,0,0
84996,-100,4,2,0,40,0,0
85259,-100,4,2,0,65,0,0
85522,-100,4,2,0,40,0,0
85786,-100,4,2,0,65,0,0
89207,-100,4,2,0,40,0,0
89338,-100,4,2,0,65,0,0
90259,-100,4,2,0,40,0,0
90391,-100,4,2,0,65,0,0
90786,-100,4,2,0,55,0,0
90917,-100,4,2,0,50,0,0
91048,-100,4,2,0,45,0,0
91312,-74.0740740740741,4,2,0,40,0,0
91575,-74.0740740740741,4,2,0,55,0,0
91969,-74.0740740740741,4,2,0,40,0,0
92101,-222.222222222222,4,2,0,55,0,0
92495,-222.222222222222,4,2,0,40,0,0
92628,-66.6666666666667,4,2,0,55,0,0
92825,-66.6666666666667,4,2,0,40,0,0
92891,-66.6666666666667,4,2,0,65,0,0
93154,-66.6666666666667,4,2,0,80,0,1
93417,-66.6666666666667,4,2,0,40,0,1
93680,-66.6666666666667,4,2,0,80,0,1
93943,-66.6666666666667,4,2,0,40,0,1
94207,-66.6666666666667,4,2,0,80,0,1
94470,-66.6666666666667,4,2,0,40,0,1
94733,-66.6666666666667,4,2,0,80,0,1
94864,-66.6666666666667,4,2,0,40,0,1
94996,-66.6666666666667,4,2,0,80,0,1
95653,-66.6666666666667,4,2,0,40,0,1
95786,-66.6666666666667,4,2,0,80,0,1
97233,-66.6666666666667,4,2,0,40,0,1
97365,-66.6666666666667,4,2,0,80,0,1
97628,-66.6666666666667,4,2,0,40,0,1
97891,-66.6666666666667,4,2,0,80,0,1
98154,-66.6666666666667,4,2,0,40,0,1
98417,-66.6666666666667,4,2,0,80,0,1
98680,-66.6666666666667,4,2,0,40,0,1
98944,-66.6666666666667,4,2,0,80,0,1
99075,-66.6666666666667,4,2,0,40,0,1
99207,-66.6666666666667,4,2,0,80,0,1
99864,-66.6666666666667,4,2,0,40,0,1
99996,-66.6666666666667,4,2,0,80,0,1
100786,-50,4,2,0,80,0,1
100917,-50,4,2,0,40,0,1
101048,-66.6666666666667,4,2,0,80,0,1
101180,-66.6666666666667,4,2,0,40,0,1
101311,-66.6666666666667,4,2,0,80,0,1
101838,-66.6666666666667,4,2,0,60,0,1
101969,-66.6666666666667,4,2,0,80,0,1
102364,-66.6666666666667,4,2,0,40,0,1
102496,-66.6666666666667,4,2,0,80,0,1
102890,-66.6666666666667,4,2,0,40,0,1
103022,-66.6666666666667,4,2,0,80,0,1
103417,-66.6666666666667,4,2,0,40,0,1
103549,-66.6666666666667,4,2,0,80,0,1
103943,-66.6666666666667,4,2,0,40,0,1
104075,-66.6666666666667,4,2,0,80,0,1
104469,-66.6666666666667,4,2,0,40,0,1
104601,-66.6666666666667,4,2,0,80,0,1
104996,-66.6666666666667,4,2,0,40,0,1
105128,-66.6666666666667,4,2,0,80,0,1
105654,-66.6666666666667,4,2,0,40,0,1
105786,-66.6666666666667,4,2,0,80,0,1
106049,-66.6666666666667,4,2,0,40,0,1
106312,-66.6666666666667,4,2,0,80,0,1
106575,-66.6666666666667,4,2,0,40,0,1
106838,-66.6666666666667,4,2,0,80,0,1
107101,-66.6666666666667,4,2,0,40,0,1
107365,-66.6666666666667,4,2,0,80,0,1
107628,-66.6666666666667,4,2,0,40,0,1
107759,-66.6666666666667,4,2,0,80,0,1
108285,-66.6666666666667,4,2,0,40,0,1
108417,-66.6666666666667,4,2,0,80,0,1
109470,-66.6666666666667,4,2,0,80,0,0
109996,-62.5,4,2,0,86,0,1
110127,-62.5,4,2,0,40,0,1
110259,-62.5,4,2,0,86,0,1
110653,-62.5,4,2,0,40,0,1
110786,-62.5,4,2,0,86,0,1
111443,-62.5,4,2,0,40,0,1
111575,-62.5,4,2,0,86,0,1
111706,-62.5,4,2,0,40,0,1
111838,-62.5,4,2,0,86,0,1
112232,-62.5,4,2,0,40,0,1
112365,-62.5,4,2,0,86,0,1
113548,-62.5,4,2,0,40,0,1
113680,-62.5,4,2,0,86,0,1
114338,-62.5,4,2,0,40,0,1
114470,-62.5,4,2,0,86,0,1
114864,-62.5,4,2,0,40,0,1
114996,-62.5,4,2,0,86,0,1
115654,-62.5,4,2,0,40,0,1
115786,-62.5,4,2,0,86,0,1
115917,-62.5,4,2,0,40,0,1
116049,-62.5,4,2,0,86,0,1
116443,-62.5,4,2,0,40,0,1
116575,-62.5,4,2,0,86,0,1
117759,-62.5,4,2,0,40,0,1
117891,-62.5,4,2,0,86,0,1
118680,-62.5,4,2,0,60,0,1
118812,-62.5,4,2,0,86,0,1
119206,-62.5,4,2,0,40,0,1
119338,-62.5,4,2,0,86,0,1
119732,-62.5,4,2,0,40,0,1
119865,-62.5,4,2,0,86,0,1
120259,-62.5,4,2,0,40,0,1
120391,-62.5,4,2,0,86,0,1
120785,-62.5,4,2,0,40,0,1
120917,-62.5,4,2,0,86,0,1
121311,-62.5,4,2,0,40,0,1
121444,-62.5,4,2,0,86,0,1
121838,-62.5,4,2,0,40,0,1
121970,-62.5,4,2,0,86,0,1
122496,-62.5,4,2,0,40,0,1
122628,-62.5,4,2,0,86,0,1
122891,-62.5,4,2,0,40,0,1
123154,-62.5,4,2,0,86,0,1
123417,-62.5,4,2,0,40,0,1
123680,-62.5,4,2,0,86,0,1
123943,-62.5,4,2,0,40,0,1
124207,-62.5,4,2,0,86,0,1
124470,-62.5,4,2,0,40,0,1
124601,-62.5,4,2,0,86,0,1
125127,-62.5,4,2,0,40,0,1
125259,-62.5,4,2,0,86,0,1
126575,-100,4,2,0,86,0,1
126838,-100,4,2,0,86,0,0
135259,-90.9090909090909,4,2,0,65,0,0
136706,-90.9090909090909,4,2,0,40,0,0
136838,-90.9090909090909,4,2,0,65,0,0
137101,-90.9090909090909,4,2,0,40,0,0
137365,-90.9090909090909,4,2,0,65,0,0
138812,-90.9090909090909,4,2,0,40,0,0
138944,-90.9090909090909,4,2,0,65,0,0
139207,-90.9090909090909,4,2,0,40,0,0
139470,-90.9090909090909,4,2,0,65,0,0
140917,-90.9090909090909,4,2,0,40,0,0
141049,-90.9090909090909,4,2,0,65,0,0
141312,-90.9090909090909,4,2,0,40,0,0
141575,-90.9090909090909,4,2,0,65,0,0
142233,-90.9090909090909,4,2,0,60,0,0
142365,-90.9090909090909,4,2,0,65,0,0
152101,-117.647058823529,4,2,0,55,0,0
152890,-117.647058823529,4,2,0,40,0,0
153022,-117.647058823529,4,2,0,55,0,0
153549,-117.647058823529,4,2,0,55,0,0
153943,-117.647058823529,4,2,0,40,0,0
154075,-117.647058823529,4,2,0,55,0,0
154206,-117.647058823529,4,2,0,40,0,0
154338,-117.647058823529,4,2,0,55,0,0
154469,-117.647058823529,4,2,0,40,0,0
154601,-117.647058823529,4,2,0,55,0,0
154995,-117.647058823529,4,2,0,40,0,0
155128,-117.647058823529,4,2,0,55,0,0
155522,-117.647058823529,4,2,0,40,0,0
155654,-117.647058823529,4,2,0,55,0,0
156180,-117.647058823529,4,2,0,40,0,0
156312,-117.647058823529,4,2,0,55,0,0
156575,-117.647058823529,4,2,0,40,0,0
156838,-117.647058823529,4,2,0,55,0,0
157101,-117.647058823529,4,2,0,40,0,0
157365,-117.647058823529,4,2,0,55,0,0
157628,-117.647058823529,4,2,0,40,0,0
157891,-117.647058823529,4,2,0,55,0,0
158154,-117.647058823529,4,2,0,40,0,0
158286,-117.647058823529,4,2,0,55,0,0
158417,-117.647058823529,4,2,0,60,0,0
158944,-117.647058823529,4,2,0,63,0,0
159470,-117.647058823529,4,2,0,66,0,0
159996,-117.647058823529,4,2,0,70,0,0
160522,-62.5,4,2,0,85,0,1
160785,-62.5,4,2,0,40,0,1
161049,-62.5,4,2,0,85,0,1
161312,-62.5,4,2,0,40,0,1
161575,-62.5,4,2,0,85,0,1
161838,-62.5,4,2,0,40,0,1
162101,-62.5,4,2,0,85,0,1
162232,-62.5,4,2,0,40,0,1
162365,-62.5,4,2,0,85,0,1
163022,-62.5,4,2,0,40,0,1
163154,-62.5,4,2,0,85,0,1
163285,-62.5,4,2,0,40,0,1
163417,-62.5,4,2,0,85,0,1
164601,-62.5,4,2,0,40,0,1
164733,-62.5,4,2,0,85,0,1
164996,-62.5,4,2,0,40,0,1
165259,-62.5,4,2,0,85,0,1
165522,-62.5,4,2,0,40,0,1
165786,-62.5,4,2,0,85,0,1
166049,-62.5,4,2,0,40,0,1
166312,-62.5,4,2,0,85,0,1
166443,-62.5,4,2,0,40,0,1
166575,-62.5,4,2,0,85,0,1
167496,-62.5,4,2,0,40,0,1
167628,-62.5,4,2,0,85,0,1
168680,-62.5,4,2,0,85,0,1
169207,-62.5,4,2,0,40,0,1
169338,-62.5,4,2,0,85,0,1
169732,-62.5,4,2,0,40,0,1
169865,-62.5,4,2,0,85,0,1
170259,-62.5,4,2,0,40,0,1
170391,-62.5,4,2,0,85,0,1
170785,-62.5,4,2,0,40,0,1
170917,-62.5,4,2,0,85,0,1
171311,-62.5,4,2,0,40,0,1
171444,-62.5,4,2,0,85,0,1
171838,-62.5,4,2,0,40,0,1
171970,-62.5,4,2,0,85,0,1
172364,-62.5,4,2,0,40,0,1
172496,-62.5,4,2,0,85,0,1
173022,-62.5,4,2,0,40,0,1
173154,-62.5,4,2,0,85,0,1
175653,-62.5,4,2,0,40,0,1
175786,-62.5,4,2,0,85,0,1
176838,-62.5,4,2,0,85,0,0
177365,-62.5,4,2,0,88,0,1
177496,-62.5,4,2,0,40,0,1
177628,-62.5,4,2,0,88,0,1
178022,-62.5,4,2,0,40,0,1
178154,-62.5,4,2,0,88,0,1
178811,-62.5,4,2,0,40,0,1
178944,-62.5,4,2,0,88,0,1
179075,-62.5,4,2,0,40,0,1
179207,-62.5,4,2,0,88,0,1
179601,-62.5,4,2,0,40,0,1
179733,-62.5,4,2,0,88,0,1
179865,-62.5,4,2,0,40,0,1
179996,-62.5,4,2,0,88,0,1
180917,-62.5,4,2,0,40,0,1
181049,-62.5,4,2,0,88,0,1
181509,-62.5,4,2,0,40,0,1
181575,-62.5,4,2,0,88,0,1
181706,-62.5,4,2,0,40,0,1
181838,-62.5,4,2,0,88,0,1
182232,-62.5,4,2,0,40,0,1
182365,-62.5,4,2,0,88,0,1
183021,-62.5,4,2,0,40,0,1
183154,-62.5,4,2,0,88,0,1
183285,-62.5,4,2,0,40,0,1
183417,-62.5,4,2,0,88,0,1
183811,-62.5,4,2,0,40,0,1
183944,-62.5,4,2,0,88,0,1
184075,-62.5,4,2,0,40,0,1
184207,-62.5,4,2,0,88,0,1
185127,-62.5,4,2,0,40,0,1
185259,-62.5,4,2,0,88,0,1
186049,-62.5,4,2,0,60,0,1
186180,-62.5,4,2,0,88,0,1
186575,-62.5,4,2,0,40,0,1
186707,-62.5,4,2,0,88,0,1
187101,-62.5,4,2,0,40,0,1
187233,-62.5,4,2,0,88,0,1
187627,-62.5,4,2,0,40,0,1
187759,-62.5,4,2,0,88,0,1
188153,-62.5,4,2,0,40,0,1
188286,-62.5,4,2,0,88,0,1
188680,-62.5,4,2,0,40,0,1
188812,-62.5,4,2,0,88,0,1
189207,-62.5,4,2,0,40,0,1
189338,-62.5,4,2,0,88,0,1
189864,-62.5,4,2,0,40,0,1
189996,-62.5,4,2,0,88,0,1
190259,-62.5,4,2,0,40,0,1
190522,-62.5,4,2,0,88,0,1
190785,-62.5,4,2,0,40,0,1
191049,-62.5,4,2,0,88,0,1
191312,-62.5,4,2,0,40,0,1
191575,-62.5,4,2,0,88,0,1
191838,-62.5,4,2,0,40,0,1
191970,-62.5,4,2,0,88,0,1
192496,-62.5,4,2,0,40,0,1
192628,-62.5,4,2,0,88,0,1
193680,-62.5,4,2,0,88,0,0

[Colours]
Combo1 : 192,128,128
Combo2 : 128,192,255
Combo3 : 255,128,192
Combo4 : 128,128,192

[HitObjects]
256,192,7628,12,0,8944,1:2:0:0:
377,73,9207,5,2,0:2:0:0:
256,142,9470,2,0,L|337:154,1,76.5000014591217,2|0,1:2|0:0,0:0:0:0:
353,174,9865,1,2,0:2:0:0:
353,174,9996,2,0,L|390:168,1,38.2500007295609,2|2,1:2|0:2,0:0:0:0:
408,242,10259,2,0,L|370:247,1,38.2500007295609,2|2,0:2|0:2,0:0:0:0:
468,190,10522,1,2,1:2:0:0:
317,306,10786,1,2,0:2:0:0:
317,306,10917,1,2,0:2:0:0:
317,306,11049,6,0,L|307:387,1,76.5000014591217,2|2,1:2|0:2,0:0:0:0:
256,226,11575,1,2,1:2:0:0:
394,320,11838,1,2,0:2:0:0:
407,154,12101,2,0,L|395:25,1,114.750002188683,2|0,1:2|3:2,0:0:0:0:
391,9,12628,1,0,1:2:0:0:
376,21,12759,1,0,3:2:0:0:
359,29,12891,1,0,3:2:0:0:
340,31,13022,1,0,3:2:0:0:
321,28,13154,1,2,1:2:0:0:
500,99,13417,5,2,0:2:0:0:
343,211,13680,2,0,P|324:178|324:138,1,76.5000014591217,2|0,1:2|0:0,0:0:0:0:
500,220,14207,1,2,1:2:0:0:
389,314,14470,1,2,0:2:0:0:
389,314,14601,1,2,0:2:0:0:
389,314,14733,1,0,1:2:0:0:
406,165,14996,1,2,0:2:0:0:
406,165,15128,1,2,0:2:0:0:
406,165,15259,6,0,L|492:177,1,76.5000014591217,2|2,1:2|0:2,0:0:0:0:
512,194,15654,1,2,0:2:0:0:
512,194,15786,1,2,1:2:0:0:
408,70,16049,2,0,L|411:24,1,38.2500007295609,2|0,0:2|0:0,0:0:0:0:
330,147,16312,2,0,L|332:185,1,38.2500007295609,2|0,1:2|2:2,0:0:0:0:
334,275,16575,1,0,3:2:0:0:
255,97,16838,1,0,1:2:0:0:
406,165,17101,2,0,L|452:158,1,38.2500007295609,0|0,3:2|3:2,0:0:0:0:
264,229,17365,1,0,1:2:0:0:
480,320,17628,5,2,0:2:0:0:
330,147,17891,1,2,1:2:0:0:
256,364,18154,1,2,0:2:0:0:
256,364,18286,1,2,0:2:0:0:
256,364,18417,1,2,1:2:0:0:
429,214,18680,1,2,0:2:0:0:
429,214,18812,1,2,0:2:0:0:
429,214,18944,2,0,L|475:221,1,38.2500007295609,0|0,1:2|0:0,0:0:0:0:
480,320,19207,2,0,L|442:314,1,38.2500007295609,2|0,0:2|0:0,0:0:0:0:
328,295,19470,5,2,1:2:0:0:
459,139,19733,1,2,0:2:0:0:
459,139,19865,1,2,0:2:0:0:
459,139,19996,1,2,1:2:0:0:
455,100,20128,1,2,0:2:0:0:
452,62,20259,2,0,L|454:24,1,38.2500007295609,2|2,0:2|0:2,0:0:0:0:
321,180,20522,2,0,L|327:298,1,114.750002188683,2|0,1:2|3:2,0:0:0:0:
331,325,21049,1,0,1:2:0:0:
313,316,21180,1,0,3:2:0:0:
295,312,21312,1,0,3:2:0:0:
276,312,21444,1,0,3:2:0:0:
257,315,21575,1,0,1:2:0:0:
412,219,21838,5,2,0:2:0:0:
255,115,22101,1,2,1:2:0:0:
423,31,22365,1,2,0:2:0:0:
441,33,22496,1,2,0:2:0:0:
463,39,22628,1,2,1:2:0:0:
463,39,22759,2,0,L|511:32,1,38.2500007295609,2|0,0:2|0:0,0:0:0:0:
292,120,23022,1,2,0:2:0:0:
292,120,23154,2,0,L|244:113,1,38.2500007295609,0|0,1:2|0:0,0:0:0:0:
463,201,23417,2,0,L|511:194,1,38.2500007295609,2|0,0:2|0:0,0:0:0:0:
292,282,23680,6,0,L|196:268,1,76.5000014591217,2|2,1:2|0:2,0:0:0:0:
189,265,24075,1,2,0:2:0:0:
198,289,24207,1,2,1:2:0:0:
196,316,24338,1,2,0:2:0:0:
182,338,24470,2,0,L|185:384,1,38.2500007295609,2|0,0:2|0:0,0:0:0:0:
292,282,24733,2,0,L|294:243,1,38.2500007295609,2|0,1:2|3:2,0:0:0:0:
168,189,24996,1,0,3:2:0:0:
373,273,25259,2,0,L|452:265,1,76.5000014591217,8|0,0:2|3:2,0:0:0:0:
236,23,25786,6,0,P|230:52|237:83,1,60,6|2,1:2|0:2,0:0:0:0:
182,338,26312,2,0,P|195:295|180:254,1,90,10|0,0:2|0:0,0:0:0:0:
165,237,26707,1,2,0:0:0:0:
165,237,26838,2,0,L|172:171,1,60,2|2,1:2|0:2,0:0:0:0:
24,14,27365,1,10,0:2:0:0:
86,200,27628,1,2,0:2:0:0:
217,54,27891,6,0,L|322:63,1,90,2|0,1:2|0:0,0:0:0:0:
384,72,28286,1,2,0:2:0:0:
384,72,28417,1,8,0:2:0:0:
171,177,28680,1,2,0:2:0:0:
369,309,28944,2,0,L|449:295,1,60,2|2,1:2|0:2,0:0:0:0:
442,296,29207,1,2,0:2:0:0:
238,277,29470,2,0,P|222:318|233:361,1,90,10|0,0:2|0:0,0:0:0:0:
294,132,29996,6,0,L|234:121,1,60,2|2,1:2|0:2,0:0:0:0:
121,302,30522,2,0,L|159:255,1,60,10|2,0:2|0:2,0:0:0:0:
60,67,31049,2,0,L|80:123,1,60,2|2,1:2|0:2,0:0:0:0:
238,277,31575,1,10,0:2:0:0:
63,213,31838,1,2,0:2:0:0:
234,121,32101,6,0,L|324:137,1,90,2|2,1:2|0:2,0:0:0:0:
398,160,32496,1,2,0:2:0:0:
398,160,32628,1,8,0:2:0:0:
283,269,32891,2,0,L|238:277,1,45,2|0,0:2|0:0,0:0:0:0:
398,160,33154,2,0,L|458:171,1,60,0|0,1:2|0:0,0:0:0:0:
471,174,33417,1,8,0:2:0:0:
234,121,33680,1,8,0:2:0:0:
307,353,33944,2,0,L|351:344,1,45,0|0,3:2|3:2,0:0:0:0:
141,296,34207,6,0,P|127:254|140:212,1,90,2|0,1:2|0:0,0:0:0:0:
277,16,34733,2,0,L|367:22,1,90,10|0,0:2|0:0,0:0:0:0:
402,26,35128,1,2,0:0:0:0:
402,26,35259,1,2,1:2:0:0:
200,104,35522,1,2,0:2:0:0:
200,104,35654,1,2,0:2:0:0:
200,104,35786,1,8,0:2:0:0:
402,182,36049,2,0,L|453:177,1,45,2|2,0:2|0:2,0:0:0:0:
277,16,36312,5,2,1:2:0:0:
222,236,36575,1,2,0:2:0:0:
222,236,36707,2,0,L|228:286,1,45,2|8,0:2|0:2,0:0:0:0:
389,105,37101,1,2,0:2:0:0:
411,102,37233,1,2,0:2:0:0:
433,100,37365,1,2,1:2:0:0:
212,156,37628,1,2,0:2:0:0:
212,156,37759,2,0,L|162:162,1,45,2|8,0:2|0:2,0:0:0:0:
11,350,38154,1,2,0:2:0:0:
11,350,38286,1,2,0:2:0:0:
10,349,38417,6,0,P|-6:309|7:267,1,90,2|0,1:2|0:0,0:0:0:0:
23,251,38812,2,0,L|15:199,1,45,2|8,0:2|0:2,0:0:0:0:
78,13,39207,1,2,0:2:0:0:
139,206,39470,1,2,1:2:0:0:
139,206,39601,2,0,L|145:250,1,45,2|0,0:2|0:0,0:0:0:0:
245,102,39865,1,2,0:2:0:0:
245,102,39996,2,0,P|285:88|331:107,1,90,8|2,0:2|0:2,0:0:0:0:
354,128,40391,2,0,L|347:172,1,45,2|2,3:2|3:2,0:0:0:0:
161,379,40786,6,0,B|153:350|153:350|162:320,1,60.7500002317429,2|0,0:2|0:0,0:0:0:0:
217,197,41049,1,8,0:2:0:0:
289,351,41312,2,0,B|259:349|259:349|255:352|255:352|229:351,1,60.7500002317429,2|0,0:2|0:0,0:0:0:0:
157,197,41575,6,0,B|183:198|183:198|187:195|187:195|217:197,1,60.7499981460572,2|0,0:2|0:0,0:0:0:0:
274,246,42101,6,0,P|259:200|277:152,1,101.250003862381,0|0,3:2|0:0,0:0:0:0:
335,201,42365,5,2,0:2:0:0:
139,21,42628,6,0,B|81:30|81:30|68:41|68:41|9:52,1,135.000005149842,6|0,1:2|0:0,0:0:0:0:
274,246,43154,2,0,B|294:191|294:191|292:174|292:174|311:118,1,135.000005149842,10|0,0:2|0:0,0:0:0:0:
11,250,43680,2,0,B|47:294|47:294|63:301|63:301|102:346,1,135.000005149842,2|0,1:2|0:0,0:0:0:0:
311,118,44207,6,0,P|280:107|246:104,1,67.5000025749208,10|0,0:2|0:0,0:0:0:0:
390,202,44470,1,2,0:2:0:0:
390,201,44601,2,0,P|415:180|434:152,1,67.5000025749208,2|0,0:2|1:2,0:0:0:0:
278,228,44865,1,2,0:2:0:0:
278,228,44996,2,0,P|283:261|298:291,1,67.5000025749208,2|0,0:2|0:0,0:0:0:0:
311,118,45259,2,0,L|302:50,1,67.5000025749208,8|0,0:2|0:0,0:0:0:0:
453,19,45522,2,0,L|435:152,1,135.000005149842,2|0,0:2|1:2,0:0:0:0:
435,153,46180,5,2,0:2:0:0:
360,182,46312,1,10,0:2:0:0:
311,118,46444,2,0,B|251:126|251:126|240:138|240:138|173:148,1,135.000005149842,2|0,0:2|0:0,0:0:0:0:
114,99,46838,6,0,B|89:164|89:164|126:217,1,135.000005149842,2|0,1:2|0:0,0:0:0:0:
379,165,47365,2,0,B|404:100|404:100|366:46,1,135.000005149842,10|0,0:2|0:0,0:0:0:0:
228,322,47891,2,0,P|288:307|372:293,1,135.000005149842,2|0,1:2|0:0,0:0:0:0:
114,99,48417,6,0,P|80:93|47:85,1,67.5000025749208,10|0,0:2|0:0,0:0:0:0:
244,13,48680,1,2,0:2:0:0:
244,13,48812,2,0,P|233:54|228:90,1,67.5000025749208,2|0,0:2|1:2,0:0:0:0:
194,233,49075,1,2,0:2:0:0:
194,233,49207,2,0,P|188:199|179:167,1,67.5000025749208,2|0,0:2|0:0,0:0:0:0:
324,147,49470,2,0,P|357:152|390:160,1,67.5000025749208,8|0,0:2|0:0,0:0:0:0:
510,11,49733,2,0,P|442:27|373:39,1,135.000005149842,2|0,0:2|1:2,0:0:0:0:
498,280,50259,6,0,B|514:239|514:239|495:196,1,90,2|0,0:2|0:0,0:0:0:0:
297,253,50522,2,0,B|354:245|354:245|374:250|374:250|431:241,1,135.000005149842,8|0,0:2|0:0,0:0:0:0:
511,123,50917,5,2,0:2:0:0:
511,123,51049,2,0,P|475:123|447:138,1,67.5000025749208,0|2,1:2|0:2,0:0:0:0:
367,255,51312,1,2,0:0:0:0:
367,255,51444,2,0,P|403:255|431:240,1,67.5000025749208,2|8,0:2|0:2,0:0:0:0:
340,69,51707,2,0,P|347:101|354:134,1,67.5000025749208,2|0,0:2|0:0,0:0:0:0:
273,276,51970,2,0,P|279:242|287:210,1,67.5000025749208,2|0,0:2|1:2,0:0:0:0:
433,267,52233,2,0,P|400:259|367:255,1,67.5000025749208,2|0,0:2|0:0,0:0:0:0:
201,136,52496,2,0,P|234:131|267:123,1,67.5000025749208,2|8,0:2|0:2,0:0:0:0:
433,12,52759,2,0,P|400:3|366:0,1,67.5000025749208,2|0,0:2|0:0,0:0:0:0:
495,196,53022,6,0,P|490:162|487:128,1,67.5000025749208,2|0,0:2|1:2,0:0:0:0:
274,8,53286,2,0,P|271:41|266:75,1,67.5000025749208,2|0,0:2|0:0,0:0:0:0:
207,291,53549,2,0,P|239:281|272:275,1,67.5000025749208,2|8,0:2|0:2,0:0:0:0:
92,118,53812,2,0,P|58:112|26:102,1,67.5000025749208,2|0,0:2|0:0,0:0:0:0:
274,8,54075,1,2,0:2:0:0:
274,8,54207,2,0,P|268:75|259:142,1,135.000005149842,0|0,1:2|0:0,0:0:0:0:
147,342,54601,5,2,0:2:0:0:
207,291,54733,1,10,0:2:0:0:
221,368,54865,2,0,P|283:357|359:347,1,135.000005149842,2|0,0:2|0:0,0:0:0:0:
512,149,55259,6,0,P|471:98|406:99,1,135.000005149842,2|0,1:2|0:0,0:0:0:0:
354,347,55786,2,0,P|418:337|449:279,1,135.000005149842,10|0,0:2|0:0,0:0:0:0:
261,111,56312,2,0,P|237:171|272:227,1,135.000005149842,2|0,1:2|0:0,0:0:0:0:
496,362,56838,6,0,P|485:295|478:219,1,135.000005149842,10|0,0:2|0:0,0:0:0:0:
407,100,57233,2,0,P|403:133|398:166,1,67.5000025749208,2|0,0:2|1:2,0:0:0:0:
383,364,57496,1,2,0:2:0:0:
383,364,57628,2,0,P|377:330|374:297,1,67.5000025749208,2|0,0:2|0:0,0:0:0:0:
487,134,57891,1,8,0:2:0:0:
258,333,58154,5,2,0:2:0:0:
510,213,58417,1,2,1:2:0:0:
258,93,58680,1,10,0:2:0:0:
383,364,58944,1,10,0:2:0:0:
383,364,59075,1,0,3:2:0:0:
383,364,59207,2,0,L|445:357,1,45,0|0,3:2|3:2,0:0:0:0:
256,223,59470,5,2,1:2:0:0:
383,82,59733,1,2,0:2:0:0:
383,82,59865,1,2,0:2:0:0:
383,82,59996,2,0,L|490:94,1,90,10|0,0:2|0:0,0:0:0:0:
256,12,60522,2,0,L|148:24,1,90,2|2,1:2|0:2,0:0:0:0:
91,31,60917,1,2,0:2:0:0:
91,31,61049,1,8,0:2:0:0:
256,114,61312,1,2,0:2:0:0:
256,114,61444,1,2,0:2:0:0:
256,114,61575,5,2,1:2:0:0:
95,230,61838,1,2,0:2:0:0:
97,213,61970,1,2,0:2:0:0:
99,197,62101,2,0,B|149:201|149:201|151:204|151:204|193:207,1,90,10|2,0:2|0:2,0:0:0:0:
269,222,62496,1,2,0:2:0:0:
269,222,62628,1,0,1:2:0:0:
162,72,62891,2,0,L|168:127,1,45,2|0,0:2|3:2,0:0:0:0:
282,7,63154,1,10,0:2:0:0:
299,16,63286,1,0,3:2:0:0:
319,22,63417,1,0,3:2:0:0:
339,24,63549,1,0,3:2:0:0:
359,23,63680,5,0,1:2:0:0:
240,145,63944,1,2,0:2:0:0:
405,188,64207,2,0,L|503:182,1,90,10|0,0:2|0:0,0:0:0:0:
240,145,64733,2,0,P|224:189|237:233,1,90,2|0,1:2|0:0,0:0:0:0:
286,296,65128,1,2,0:2:0:0:
286,296,65259,1,8,0:2:0:0:
405,188,65522,2,0,L|400:137,1,45,2|2,0:2|0:2,0:0:0:0:
237,233,65786,5,2,1:2:0:0:
442,309,66049,1,2,0:2:0:0:
442,309,66180,2,0,L|493:303,1,45,2|8,0:2|0:2,0:0:0:0:
244,149,66575,1,2,0:2:0:0:
229,150,66707,1,2,0:2:0:0:
214,151,66838,2,0,L|167:156,1,45,0|0,1:2|3:2,0:0:0:0:
286,296,67101,1,10,0:2:0:0:
400,140,67365,2,0,L|390:38,1,90,10|0,0:2|3:2,0:0:0:0:
386,15,67759,1,0,3:2:0:0:
386,15,67891,5,2,1:2:0:0:
286,203,68154,1,2,0:2:0:0:
286,203,68286,1,2,0:2:0:0:
286,203,68417,2,0,L|276:108,1,90,10|0,0:2|0:0,0:0:0:0:
54,10,68944,2,0,L|63:104,1,90,2|2,1:2|0:2,0:0:0:0:
76,182,69338,1,2,0:2:0:0:
76,182,69470,1,8,0:2:0:0:
263,32,69733,1,2,0:2:0:0:
276,35,69865,1,2,0:2:0:0:
289,38,69996,5,2,1:2:0:0:
197,211,70259,1,2,0:2:0:0:
184,214,70391,1,2,0:2:0:0:
171,216,70522,2,0,P|152:259|163:304,1,90,10|0,0:2|0:0,0:0:0:0:
216,363,70917,1,2,0:2:0:0:
216,363,71049,2,0,L|328:353,1,90,2|0,1:2|0:0,0:0:0:0:
342,354,71444,1,0,3:0:0:0:
342,354,71575,2,0,L|338:304,3,45,10|0|0|0,0:2|3:2|3:2|3:2,0:0:0:0:
274,265,72101,6,0,P|310:235|357:232,1,90,2|2,1:2|0:2,0:0:0:0:
424,271,72496,1,2,0:2:0:0:
424,271,72628,2,0,P|459:300|506:303,1,90,10|2,0:2|0:2,0:0:0:0:
506,80,73154,1,2,1:2:0:0:
474,79,73286,1,2,0:2:0:0:
445,90,73417,1,2,0:2:0:0:
423,113,73549,2,0,L|430:175,1,45,2|8,0:2|0:2,0:0:0:0:
357,232,73812,2,0,L|352:184,1,45,2|0,0:2|0:0,0:0:0:0:
295,101,74075,1,2,0:2:0:0:
295,101,74207,5,0,1:2:0:0:
264,83,74338,1,2,0:2:0:0:
229,84,74470,1,2,0:2:0:0:
200,103,74601,1,2,0:2:0:0:
185,134,74733,1,10,0:2:0:0:
272,289,74996,1,2,0:2:0:0:
281,255,75128,1,2,0:2:0:0:
274,221,75259,2,0,L|221:228,1,45,2|0,1:2|3:2,0:0:0:0:
144,356,75522,1,10,0:2:0:0:
416,384,75786,2,0,L|410:284,1,90,10|0,0:2|3:2,0:0:0:0:
236,23,76312,6,0,P|202:16|172:24,1,60,6|2,1:2|0:2,0:0:0:0:
212,237,76838,2,0,P|235:211|243:181,1,60,10|2,0:2|0:2,0:0:0:0:
44,110,77365,2,0,P|54:142|76:164,1,60,2|2,1:2|0:2,0:0:0:0:
306,96,77891,1,10,0:2:0:0:
339,93,78022,1,2,0:2:0:0:
373,90,78154,1,2,0:2:0:0:
406,87,78285,1,2,0:2:0:0:
440,84,78417,6,0,P|457:133|442:173,1,90,2|0,1:2|0:0,0:0:0:0:
405,237,78812,1,2,0:2:0:0:
405,237,78944,1,8,0:2:0:0:
345,14,79207,1,2,0:2:0:0:
285,237,79470,1,2,1:2:0:0:
287,259,79601,1,2,0:0:0:0:
290,281,79733,1,2,0:2:0:0:
318,128,79996,2,0,L|220:133,1,90,10|0,0:2|0:0,0:0:0:0:
18,329,80522,6,0,L|27:269,1,60,2|2,1:2|0:2,0:0:0:0:
138,63,81049,2,0,L|147:122,1,60,10|2,0:2|0:2,0:0:0:0:
258,329,81575,2,0,L|267:269,1,60,2|2,1:2|0:2,0:0:0:0:
59,109,82101,1,10,0:2:0:0:
138,329,82365,1,2,0:2:0:0:
217,109,82628,6,0,L|307:125,1,90,2|2,1:2|0:2,0:0:0:0:
383,142,83022,1,2,0:2:0:0:
383,142,83154,1,8,0:2:0:0:
196,210,83417,1,2,0:2:0:0:
338,47,83680,1,2,1:2:0:0:
360,50,83812,1,2,0:2:0:0:
382,54,83944,1,8,0:2:0:0:
143,146,84207,1,8,0:2:0:0:
382,238,84470,2,0,L|426:229,1,45,0|0,3:2|3:2,0:0:0:0:
143,330,84733,6,0,L|24:305,1,90,2|0,1:2|0:0,0:0:0:0:
207,99,85259,2,0,P|220:142|209:185,1,90,10|0,0:2|0:0,0:0:0:0:
178,259,85654,1,2,0:0:0:0:
178,259,85786,1,2,1:2:0:0:
347,93,86049,1,2,0:2:0:0:
347,93,86180,1,2,0:2:0:0:
347,93,86312,1,8,0:2:0:0:
119,30,86575,1,2,0:2:0:0:
285,199,86838,5,2,1:2:0:0:
45,155,87101,1,2,0:2:0:0:
45,155,87233,2,0,L|-5:161,1,45,2|8,0:2|0:2,0:0:0:0:
264,28,87628,1,2,0:2:0:0:
262,50,87760,1,2,0:2:0:0:
259,72,87891,1,2,1:2:0:0:
333,280,88154,1,2,0:2:0:0:
333,280,88286,2,0,L|383:274,1,45,2|8,0:2|0:2,0:0:0:0:
511,47,88680,1,2,0:2:0:0:
511,47,88812,1,2,0:2:0:0:
511,47,88944,6,0,P|471:31|429:44,1,90,2|0,1:2|0:0,0:0:0:0:
410,58,89338,2,0,L|361:52,1,45,2|8,0:2|0:2,0:0:0:0:
509,228,89733,1,2,0:2:0:0:
312,228,89996,1,2,1:2:0:0:
312,228,90128,2,0,L|318:294,1,45,2|0,0:2|0:0,0:0:0:0:
436,379,90391,1,2,0:2:0:0:
436,379,90523,2,0,L|444:289,1,90,8|0,0:2|0:0,0:0:0:0:
443,266,90917,2,0,L|438:221,1,45,2|2,3:2|3:2,0:0:0:0:
446,229,91575,5,8,0:2:0:0:
446,229,91707,1,2,0:2:0:0:
446,229,91838,2,0,B|415:217|415:217|388:224,1,60.7500002317429,2|0,0:2|0:0,0:0:0:0:
242,366,92101,6,0,B|268:373|268:373|299:361,1,60.7500002317429,2|0,0:2|0:0,0:0:0:0:
316,355,92628,6,0,B|307:306|307:306|304:306|304:306|296:258,1,101.250003862381,0|0,3:2|0:0,0:0:0:0:
291,242,92891,5,2,0:2:0:0:
80,53,93154,6,0,B|48:113|48:113|75:175,1,135.000005149842,6|0,1:2|0:0,0:0:0:0:
344,87,93680,2,0,B|308:29|308:29|240:21,1,135.000005149842,10|0,0:2|0:0,0:0:0:0:
183,298,94207,2,0,B|250:295|250:295|291:241,1,135.000005149842,2|0,1:2|0:0,0:0:0:0:
80,57,94733,6,0,L|5:63,1,67.5000025749208,10|0,0:2|0:0,0:0:0:0:
220,130,94996,1,2,0:2:0:0:
220,130,95128,2,0,L|287:135,1,67.5000025749208,2|0,0:2|1:2,0:0:0:0:
80,203,95390,1,2,0:2:0:0:
80,203,95522,2,0,L|12:208,1,67.5000025749208,2|0,0:2|0:0,0:0:0:0:
220,276,95786,5,8,0:2:0:0:
176,152,96049,1,2,0:2:0:0:
176,152,96180,1,2,0:2:0:0:
176,152,96312,2,0,B|235:156|235:156|248:166|248:166|311:171,1,135.000005149842,0|2,1:2|0:2,0:0:0:0:
510,242,96707,5,2,0:2:0:0:
445,196,96838,1,10,0:2:0:0:
380,244,96970,2,0,B|320:248|320:248|308:258|308:258|245:263,1,135.000005149842,2|0,0:2|0:0,0:0:0:0:
180,310,97365,6,0,P|166:245|207:189,1,135.000005149842,2|0,1:2|0:0,0:0:0:0:
455,281,97891,2,0,P|405:325|336:318,1,135.000005149842,10|0,0:2|0:0,0:0:0:0:
293,58,98417,2,0,P|356:78|384:141,1,135.000005149842,2|0,1:2|0:0,0:0:0:0:
180,310,98944,6,0,P|147:300|114:296,1,67.5000025749208,10|0,0:2|0:0,0:0:0:0:
6,212,99207,1,2,0:2:0:0:
6,212,99338,2,0,P|31:188|51:161,1,67.5000025749208,2|0,0:2|1:2,0:0:0:0:
177,110,99602,1,2,0:2:0:0:
177,110,99733,2,0,P|184:143|197:174,1,67.5000025749208,2|0,0:2|0:0,0:0:0:0:
266,282,99996,1,8,0:2:0:0:
337,104,100259,1,2,0:2:0:0:
337,104,100391,1,2,0:2:0:0:
337,104,100522,1,0,1:2:0:0:
146,24,100786,6,0,B|99:18|99:18|65:48,1,90,2|0,0:2|0:0,0:0:0:0:
155,160,101049,1,8,0:2:0:0:
155,160,101180,2,0,L|128:93,1,67.5000025749208,2|2,0:0|0:2,0:0:0:0:
304,8,101444,5,2,0:2:0:0:
304,8,101575,2,0,P|295:46|293:81,1,67.5000025749208,0|2,1:2|0:2,0:0:0:0:
262,284,101838,1,2,0:0:0:0:
262,284,101969,2,0,P|259:250|250:217,1,67.5000025749208,2|8,0:2|0:2,0:0:0:0:
291,4,102233,2,0,P|282:42|280:77,1,67.5000025749208,2|0,0:2|0:0,0:0:0:0:
375,258,102496,2,0,P|407:250|441:247,1,67.5000025749208,2|0,0:2|1:2,0:0:0:0:
220,140,102759,2,0,P|186:136|153:129,1,67.5000025749208,2|0,0:2|0:0,0:0:0:0:
391,50,103022,2,0,P|400:83|392:116,1,67.5000025749208,2|8,0:2|0:2,0:0:0:0:
262,284,103286,2,0,P|254:251|262:218,1,67.5000025749208,2|0,0:2|0:0,0:0:0:0:
443,360,103549,6,0,P|410:352|376:349,1,67.5000025749208,2|0,0:2|1:2,0:0:0:0:
121,318,103812,2,0,P|154:314|187:307,1,67.5000025749208,2|0,0:2|0:0,0:0:0:0:
443,276,104075,2,0,B|452:243|452:243|441:211,1,67.5000025749208,2|8,0:2|0:2,0:0:0:0:
218,135,104338,2,0,B|207:166|207:166|216:199,1,67.5000025749208,2|0,0:2|0:0,0:0:0:0:
382,23,104601,1,2,0:2:0:0:
382,23,104733,2,0,B|447:30|447:30|459:40|459:40|512:45,1,135.000005149842,0|0,1:2|0:0,0:0:0:0:
320,79,105128,5,2,0:2:0:0:
364,146,105259,1,10,0:2:0:0:
304,199,105391,2,0,B|244:192|244:192|232:182|232:182|168:173,1,135.000005149842,2|0,0:2|0:0,0:0:0:0:
350,265,105786,6,0,P|383:208|363:145,1,135.000005149842,2|0,1:2|0:0,0:0:0:0:
91,185,106312,2,0,P|123:242|187:256,1,135.000005149842,10|0,0:2|0:0,0:0:0:0:
290,0,106838,2,0,P|224:0|179:47,1,135.000005149842,2|0,1:2|0:0,0:0:0:0:
293,321,107365,6,0,P|358:303|441:291,1,135.000005149842,10|0,0:2|0:0,0:0:0:0:
512,203,107759,2,0,P|478:197|446:188,1,67.5000025749208,2|0,0:2|1:2,0:0:0:0:
264,143,108022,1,2,0:2:0:0:
264,143,108154,2,0,P|296:133|329:128,1,67.5000025749208,2|0,0:2|0:0,0:0:0:0:
424,292,108417,1,8,0:2:0:0:
214,239,108680,5,2,0:2:0:0:
446,189,108944,1,2,1:2:0:0:
192,153,109207,1,10,0:2:0:0:
424,103,109470,1,10,0:2:0:0:
435,146,109601,1,0,3:2:0:0:
446,189,109733,1,0,3:2:0:0:
129,199,109996,6,0,P|115:165|118:130,1,72,6|0,1:2|0:0,0:0:0:0:
264,298,110259,1,2,0:2:0:0:
193,312,110391,1,2,0:2:0:0:
122,326,110522,2,0,L|35:318,1,72,10|0,0:2|0:0,0:0:0:0:
288,198,110786,1,2,0:2:0:0:
329,256,110917,2,0,P|340:289|335:324,1,72,2|0,0:2|1:2,0:0:0:0:
129,199,111180,1,2,0:2:0:0:
92,136,111312,2,0,P|86:100|98:67,1,72,2|0,0:2|0:0,0:0:0:0:
294,129,111575,2,0,P|299:164|288:198,1,72,10|0,0:2|0:0,0:0:0:0:
159,2,111838,1,2,0:2:0:0:
230,16,111970,1,2,0:2:0:0:
301,30,112101,6,0,L|372:23,1,72,2|0,1:2|0:0,0:0:0:0:
446,15,112365,1,2,0:2:0:0:
219,234,112628,1,10,0:2:0:0:
481,334,112891,1,2,0:2:0:0:
451,268,113022,2,0,L|460:188,1,72,2|0,0:2|1:2,0:0:0:0:
344,99,113286,1,2,0:2:0:0:
374,165,113417,2,0,L|365:245,1,72,2|0,0:2|0:0,0:0:0:0:
341,369,113680,2,0,P|304:310|236:313,1,144,8|0,0:2|3:2,0:0:0:0:
3,361,114207,6,0,P|36:371|71:364,1,72,6|0,1:2|0:0,0:0:0:0:
144,190,114470,1,2,0:2:0:0:
78,160,114601,1,2,0:2:0:0:
38,222,114733,2,0,L|42:293,1,72,10|0,0:2|0:0,0:0:0:0:
236,312,114996,1,2,0:2:0:0:
283,256,115128,2,0,L|278:184,1,72,2|0,0:2|1:2,0:0:0:0:
120,32,115391,1,2,0:2:0:0:
73,88,115523,2,0,L|78:160,1,72,2|0,0:2|0:0,0:0:0:0:
315,119,115786,2,0,P|282:109|247:116,1,72,10|0,0:2|0:0,0:0:0:0:
171,282,116049,1,2,0:2:0:0:
236,312,116180,1,2,0:2:0:0:
283,256,116312,6,0,L|279:185,1,72,2|0,1:2|0:0,0:0:0:0:
274,17,116575,1,2,0:2:0:0:
389,254,116838,1,10,0:2:0:0:
125,247,117101,1,2,0:2:0:0:
171,191,117233,2,0,P|212:179|248:188,1,72,2|0,0:2|1:2,0:0:0:0:
428,315,117496,1,2,0:2:0:0:
374,365,117628,2,0,P|338:369|304:358,1,72,2|0,0:2|0:0,0:0:0:0:
376,129,117891,2,0,B|416:177|416:177|389:254,1,144,8|2,0:2|0:2,0:0:0:0:
255,181,118286,5,2,0:2:0:0:
255,181,118417,2,0,P|294:187|341:193,1,72,0|2,1:2|0:2,0:0:0:0:
464,38,118680,1,2,0:0:0:0:
464,38,118812,2,0,P|425:44|378:50,1,72,2|8,0:2|0:2,0:0:0:0:
255,198,119075,2,0,P|290:203|326:208,1,72,2|0,0:2|0:0,0:0:0:0:
189,5,119338,2,0,P|197:42|199:90,1,72,2|0,0:2|1:2,0:0:0:0:
144,291,119601,2,0,P|146:255|154:219,1,72,2|0,0:2|0:0,0:0:0:0:
274,1,119865,2,0,P|282:38|284:86,1,72,2|8,0:2|0:2,0:0:0:0:
229,295,120128,2,0,P|232:259|240:224,1,72,2|0,0:2|0:0,0:0:0:0:
106,54,120391,6,0,P|73:43|37:45,1,72,2|0,0:2|1:2,0:0:0:0:
74,300,120654,2,0,P|110:302|144:291,1,72,2|0,0:2|0:0,0:0:0:0:
261,49,120917,2,0,P|228:38|192:40,1,72,2|8,0:2|0:2,0:0:0:0:
229,295,121180,2,0,P|265:297|299:286,1,72,2|0,0:2|0:0,0:0:0:0:
416,44,121444,1,2,0:2:0:0:
416,44,121575,2,0,B|420:111|420:111|413:129|413:129|416:186,1,144,0|0,1:2|0:0,0:0:0:0:
504,375,121970,5,2,0:2:0:0:
442,338,122101,1,10,0:2:0:0:
382,379,122233,2,0,B|318:372|318:372|301:379|301:379|240:372,1,144,2|0,0:2|0:0,0:0:0:0:
150,196,122628,6,0,P|191:140|261:138,1,144,2|0,1:2|0:0,0:0:0:0:
382,379,123154,2,0,P|312:370|276:311,1,144,10|0,0:2|0:0,0:0:0:0:
425,87,123680,2,0,P|452:151|419:212,1,144,2|0,1:2|0:0,0:0:0:0:
150,196,124207,6,0,L|164:44,1,144,10|0,0:2|0:0,0:0:0:0:
72,42,124601,2,0,L|65:113,1,72,2|0,0:2|1:2,0:0:0:0:
241,206,124865,1,2,0:2:0:0:
241,206,124996,2,0,L|247:134,1,72,2|0,0:2|0:0,0:0:0:0:
56,188,125259,1,8,0:2:0:0:
257,60,125522,5,2,0:2:0:0:
0,144,125786,1,2,1:2:0:0:
313,104,126049,1,10,0:2:0:0:
0,64,126312,1,10,0:2:0:0:
0,64,126444,1,0,3:2:0:0:
0,64,126575,2,0,L|6:11,1,45,0|0,3:2|3:2,0:0:0:0:
56,188,126838,5,6,1:2:0:0:
56,188,135259,5,2,1:2:0:0:
220,93,135522,1,2,0:2:0:0:
213,71,135654,1,2,0:2:0:0:
206,49,135786,1,10,0:2:0:0:
170,220,136049,1,2,0:2:0:0:
170,220,136180,2,0,L|221:207,1,49.5000015106202,2|0,0:2|1:2,0:0:0:0:
372,160,136444,1,2,0:2:0:0:
372,160,136575,2,0,L|321:147,1,49.5000015106202,2|0,0:2|0:0,0:0:0:0:
205,49,136838,2,0,P|237:22|297:26,1,99.0000030212403,10|0,0:2|0:0,0:0:0:0:
217,208,137365,5,2,1:2:0:0:
97,62,137628,1,2,0:2:0:0:
102,37,137759,1,2,0:2:0:0:
107,12,137891,1,10,0:2:0:0:
275,109,138154,1,2,0:2:0:0:
275,109,138286,2,0,L|323:99,1,49.5000015106202,2|0,0:2|1:2,0:0:0:0:
97,195,138549,1,2,0:2:0:0:
97,195,138681,2,0,L|48:185,1,49.5000015106202,2|0,0:2|0:0,0:0:0:0:
275,281,138944,2,0,L|372:261,1,99.0000030212403,10|0,0:2|0:0,0:0:0:0:
512,116,139470,5,2,1:2:0:0:
358,215,139733,1,2,0:2:0:0:
365,238,139865,1,2,0:2:0:0:
372,261,139996,1,10,0:2:0:0:
433,120,140259,1,2,0:2:0:0:
433,120,140391,2,0,L|419:72,1,49.5000015106202,2|0,0:2|1:2,0:0:0:0:
451,257,140654,1,2,0:2:0:0:
451,257,140786,2,0,L|464:304,1,49.5000015106202,2|0,0:2|0:0,0:0:0:0:
338,118,141049,2,0,B|294:133|294:133|291:139|291:139|247:153,1,99.0000030212403,10|0,0:2|0:0,0:0:0:0:
5,65,141575,5,2,1:2:0:0:
209,10,141838,1,2,0:2:0:0:
209,10,141970,2,0,L|204:63,1,49.5000015106202,2|8,0:2|0:2,0:0:0:0:
144,197,142233,1,2,0:0:0:0:
144,197,142365,2,0,L|133:88,1,99.0000030212403,2|2,0:2|1:2,0:0:0:0:
123,23,142759,1,2,0:2:0:0:
123,23,142891,1,8,0:0:0:0:
338,118,143154,1,10,0:2:0:0:
197,50,143417,1,2,0:0:0:0:
262,5,143680,5,2,0:0:0:0:
262,5,152101,6,0,P|272:46|259:78,1,76.5000014591217,2|2,0:2|0:2,0:0:0:0:
238,103,152496,2,0,L|242:149,1,38.2500007295609,2|8,0:2|0:0,0:0:0:0:
172,201,152759,2,0,L|168:162,1,38.2500007295609,2|0,0:2|0:0,0:0:0:0:
157,72,153022,2,0,P|121:58|84:64,1,76.5000014591217,2|2,0:2|0:2,0:0:0:0:
53,79,153417,1,2,0:0:0:0:
53,79,153549,2,0,L|57:125,1,38.2500007295609,2|8,0:2|0:0,0:0:0:0:
172,201,153812,2,0,L|168:162,1,38.2500007295609,2|0,0:2|0:0,0:0:0:0:
153,33,154075,6,0,L|157:72,1,38.2500007295609,2|0,0:2|0:0,0:0:0:0:
72,247,154338,2,0,L|68:208,1,38.2500007295609,2|0,0:2|0:0,0:0:0:0:
53,79,154601,2,0,L|57:125,1,38.2500007295609,2|8,0:2|0:0,0:0:0:0:
172,201,154864,2,0,L|168:162,1,38.2500007295609,2|0,0:2|0:0,0:0:0:0:
153,33,155128,2,0,P|205:10|261:29,1,114.750002188683,2|0,0:2|0:0,0:0:0:0:
273,35,155654,1,2,0:2:0:0:
291,41,155786,1,10,0:2:0:0:
310,40,155917,2,0,L|397:49,1,76.5000014591217,2|0,0:2|0:0,0:0:0:0:
446,7,156312,6,0,B|463:43|463:43|451:79,1,76.5000014591217,2|0,0:2|0:0,0:0:0:0:
497,240,156838,2,0,B|485:205|485:205|502:169,1,76.5000014591217,10|0,0:2|0:0,0:0:0:0:
386,47,157365,2,0,L|310:40,1,76.5000014591217,2|0,0:2|0:0,0:0:0:0:
220,143,157891,2,0,L|296:135,1,76.5000014591217,10|0,0:2|0:0,0:0:0:0:
315,133,158286,1,2,0:2:0:0:
334,131,158417,5,10,0:2:0:0:
174,31,158680,1,0,1:0:0:0:
306,222,158944,1,10,0:2:0:0:
417,28,159207,1,0,1:0:0:0:
197,155,159470,1,8,0:2:0:0:
417,282,159733,1,0,1:0:0:0:
260,89,159996,2,0,P|255:70|252:51,1,38.2500007295609,10|0,0:0|3:0,0:0:0:0:
182,283,160259,2,0,P|178:301|174:320,1,38.2500007295609,0|0,1:0|3:0,0:0:0:0:
424,120,160522,6,0,B|461:182|461:182|428:254,1,144,6|0,1:2|0:0,0:0:0:0:
155,160,161049,2,0,B|190:96|190:96|269:89,1,144,10|0,0:2|0:0,0:0:0:0:
325,373,161575,2,0,B|252:374|252:374|206:309,1,144,2|0,1:2|0:0,0:0:0:0:
424,120,162101,6,0,P|462:111|497:107,1,72,10|0,0:2|0:0,0:0:0:0:
261,90,162365,1,2,0:2:0:0:
261,90,162496,2,0,P|234:61|213:33,1,72,2|0,0:2|1:2,0:0:0:0:
316,246,162760,1,2,0:2:0:0:
316,246,162891,2,0,P|304:283|290:315,1,72,2|0,0:2|0:0,0:0:0:0:
424,120,163154,2,0,P|462:111|497:107,1,72,8|0,0:2|0:0,0:0:0:0:
316,246,163417,2,0,P|245:229|174:220,2,144,2|0|2,0:2|1:2|0:2,0:0:0:0:
493,362,164075,5,2,0:2:0:0:
459,292,164207,1,10,0:2:0:0:
503,228,164338,2,0,B|495:160|495:160|486:152|486:152|477:89,1,144,2|0,0:2|0:0,0:0:0:0:
315,16,164733,6,0,B|275:2|243:29|256:38|229:59|182:52,1,144,2|0,1:2|0:0,0:0:0:0:
345,294,165259,2,0,B|377:266|369:225|355:231|350:198|379:160,1,144,10|0,0:2|0:0,0:0:0:0:
89,180,165786,2,0,B|96:221|136:235|137:220|169:232|186:276,1,144,2|0,1:2|0:0,0:0:0:0:
183,53,166312,6,0,B|149:37|149:37|110:47,1,72,10|0,0:2|0:0,0:0:0:0:
246,198,166575,1,2,0:2:0:0:
246,198,166707,2,0,B|276:176|276:176|287:137,1,72,2|0,0:2|1:2,0:0:0:0:
89,180,166970,1,2,0:2:0:0:
89,180,167101,2,0,B|92:217|92:217|120:246,1,72,2|2,0:2|0:0,0:0:0:0:
257,71,167365,2,0,P|253:35|250:0,1,72,8|0,0:2|0:0,0:0:0:0:
196,255,167628,2,0,P|265:236|336:221,1,144,2|0,0:2|1:0,0:0:0:0:
505,355,168154,1,2,0:2:0:0:
422,160,168417,1,8,0:2:0:0:
426,135,168549,1,2,0:0:0:0:
510,104,168680,1,2,0:2:0:0:
506,79,168812,1,2,0:2:0:0:
421,47,168944,6,0,P|387:38|352:44,1,72,0|0,1:2|0:0,0:0:0:0:
265,224,169207,1,2,0:0:0:0:
265,224,169338,2,0,P|300:229|334:220,1,72,2|8,0:2|0:2,0:0:0:0:
424,38,169601,2,0,P|389:28|354:34,1,72,2|0,0:2|0:0,0:0:0:0:
430,240,169865,2,0,P|423:204|419:168,1,72,2|0,0:2|1:0,0:0:0:0:
256,24,170128,2,0,P|262:59|266:95,1,72,2|0,0:2|0:0,0:0:0:0:
275,295,170391,2,0,P|268:259|264:223,1,72,2|8,0:2|0:2,0:0:0:0:
101,79,170654,2,0,P|107:114|111:150,1,72,2|0,0:2|0:0,0:0:0:0:
120,350,170917,6,0,P|84:363|46:363,1,72,2|0,0:2|1:2,0:0:0:0:
245,146,171180,2,0,P|280:147|314:159,1,72,2|0,0:2|0:0,0:0:0:0:
39,288,171444,2,0,P|14:258|1:222,1,72,2|8,0:2|0:0,0:0:0:0:
326,235,171707,2,0,P|350:264|363:300,1,72,2|0,0:2|0:0,0:0:0:0:
73,194,171970,1,2,0:2:0:0:
73,194,172101,2,0,P|106:128|174:117,1,144,0|0,1:2|0:0,0:0:0:0:
326,235,172496,5,2,0:2:0:0:
251,207,172628,1,10,0:2:0:0:
198,266,172759,2,0,B|135:281|135:281|119:300|119:300|65:310,1,144,2|0,0:2|0:0,0:0:0:0:
42,134,173154,5,2,1:2:0:0:
326,235,173417,1,2,0:2:0:0:
42,336,173680,5,10,0:2:0:0:
326,235,173943,1,2,0:2:0:0:
43,91,174207,5,2,1:2:0:0:
144,375,174470,1,2,0:2:0:0:
245,91,174733,5,10,0:2:0:0:
144,375,174996,1,2,0:2:0:0:
208,328,175128,2,0,B|242:331|242:331|247:335|247:335|291:339,1,72,2|0,0:2|1:2,0:0:0:0:
512,267,175391,1,2,0:2:0:0:
443,306,175522,2,0,B|411:303|411:303|406:299|406:299|372:296,1,72,2|0,0:2|0:0,0:0:0:0:
216,205,175786,1,10,0:2:0:0:
506,354,176049,5,2,0:2:0:0:
336,79,176312,1,2,1:2:0:0:
166,354,176575,1,10,0:2:0:0:
449,180,176838,1,10,0:2:0:0:
444,223,176970,1,0,1:2:0:0:
439,266,177101,1,0,1:2:0:0:
273,37,177365,6,0,P|302:10|345:4,1,72,6|0,1:2|0:0,0:0:0:0:
352,217,177628,1,2,0:2:0:0:
280,210,177759,1,2,0:2:0:0:
208,204,177891,2,0,L|133:219,1,72,10|0,0:2|0:0,0:0:0:0:
332,2,178154,1,2,0:2:0:0:
385,50,178286,2,0,P|381:92|376:143,1,72,2|0,0:2|1:2,0:0:0:0:
254,323,178549,1,2,0:2:0:0:
201,275,178681,2,0,P|205:233|210:182,1,72,2|0,0:2|0:0,0:0:0:0:
420,185,178944,2,0,P|377:197|340:185,1,72,10|0,0:2|0:0,0:0:0:0:
132,27,179207,1,2,0:2:0:0:
192,65,179338,1,2,0:2:0:0:
248,20,179470,6,0,P|283:14|316:26,1,72,2|0,1:2|0:0,0:0:0:0:
207,203,179733,1,2,0:2:0:0:
207,203,179865,1,2,0:0:0:0:
207,203,179996,1,10,0:2:0:0:
379,126,180259,1,2,0:2:0:0:
420,185,180391,2,0,P|429:219|423:254,1,72,2|0,0:2|1:2,0:0:0:0:
251,333,180654,1,2,0:2:0:0:
211,272,180786,2,0,P|201:237|207:202,1,72,2|0,0:2|0:0,0:0:0:0:
316,26,181049,1,8,0:2:0:0:
102,219,181312,2,0,B|156:208|156:208|162:212|162:212|206:202,1,108,0|0,3:2|0:0,0:0:0:0:
277,228,181575,6,0,P|281:193|268:160,1,72,6|0,1:2|0:0,0:0:0:0:
40,88,181838,1,2,0:2:0:0:
36,161,181970,1,2,0:2:0:0:
32,234,182101,2,0,B|103:219,1,72,10|0,0:2|0:0,0:0:0:0:
264,86,182365,1,2,0:2:0:0:
268,159,182496,2,0,B|196:144,1,72,2|0,0:2|1:2,0:0:0:0:
44,15,182759,1,2,0:2:0:0:
40,88,182890,2,0,B|111:73,1,72,2|0,0:2|0:0,0:0:0:0:
335,126,183154,2,0,P|343:166|330:200,1,72,10|0,0:2|0:0,0:0:0:0:
181,369,183417,1,2,0:2:0:0:
235,322,183549,1,2,0:2:0:0:
289,371,183680,6,0,P|323:379|357:369,1,72,2|0,1:2|0:0,0:0:0:0:
268,159,183944,1,2,0:2:0:0:
268,159,184075,1,2,0:0:0:0:
268,159,184207,1,10,0:2:0:0:
109,363,184470,1,2,0:2:0:0:
181,369,184601,2,0,L|172:285,1,72,2|0,0:2|1:2,0:0:0:0:
9,157,184865,1,2,0:2:0:0:
3,229,184996,2,0,L|87:220,1,72,2|0,0:2|0:0,0:0:0:0:
268,159,185259,1,8,0:2:0:0:
232,96,185391,1,2,0:0:0:0:
285,47,185522,2,0,P|323:51|366:56,1,72,2|2,0:2|0:2,0:0:0:0:
375,266,185786,6,0,B|363:232|363:232|374:190,1,72,0|2,1:2|0:2,0:0:0:0:
119,17,186049,1,2,0:0:0:0:
119,17,186180,2,0,B|131:51|131:51|120:93,1,72,2|8,0:2|0:2,0:0:0:0:
320,139,186444,2,0,P|354:121|391:122,1,72,2|0,0:2|0:0,0:0:0:0:
176,313,186707,2,0,P|142:331|105:330,1,72,2|0,0:2|1:2,0:0:0:0:
316,129,186970,2,0,P|350:111|387:112,1,72,2|0,0:2|0:0,0:0:0:0:
125,259,187233,2,0,P|121:223|114:187,1,72,2|8,0:2|0:2,0:0:0:0:
266,0,187496,2,0,P|259:35|255:71,1,72,2|0,0:2|0:0,0:0:0:0:
302,327,187759,6,0,P|335:339|371:336,1,72,2|0,0:2|1:2,0:0:0:0:
115,188,188022,2,0,P|79:184|45:197,1,72,2|0,0:2|0:0,0:0:0:0:
301,337,188286,2,0,P|334:349|370:346,1,72,2|8,0:2|0:2,0:0:0:0:
113,177,188549,2,0,P|77:174|44:187,1,72,2|0,0:2|0:0,0:0:0:0:
346,264,188812,1,2,0:2:0:0:
346,264,188944,2,0,P|339:197|337:121,1,144,0|0,1:2|0:0,0:0:0:0:
508,7,189338,5,2,0:2:0:0:
440,49,189470,1,10,0:2:0:0:
368,15,189601,2,0,B|304:23|304:23|296:30|296:30|228:41,1,144,2|0,0:2|0:0,0:0:0:0:
113,177,189996,6,0,B|199:158|168:214|250:198,1,144,2|0,1:2|0:0,0:0:0:0:
419,377,190522,2,0,B|359:312|423:310|368:247,1,144,10|0,0:2|0:0,0:0:0:0:
440,12,191049,2,0,B|413:95|380:41|352:120,1,144,2|0,1:2|0:0,0:0:0:0:
58,243,191575,6,0,P|25:180|51:116,1,144,10|0,0:2|0:0,0:0:0:0:
184,188,191970,2,0,P|148:181|113:177,1,72,2|0,0:2|1:2,0:0:0:0:
279,19,192233,1,2,0:2:0:0:
279,19,192365,2,0,P|243:25|207:30,1,72,2|0,0:2|0:0,0:0:0:0:
373,188,192628,1,8,0:2:0:0:
112,22,192891,1,2,0:2:0:0:
183,351,193154,5,2,1:2:0:0:
255,252,193286,1,0,1:2:0:0:
255,375,193417,1,2,1:2:0:0:
183,276,193549,1,0,1:2:0:0:
299,313,193680,1,0,1:2:0:0:
