osu file format v14

[General]
AudioFilename: audio.mp3
AudioLeadIn: 0
PreviewTime: 95026
Countdown: 0
SampleSet: Soft
StackLeniency: 0.7
Mode: 2
LetterboxInBreaks: 0
WidescreenStoryboard: 0

[Editor]
Bookmarks: 133785
DistanceSpacing: 2.8
BeatDivisor: 4
GridSize: 16
TimelineZoom: 2.3

[Metadata]
Title:Dope
TitleUnicode:Dope
Artist:BTS
ArtistUnicode:방탄소년단
Creator:wonjae
Version:Collab Rain
Source:
Tags:part rew0825 paranoid grapes cakenoob kpop trap 화양연화 The Most Beautiful Moment In Life Pt. 1 jimin suga jungkook rapmonster jin v jhope bighit entertainment 랩몬스터 슈가 진 제이홉 지민 뷔 정국 korean
BeatmapID:2608848
BeatmapSetID:1255292

[Difficulty]
HPDrainRate:6
CircleSize:4
OverallDifficulty:9
ApproachRate:9
SliderMultiplier:2.17
SliderTickRate:2

[Events]
//Background and Video events
0,0,"rew bg.jpg",0,0
//Break Periods
2,196329,204880
//Storyboard Layer 0 (Background)
//Storyboard Layer 1 (Fail)
//Storyboard Layer 2 (Pass)
//Storyboard Layer 3 (Foreground)
//Storyboard Layer 4 (Overlay)
//Storyboard Sound Samples

[TimingPoints]
9117,389.61038961039,4,2,1,50,1,0
21584,-100,4,2,1,60,0,0
34052,-100,4,2,2,80,0,1
35123,-100,4,2,2,5,0,1
35220,-100,4,2,2,80,0,1
35318,-100,4,2,2,5,0,1
35415,-100,4,2,2,80,0,1
35513,-100,4,2,2,5,0,1
35610,-100,4,2,2,80,0,1
35707,-100,4,2,2,5,0,1
35805,-100,4,2,2,80,0,1
35902,-100,4,2,2,5,0,1
36000,-100,4,2,2,80,0,1
38240,-100,4,2,2,5,0,1
38337,-100,4,2,2,80,0,1
38435,-100,4,2,2,5,0,1
38532,-100,4,2,2,80,0,1
38629,-100,4,2,2,5,0,1
38727,-100,4,2,2,80,0,1
39019,-100,4,2,2,5,0,1
39117,-100,4,2,2,80,0,1
41357,-100,4,2,2,5,0,1
41454,-100,4,2,2,80,0,1
41552,-100,4,2,2,5,0,1
41649,-100,4,2,2,80,0,1
41746,-100,4,2,2,5,0,1
41844,-100,4,2,2,80,0,1
41941,-100,4,2,2,5,0,1
42039,-100,4,2,2,80,0,1
42136,-100,4,2,2,5,0,1
42233,-100,4,2,2,80,0,1
46519,-100,4,2,1,50,0,0
55870,-100,4,2,1,50,0,0
58987,-100,4,2,1,60,0,0
68337,-100,4,2,1,50,0,0
90155,-100,4,2,1,60,0,0
96389,-100,4,2,2,80,0,1
97461,-100,4,2,2,5,0,1
97558,-100,4,2,2,80,0,1
97655,-100,4,2,2,5,0,1
97753,-100,4,2,2,80,0,1
97850,-100,4,2,2,5,0,1
97948,-100,4,2,2,80,0,1
98045,-100,4,2,2,5,0,1
98142,-100,4,2,2,80,0,1
98240,-100,4,2,2,50,0,1
98337,-100,4,2,2,80,0,1
100578,-100,4,2,2,5,0,1
100675,-100,4,2,2,80,0,1
100772,-100,4,2,2,5,0,1
100870,-100,4,2,2,80,0,1
100967,-100,4,2,2,5,0,1
101065,-100,4,2,2,80,0,1
101357,-100,4,2,2,5,0,1
101454,-100,4,2,2,80,0,1
103694,-100,4,2,2,5,0,1
103792,-100,4,2,2,80,0,1
103889,-100,4,2,2,5,0,1
103987,-100,4,2,2,80,0,1
104084,-100,4,2,2,5,0,1
104181,-100,4,2,2,80,0,1
104279,-100,4,2,2,5,0,1
104376,-100,4,2,2,80,0,1
104474,-100,4,2,2,5,0,1
104571,-100,4,2,2,80,0,1
109928,-100,4,2,2,5,0,1
110026,-100,4,2,2,80,0,1
110123,-100,4,2,2,5,0,1
110220,-100,4,2,2,80,0,1
110318,-100,4,2,2,5,0,1
110415,-100,4,2,2,80,0,1
110513,-100,4,2,2,5,0,1
110610,-100,4,2,2,80,0,1
110707,-100,4,2,2,5,0,1
110805,-100,4,2,2,80,0,1
113045,-100,4,2,2,5,0,1
113142,-100,4,2,2,80,0,1
113240,-100,4,2,2,5,0,1
113337,-100,4,2,2,80,0,1
113435,-100,4,2,2,5,0,1
113532,-100,4,2,2,80,0,1
113824,-100,4,2,2,5,0,1
113922,-100,4,2,2,80,0,1
116162,-100,4,2,2,5,0,1
116259,-100,4,2,2,80,0,1
116357,-100,4,2,2,5,0,1
116454,-100,4,2,2,80,0,1
116552,-100,4,2,2,5,0,1
116649,-100,4,2,2,80,0,1
116746,-100,4,2,2,5,0,1
116844,-100,4,2,2,80,0,1
116941,-100,4,2,2,5,0,1
117039,-100,4,2,2,80,0,1
118207,-100,4,2,2,75,0,1
121324,-100,4,2,1,50,0,0
124344,-100,4,2,1,5,0,0
124441,-100,4,2,1,50,0,0
144214,-100,4,2,1,5,0,0
144311,-100,4,2,1,50,0,0
144604,-100,4,2,1,5,0,0
144701,-100,4,2,1,50,0,0
146259,-100,4,2,1,55,0,0
164961,-100,4,2,1,60,0,0
171194,-100,4,2,2,80,0,1
172266,-100,4,2,2,5,0,1
172363,-100,4,2,2,80,0,1
172461,-100,4,2,2,5,0,1
172558,-100,4,2,2,80,0,1
172655,-100,4,2,2,5,0,1
172753,-100,4,2,2,80,0,1
172850,-100,4,2,2,5,0,1
172948,-100,4,2,2,80,0,1
173045,-100,4,2,2,5,0,1
173142,-100,4,2,2,80,0,1
175383,-100,4,2,2,5,0,1
175480,-100,4,2,2,80,0,1
175578,-100,4,2,2,5,0,1
175675,-100,4,2,2,80,0,1
175772,-100,4,2,2,5,0,1
175870,-100,4,2,2,80,0,1
176162,-100,4,2,2,5,0,1
176259,-100,4,2,2,80,0,1
178500,-100,4,2,2,5,0,1
178597,-100,4,2,2,80,0,1
178694,-100,4,2,2,5,0,1
178792,-100,4,2,2,80,0,1
178889,-100,4,2,2,5,0,1
178987,-100,4,2,2,80,0,1
179084,-100,4,2,2,5,0,1
179181,-100,4,2,2,80,0,1
179279,-100,4,2,2,5,0,1
179376,-100,4,2,2,80,0,1
184733,-100,4,2,2,5,0,1
184831,-100,4,2,2,80,0,1
184928,-100,4,2,2,5,0,1
185026,-100,4,2,2,80,0,1
185123,-100,4,2,2,5,0,1
185220,-100,4,2,2,80,0,1
185318,-100,4,2,2,5,0,1
185415,-100,4,2,2,80,0,1
185513,-100,4,2,2,5,0,1
185610,-100,4,2,2,80,0,1
187850,-100,4,2,2,5,0,1
187948,-100,4,2,2,80,0,1
188045,-100,4,2,2,5,0,1
188142,-100,4,2,2,80,0,1
188240,-100,4,2,2,5,0,1
188337,-100,4,2,2,80,0,1
188629,-100,4,2,2,5,0,1
188727,-100,4,2,2,80,0,1
190967,-100,4,2,2,5,0,1
191065,-100,4,2,2,80,0,1
191162,-100,4,2,2,5,0,1
191259,-100,4,2,2,80,0,1
191357,-100,4,2,2,5,0,1
191454,-100,4,2,2,80,0,1
191552,-100,4,2,2,5,0,1
191649,-100,4,2,2,80,0,1
191746,-100,4,2,2,5,0,1
191844,-100,4,2,2,80,0,1
196129,-100,4,2,2,80,0,0
208597,-100,4,2,1,60,0,0
221065,-100,4,2,2,80,0,1
222136,-100,4,2,2,5,0,1
222233,-100,4,2,2,80,0,1
222331,-100,4,2,2,5,0,1
222428,-100,4,2,2,80,0,1
222526,-100,4,2,2,5,0,1
222623,-100,4,2,2,80,0,1
222720,-100,4,2,2,5,0,1
222818,-100,4,2,2,80,0,1
222915,-100,4,2,2,5,0,1
223013,-100,4,2,2,80,0,1
225253,-100,4,2,2,5,0,1
225350,-100,4,2,2,80,0,1
225448,-100,4,2,2,5,0,1
225545,-100,4,2,2,80,0,1
225642,-100,4,2,2,5,0,1
225740,-100,4,2,2,80,0,1
226032,-100,4,2,2,5,0,1
226129,-100,4,2,2,80,0,1
232753,-100,4,2,1,60,0,1
233532,-100,4,2,1,20,0,0

[Colours]
Combo1 : 196,0,0
Combo2 : 0,0,213
Combo3 : 15,155,208
Combo4 : 241,75,75

[HitObjects]
347,258,8532,6,0,L|345:168,1,54.25,0|0,0:0|0:0,0:0:0:0:
221,193,8727,2,0,L|100:189,1,108.5,0|0,0:0|0:0,0:0:0:0:
397,26,9117,6,0,P|473:68|396:153,1,217,6|0,0:0|0:0,0:0:0:0:
333,151,9701,1,0,0:0:0:0:
173,178,9896,2,0,L|26:191,2,108.5,0|0|0,0:0|0:0|0:0,0:0:0:0:
368,267,10480,2,0,L|369:130,1,108.5,0|2,0:0|0:0,0:0:0:0:
192,213,10870,2,0,P|74:160|209:78,1,325.5,0|0,0:0|0:0,0:0:0:0:
359,55,11649,1,0,0:0:0:0:
370,102,11746,1,0,0:0:0:0:
344,124,11844,1,0,0:0:0:0:
264,162,12039,1,0,0:0:0:0:
79,179,12233,5,0,0:0:0:0:
177,238,12428,2,0,L|180:365,1,108.5,2|0,0:0|0:0,0:0:0:0:
79,358,12818,1,0,0:0:0:0:
180,347,13013,1,0,0:0:0:0:
355,280,13207,2,0,L|480:272,2,108.5,0|0|0,0:0|0:0|0:0,0:0:0:0:
168,224,13792,1,2,0:0:0:0:
343,155,13987,2,0,P|418:229|264:321,1,325.5,0|0,0:0|0:0,0:0:0:0:
88,274,14766,2,0,L|82:207,2,54.25,0|0|0,0:0|0:0|0:0,0:0:0:0:
184,285,15155,1,0,0:0:0:0:
372,315,15350,5,2,0:0:0:0:
275,295,15545,2,0,L|385:296,1,108.5,0|0,0:0|0:0,0:0:0:0:
383,295,15935,1,0,0:0:0:0:
197,215,16129,2,0,L|72:225,2,108.5,0|0|0,0:0|0:0|0:0,0:0:0:0:
372,172,16714,1,0,0:0:0:0:
191,107,16909,1,2,0:0:0:0:
380,96,17104,2,0,P|503:155|383:240,1,325.5,0|0,0:0|0:0,0:0:0:0:
214,284,17883,2,0,L|159:342,2,54.25,0|0|0,0:0|0:0|0:0,0:0:0:0:
315,277,18272,1,0,0:0:0:0:
127,217,18467,6,0,P|72:157|157:85,1,217,2|0,0:0|0:0,0:0:0:0:
251,83,19052,1,0,0:0:0:0:
345,84,19246,1,0,0:0:0:0:
181,132,19441,2,0,L|54:138,2,108.5,0|0|0,0:0|0:0|0:0,0:0:0:0:
390,173,20026,2,0,L|403:282,1,108.5,2|0,0:0|0:0,0:0:0:0:
311,273,20415,2,0,L|301:399,1,108.5,0|0,0:0|0:0,0:0:0:0:
109,353,20805,1,0,0:0:0:0:
39,285,21000,1,0,0:0:0:0:
89,254,21097,1,0,0:0:0:0:
140,224,21194,1,0,0:0:0:0:
41,151,21389,1,0,0:0:0:0:
380,106,21584,6,0,L|392:228,1,108.5,4|0,0:0|0:0,0:0:0:0:
200,270,21974,1,8,0:0:0:0:
269,303,22168,1,0,0:0:0:0:
94,334,22363,2,0,L|90:191,1,108.5,8|0,0:0|0:0,0:0:0:0:
179,179,22753,1,8,0:0:0:0:
84,117,22948,1,8,0:0:0:0:
286,26,23142,5,8,0:0:0:0:
376,45,23337,1,8,0:0:0:0:
408,128,23532,1,8,0:0:0:0:
382,222,23727,1,0,0:0:0:0:
287,276,23922,2,0,L|158:284,1,108.5,8|0,0:0|0:0,0:0:0:0:
178,282,24214,1,0,0:0:0:0:
294,343,24311,2,0,L|408:348,1,108.5,8|0,0:0|0:0,0:0:0:0:
91,230,24701,6,0,L|79:94,1,108.5,4|0,0:0|0:0,0:0:0:0:
256,63,25091,1,8,0:0:0:0:
173,55,25285,1,0,0:0:0:0:
357,90,25480,2,0,L|379:221,1,108.5,8|0,0:0|0:0,0:0:0:0:
204,252,25870,1,8,0:0:0:0:
390,273,26065,1,8,0:0:0:0:
194,71,26259,5,8,0:0:0:0:
102,82,26454,1,8,0:0:0:0:
52,142,26649,1,8,0:0:0:0:
89,226,26844,1,0,0:0:0:0:
189,254,27039,1,8,0:0:0:0:
399,292,27233,2,0,L|456:302,2,54.25,0|0|8,0:0|0:0|0:0,0:0:0:0:
291,278,27623,1,0,0:0:0:0:
29,202,27818,6,0,L|154:198,3,108.5,12|0|8|0,3:2|3:0|3:2|3:0,0:0:0:0:
336,54,28597,1,8,3:2:0:0:
432,94,28792,1,0,3:0:0:0:
452,162,28987,1,8,3:2:0:0:
433,243,29181,1,0,3:0:0:0:
245,264,29376,6,0,L|95:272,3,108.5,8|0|8|0,3:2|3:0|3:2|3:0,0:0:0:0:
318,256,30155,1,8,3:2:0:0:
136,269,30350,2,0,L|266:255,1,108.5,0|8,3:2|3:2,0:0:0:0:
423,103,30740,1,0,3:0:0:0:
120,54,30935,5,8,3:2:0:0:
54,71,31032,1,0,3:2:0:0:
26,119,31129,1,8,3:2:0:0:
27,184,31227,1,0,3:0:0:0:
67,233,31324,1,8,3:2:0:0:
129,238,31422,1,0,3:0:0:0:
178,264,31519,1,8,3:2:0:0:
191,322,31617,1,0,3:0:0:0:
77,327,31714,1,8,3:2:0:0:
35,350,31811,1,0,3:0:0:0:
90,352,31909,1,8,3:2:0:0:
145,353,32006,1,0,3:0:0:0:
402,356,32104,5,8,3:2:0:0:
470,319,32201,1,0,3:0:0:0:
495,242,32298,1,8,3:2:0:0:
466,172,32396,1,0,3:0:0:0:
391,138,32493,1,0,0:0:0:0:
182,130,32688,1,0,0:0:0:0:
256,192,32883,12,0,33857,0:0:0:0:
395,102,34052,6,0,L|421:246,1,108.5,4|0,3:2|0:0,0:0:0:0:
337,244,34441,2,0,L|486:249,1,108.5,0|0,0:0|0:0,0:0:0:0:
247,289,34831,2,0,L|475:297,1,217,8|0,0:0|3:2,0:0:0:0:
348,318,35415,1,0,0:0:0:0:
464,297,35610,6,0,L|464:159,1,108.5,0|0,0:0|0:0,0:0:0:0:
275,133,36000,2,0,L|383:135,1,108.5,0|0,3:0|0:0,0:0:0:0:
196,86,36389,2,0,L|179:209,1,108.5,8|0,0:0|3:0,0:0:0:0:
346,267,36779,2,0,P|411:212|373:146,1,162.75,0|0,0:0|0:0,0:0:0:0:
176,187,37168,6,0,L|167:39,1,108.5,4|0,3:2|0:0,0:0:0:0:
275,66,37558,2,0,L|128:31,1,108.5,0|0,0:0|0:0,0:0:0:0:
358,53,37948,2,0,L|129:48,1,217,8|0,0:0|3:0,0:0:0:0:
241,80,38532,1,0,0:0:0:0:
133,135,38727,6,0,L|-3:163,2,108.5,0|0|0,0:0|0:0|3:0,0:0:0:0:
312,193,39311,1,0,0:0:0:0:
136,238,39506,2,0,L|126:361,1,108.5,8|0,0:0|3:0,0:0:0:0:
311,346,39896,2,0,L|499:360,1,162.75,0|0,0:0|0:0,0:0:0:0:
238,245,40285,5,4,3:2:0:0:
161,167,40480,1,0,0:0:0:0:
143,71,40675,1,0,0:0:0:0:
161,167,40870,1,0,0:0:0:0:
327,263,41065,2,0,L|460:274,1,108.5,8|0,0:0|0:0,0:0:0:0:
260,303,41454,2,0,L|110:318,1,108.5,0|0,3:0|0:0,0:0:0:0:
331,214,41844,6,0,L|332:66,1,108.5,0|0,0:0|0:0,0:0:0:0:
156,75,42233,2,0,L|282:72,1,108.5,0|0,3:0|0:0,0:0:0:0:
450,41,42623,2,0,L|320:45,2,108.5,8|0|0,0:0|3:0|0:0,0:0:0:0:
92,111,43402,6,0,L|65:229,1,108.5,4|0,3:2|0:0,0:0:0:0:
251,235,43792,2,0,P|305:252|328:318,1,108.5,0|0,0:0|3:0,0:0:0:0:
152,323,44181,2,0,L|399:314,1,217,0|0,0:0|3:0,0:0:0:0:
248,277,44766,1,0,0:0:0:0:
441,105,44961,6,0,L|460:230,1,108.5,0|0,0:0|3:0,0:0:0:0:
361,231,45350,2,0,L|345:341,1,108.5,0|0,0:0|0:0,0:0:0:0:
156,314,45740,2,0,L|339:303,1,162.75,8|0,0:0|0:0,0:0:0:0:
366,303,46129,2,0,L|166:279,1,162.75,8|0,0:0|0:0,0:0:0:0:
379,193,46519,5,0,0:0:0:0:
203,75,46909,1,0,0:0:0:0:
272,111,47104,1,0,0:0:0:0:
277,189,47298,1,2,0:0:0:0:
226,249,47493,1,0,0:0:0:0:
150,253,47688,1,0,0:0:0:0:
334,328,47883,6,0,L|489:351,2,108.5,0|0|0,0:0|0:0|0:0,0:0:0:0:
158,279,48467,2,0,P|128:192|186:148,1,162.75,2|0,0:0|0:0,0:0:0:0:
293,143,48857,2,0,L|532:141,1,217,2|0,0:0|0:0,0:0:0:0:
418,95,49441,1,0,0:0:0:0:
156,111,49636,5,0,0:0:0:0:
400,191,50026,1,0,0:0:0:0:
321,233,50220,1,0,0:0:0:0:
295,312,50415,1,2,0:0:0:0:
310,352,50610,1,0,0:0:0:0:
388,361,50805,1,0,0:0:0:0:
214,326,51000,6,0,L|88:338,2,108.5,0|0|0,0:0|0:0|0:0,0:0:0:0:
409,267,51584,2,0,L|430:66,1,162.75,2|0,0:0|0:0,0:0:0:0:
302,65,51974,2,0,P|255:145|354:225,1,217,2|0,0:0|0:0,0:0:0:0:
428,236,52558,1,0,0:0:0:0:
144,263,52753,6,0,L|82:355,2,108.5,8|0|0,0:0|0:0|0:0,0:0:0:0:
339,273,53337,2,0,L|467:273,2,108.5,8|0|0,0:0|0:0|0:0,0:0:0:0:
147,138,53922,1,8,0:0:0:0:
53,188,54117,1,0,0:0:0:0:
150,133,54311,5,0,0:0:0:0:
344,132,54506,2,0,L|345:284,1,108.5,8|0,0:0|0:0,0:0:0:0:
158,271,54896,1,0,0:0:0:0:
342,259,55091,2,0,L|107:266,1,217,8|0,0:0|0:0,0:0:0:0:
169,249,55578,1,0,0:0:0:0:
216,240,55675,1,0,0:0:0:0:
499,90,55870,6,0,L|491:214,1,108.5,8|0,0:0|0:0,0:0:0:0:
392,193,56259,2,0,L|400:317,1,108.5,0|8,0:0|0:0,0:0:0:0:
212,329,56649,2,0,L|337:339,1,108.5,0|0,0:0|0:0,0:0:0:0:
123,272,57039,2,0,L|112:120,1,108.5,8|0,0:0|0:0,0:0:0:0:
307,124,57428,6,0,L|199:121,1,108.5,0|8,0:0|0:0,0:0:0:0:
255,123,57720,1,8,0:0:0:0:
307,124,57818,2,0,L|197:117,1,108.5,8|8,0:0|0:0,0:0:0:0:
474,145,58207,2,0,P|492:213|402:275,1,162.75,8|0,0:0|0:0,0:0:0:0:
318,290,58597,2,0,L|249:309,1,54.25,8|0,0:0|0:0,0:0:0:0:
359,331,58792,2,0,L|432:360,1,54.25,8|8,0:0|0:0,0:0:0:0:
199,338,58987,6,0,P|102:295|181:224,1,217,4|0,3:2|0:0,0:0:0:0:
265,196,59571,1,0,3:0:0:0:
73,163,59766,2,0,L|56:33,1,108.5,8|0,0:0|0:0,0:0:0:0:
235,154,60155,2,0,L|250:22,1,108.5,0|0,3:0|0:0,0:0:0:0:
440,50,60545,5,0,0:0:0:0:
135,116,60935,1,0,0:0:0:0:
447,112,61324,2,0,L|459:229,1,108.5
285,294,61714,2,0,L|92:312,1,162.75,0|0,0:0|0:0,0:0:0:0:
303,334,62104,6,0,P|396:279|380:163,1,217,0|0,3:0|0:0,0:0:0:0:
293,156,62688,1,0,0:0:0:0:
473,146,62883,2,0,L|471:13,1,108.5,8|0,0:0|0:0,0:0:0:0:
292,32,63272,2,0,L|432:25,1,108.5,0|0,3:0|0:0,0:0:0:0:
229,81,63662,6,0,L|107:79,1,108.5,0|0,0:0|0:0,0:0:0:0:
393,63,64052,1,0,0:0:0:0:
75,156,64441,2,0,L|76:292,1,108.5,0|0,0:0|0:0,0:0:0:0:
246,309,64831,2,0,L|419:316,1,162.75,0|0,0:0|0:0,0:0:0:0:
211,331,65220,6,0,L|97:345,2,108.5,0|0|0,3:0|0:0|0:0,0:0:0:0:
259,315,65707,1,0,0:0:0:0:
308,307,65805,1,0,3:0:0:0:
127,259,66000,2,0,L|119:135,1,108.5,8|0,0:0|0:0,0:0:0:0:
178,142,66292,1,0,0:0:0:0:
301,214,66389,2,0,L|314:83,1,108.5,0|0,3:0|0:0,0:0:0:0:
254,92,66681,1,0,0:0:0:0:
134,77,66779,6,0,P|78:107|103:186,1,108.5,0|0,0:0|0:0,0:0:0:0:
129,178,67071,1,0,0:0:0:0:
271,192,67168,1,0,3:0:0:0:
331,195,67266,1,0,0:0:0:0:
374,244,67363,1,0,0:0:0:0:
376,304,67461,1,0,0:0:0:0:
241,337,67558,2,0,L|87:351,2,108.5,8|0|0,0:0|3:0|0:0,0:0:0:0:
296,332,68045,1,0,0:0:0:0:
321,273,68142,1,0,0:0:0:0:
294,226,68240,1,0,0:0:0:0:
62,178,68337,6,0,L|43:50,1,108.5,8|0,0:0|0:0,0:0:0:0:
232,141,68727,2,0,L|252:18,1,108.5,0|8,0:0|0:0,0:0:0:0:
434,44,69117,1,0,0:0:0:0:
434,44,69506,2,0,L|439:184,1,108.5,8|0,0:0|0:0,0:0:0:0:
250,176,69896,2,0,L|134:176,1,108.5,0|8,0:0|0:0,0:0:0:0:
195,176,70188,1,8,0:0:0:0:
400,187,70285,5,8,0:0:0:0:
112,285,70675,1,0,0:0:0:0:
351,167,70967,2,0,L|110:149,1,217,0|0,0:0|0:0,0:0:0:0:
341,90,71454,6,0,L|478:92,1,108.5,4|0,0:0|0:0,0:0:0:0:
372,140,71844,2,0,L|372:259,1,108.5,8|0,0:0|0:0,0:0:0:0:
267,222,72233,2,0,L|267:341,1,108.5,8|0,0:0|0:0,0:0:0:0:
457,351,72623,1,8,0:0:0:0:
267,330,72818,1,8,0:0:0:0:
455,318,73013,6,0,L|457:199,1,108.5,8|8,0:0|0:0,0:0:0:0:
345,158,73402,2,0,L|469:163,1,108.5,8|0,0:0|0:0,0:0:0:0:
347,83,73792,2,0,L|231:83,1,108.5,8|0,0:0|0:0,0:0:0:0:
292,81,74084,1,0,0:0:0:0:
419,72,74181,2,0,L|426:187,1,108.5,8|0,0:0|0:0,0:0:0:0:
156,278,74571,6,0,L|39:288,1,108.5,8|0,0:0|0:0,0:0:0:0:
226,323,74961,2,0,L|244:188,1,108.5,8|0,0:0|0:0,0:0:0:0:
151,195,75350,2,0,L|128:89,1,108.5,8|0,0:0|0:0,0:0:0:0:
304,47,75740,1,8,0:0:0:0:
123,47,75935,1,8,0:0:0:0:
308,66,76129,6,0,L|317:192,1,108.5,8|8,0:0|0:0,0:0:0:0:
217,200,76519,1,8,0:0:0:0:
315,238,76714,1,0,0:0:0:0:
210,283,76909,2,0,L|70:289,1,108.5,8|0,0:0|0:0,0:0:0:0:
52,292,77201,1,0,0:0:0:0:
100,312,77298,2,0,L|223:320,1,108.5,8|0,0:0|0:0,0:0:0:0:
490,316,77688,6,0,L|361:318,1,108.5,4|0,0:0|0:0,0:0:0:0:
453,261,78078,2,0,L|459:128,1,108.5,8|0,0:0|0:0,0:0:0:0:
355,153,78467,2,0,L|345:37,1,108.5,8|0,0:0|0:0,0:0:0:0:
167,45,78857,1,8,0:0:0:0:
345,45,79052,1,0,0:0:0:0:
158,53,79246,6,0,L|139:181,1,108.5,8|8,0:0|0:0,0:0:0:0:
327,210,79636,2,0,L|464:217,1,108.5,8|0,0:0|0:0,0:0:0:0:
160,319,80026,1,8,0:0:0:0:
67,258,80220,1,0,0:0:0:0:
57,170,80415,1,8,0:0:0:0:
87,91,80610,1,0,0:0:0:0:
273,78,80805,6,0,L|419:79,1,108.5,8|0,0:0|0:0,0:0:0:0:
186,50,81194,2,0,L|68:46,1,108.5,8|0,0:0|0:0,0:0:0:0:
358,48,81584,1,8,0:0:0:0:
446,91,81779,1,0,0:0:0:0:
472,182,81974,1,8,0:0:0:0:
446,265,82168,1,8,0:0:0:0:
252,317,82363,6,0,L|135:319,1,108.5,8|8,0:0|0:0,0:0:0:0:
339,351,82753,2,0,L|456:353,1,108.5,8|0,0:0|0:0,0:0:0:0:
156,271,83142,1,8,0:0:0:0:
101,227,83337,1,0,0:0:0:0:
215,153,83532,1,8,0:0:0:0:
34,103,83727,1,0,0:0:0:0:
330,60,83922,6,0,P|430:102|433:190,1,162.75,12|0,0:0|0:0,0:0:0:0:
336,187,84311,2,0,L|204:204,1,108.5,8|0,0:0|0:0,0:0:0:0:
414,225,84701,2,0,L|431:332,1,108.5,8|0,0:0|0:0,0:0:0:0:
252,343,85091,1,8,0:0:0:0:
428,343,85285,1,0,0:0:0:0:
233,308,85480,6,0,P|203:235|274:156,1,162.75,8|0,0:0|0:0,0:0:0:0:
355,161,85870,2,0,L|482:161,1,108.5,8|0,0:0|0:0,0:0:0:0:
248,44,86259,1,8,0:0:0:0:
139,99,86454,1,0,0:0:0:0:
93,153,86552,1,0,0:0:0:0:
136,201,86649,1,8,0:0:0:0:
248,225,86844,1,0,0:0:0:0:
436,303,87039,6,0,L|188:326,2,217,8|8|8,0:0|0:0|0:0,0:0:0:0:
441,231,88013,1,0,0:0:0:0:
151,193,88207,2,0,L|17:207,1,108.5,8|8,0:0|0:0,0:0:0:0:
205,54,88597,5,8,0:0:0:0:
311,104,88792,1,0,0:0:0:0:
329,201,88987,1,8,0:0:0:0:
285,284,89181,1,0,0:0:0:0:
100,336,89376,2,0,L|96:207,1,108.5,8|0,0:0|0:0,0:0:0:0:
148,329,89668,1,0,0:0:0:0:
261,348,89766,2,0,L|385:357,1,108.5,8|0,0:0|0:0,0:0:0:0:
88,242,90155,6,0,L|9:147,3,108.5,12|0|8|0,3:2|3:0|3:2|3:0,0:0:0:0:
208,149,90935,2,0,L|355:141,3,108.5,8|0|8|0,3:2|3:0|3:2|3:0,0:0:0:0:
501,268,91714,6,0,L|393:278,1,108.5,8|0,3:2|3:0,0:0:0:0:
231,334,92104,2,0,L|378:343,1,108.5,8|0,3:2|3:0,0:0:0:0:
177,291,92493,2,0,L|54:310,1,108.5,8|0,3:2|3:0,0:0:0:0:
246,221,92883,2,0,L|373:230,1,108.5,8|0,3:2|3:0,0:0:0:0:
45,53,93272,5,8,3:2:0:0:
106,61,93370,1,0,3:0:0:0:
154,96,93467,1,8,3:2:0:0:
163,165,93565,1,0,3:0:0:0:
124,224,93662,1,8,3:2:0:0:
59,240,93759,1,0,3:0:0:0:
31,284,93857,1,8,3:2:0:0:
45,348,93954,1,0,3:0:0:0:
180,359,94052,2,0,L|333:356,1,108.5,8|8,3:2|3:2,0:0:0:0:
241,351,94344,1,0,3:0:0:0:
54,229,94441,2,0,L|43:93,1,108.5,8|8,3:2|3:2,0:0:0:0:
363,110,94831,5,0,0:0:0:0:
256,192,95026,12,0,96194,0:0:0:0:
190,123,96389,6,0,L|47:127,1,108.5,4|0,3:2|0:0,0:0:0:0:
265,199,96779,2,0,L|283:320,1,108.5,0|0,0:0|0:0,0:0:0:0:
95,318,97168,2,0,L|331:316,1,217,8|0,0:0|3:0,0:0:0:0:
497,232,97753,1,0,0:0:0:0:
313,229,97948,6,0,L|299:112,1,108.5,0|0,0:0|0:0,0:0:0:0:
478,87,98337,2,0,L|337:84,3,108.5,0|0|8|0,3:0|0:0|0:0|3:0,0:0:0:0:
179,120,99117,2,0,P|107:160|110:256,1,162.75,0|0,0:0|0:0,0:0:0:0:
310,308,99506,6,0,L|436:312,1,108.5,4|0,3:2|0:0,0:0:0:0:
242,243,99896,2,0,L|239:129,1,108.5,0|0,0:0|0:0,0:0:0:0:
423,109,100285,2,0,L|183:108,1,217,8|0,0:0|3:0,0:0:0:0:
381,164,100870,1,0,0:0:0:0:
196,141,101065,6,0,L|174:278,1,108.5,0|0,0:0|0:0,0:0:0:0:
363,242,101454,2,0,L|383:354,1,108.5,0|0,3:0|0:0,0:0:0:0:
190,341,101844,2,0,L|346:338,1,108.5,8|0,0:0|3:0,0:0:0:0:
479,141,102233,2,0,P|490:221|405:284,1,162.75,0|0,0:0|0:0,0:0:0:0:
250,314,102623,6,0,L|123:329,1,108.5,4|0,3:2|0:0,0:0:0:0:
334,254,103013,2,0,L|217:262,1,108.5,0|0,0:0|0:0,0:0:0:0:
423,166,103402,2,0,L|204:177,1,217,8|0,0:0|3:0,0:0:0:0:
384,101,103987,1,0,0:0:0:0:
205,181,104181,6,0,L|196:323,1,108.5,0|0,0:0|0:0,0:0:0:0:
384,334,104571,1,0,3:0:0:0:
194,315,104766,1,0,0:0:0:0:
384,334,104961,2,0,L|502:320,1,108.5,8|0,0:0|3:0,0:0:0:0:
302,250,105350,2,0,L|174:238,1,108.5,0|0,0:0|3:0,0:0:0:0:
492,114,105740,6,0,L|486:231,1,108.5,4|0,3:2|0:0,0:0:0:0:
165,219,106129,2,0,P|108:225|68:275,1,108.5,0|0,0:0|3:0,0:0:0:0:
171,215,106519,2,0,L|49:221,1,108.5,0|0,0:0|0:0,0:0:0:0:
380,86,106909,2,0,P|420:148|405:199,1,108.5,0|0,3:0|0:0,0:0:0:0:
338,218,107298,6,0,L|466:240,1,108.5,0|0,0:0|3:0,0:0:0:0:
135,284,107688,2,0,L|13:300,1,108.5,0|0,0:0|0:0,0:0:0:0:
336,294,108078,2,0,L|523:312,1,162.75,8|0,0:0|0:0,0:0:0:0:
375,319,108467,2,0,L|205:331,1,162.75,8|0,0:0|0:0,0:0:0:0:
414,272,108857,6,0,L|437:153,1,108.5,4|0,3:2|0:0,0:0:0:0:
255,122,109246,2,0,L|399:108,1,108.5,0|0,0:0|0:0,0:0:0:0:
169,66,109636,2,0,L|390:57,1,217,8|0,0:0|3:0,0:0:0:0:
198,121,110220,1,0,0:0:0:0:
388,131,110415,6,0,L|399:258,1,108.5,0|0,0:0|0:0,0:0:0:0:
210,304,110805,2,0,L|355:303,1,108.5,0|0,3:0|0:0,0:0:0:0:
127,260,111194,2,0,L|96:147,1,108.5,8|0,0:0|3:0,0:0:0:0:
290,97,111584,2,0,P|360:91|434:167,1,162.75,0|0,0:0|0:0,0:0:0:0:
196,189,111974,6,0,L|180:303,1,108.5,4|0,3:2|0:0,0:0:0:0:
362,313,112363,2,0,L|219:331,1,108.5,0|0,0:0|0:0,0:0:0:0:
447,243,112753,2,0,L|194:259,1,217,8|0,0:0|3:0,0:0:0:0:
413,182,113337,1,0,0:0:0:0:
229,203,113532,6,0,L|213:85,1,108.5,0|0,0:0|0:0,0:0:0:0:
310,157,113922,2,0,L|337:42,1,108.5,0|0,3:0|0:0,0:0:0:0:
147,61,114311,2,0,L|264:54,1,108.5,8|0,0:0|0:0,0:0:0:0:
446,171,114701,2,0,L|232:178,1,162.75,0|0,0:0|0:0,0:0:0:0:
45,215,115091,6,0,P|40:286|96:314,1,108.5,4|0,3:2|0:0,0:0:0:0:
256,320,115480,2,0,L|392:323,1,108.5,0|0,0:0|0:0,0:0:0:0:
173,265,115870,2,0,P|98:210|208:172,1,217,8|0,0:0|3:0,0:0:0:0:
353,134,116454,1,0,0:0:0:0:
166,151,116649,6,0,L|18:177,1,108.5,0|0,0:0|0:0,0:0:0:0:
250,255,117039,2,0,L|395:291,1,108.5,0|0,3:0|0:0,0:0:0:0:
165,335,117428,2,0,L|165:224,1,108.5,8|0,0:0|3:0,0:0:0:0:
348,193,117818,2,0,L|538:176,1,162.75,0|0,0:0|0:0,0:0:0:0:
274,153,118207,6,0,L|147:146,1,108.5,4|0,0:0|0:0,0:0:0:0:
362,111,118597,1,0,0:0:0:0:
215,138,118987,2,0,L|88:131,1,108.5,0|0,0:0|0:0,0:0:0:0:
303,96,119377,1,0,0:0:0:0:
91,107,119766,6,0,L|90:216,1,108.5,0|0,0:0|3:0,0:0:0:0:
283,271,120155,1,0,0:0:0:0:
387,303,120545,2,0,L|203:330,1,162.75,8|0,0:0|0:0,0:0:0:0:
346,291,120935,2,0,L|512:304,1,162.75,8|0,0:0|0:0,0:0:0:0:
263,81,121324,6,0,L|119:108,3,108.5,4|2|2|2,3:0|0:0|0:0|0:0,0:0:0:0:
332,89,122104,1,2,0:0:0:0:
459,84,122493,1,2,0:0:0:0:
264,267,122883,5,2,0:0:0:0:
108,302,123662,2,0,L|109:185,1,108.5,0|0,0:0|0:0,0:0:0:0:
279,152,124052,2,0,L|462:149,1,162.75,0|0,0:0|0:0,0:0:0:0:
266,83,124441,6,0,L|118:83,1,108.5,4|2,3:0|0:0,0:0:0:0:
335,58,124831,2,0,L|200:62,2,108.5,2|2|2,0:0|0:0|0:0,0:0:0:0:
206,146,125610,1,2,0:0:0:0:
424,193,126000,6,0,P|491:247|414:347,1,217,4|0,3:0|0:0,0:0:0:0:
195,342,126779,2,0,L|323:337,1,108.5,0|0,0:0|0:0,0:0:0:0:
396,282,127363,2,0,L|400:216,1,54.25,0|0,0:0|0:0,0:0:0:0:
223,155,127558,6,0,L|74:144,3,108.5,4|0|0|0,3:0|0:0|0:0|0:0,0:0:0:0:
315,68,128337,1,4,3:0:0:0:
399,106,128532,1,0,0:0:0:0:
423,183,128727,1,2,0:0:0:0:
402,253,128922,1,0,0:0:0:0:
209,305,129117,6,0,L|73:324,1,108.5,4|0,3:0|0:0,0:0:0:0:
280,329,129506,2,0,L|399:334,1,108.5,0|0,0:0|0:0,0:0:0:0:
197,250,129896,1,4,3:0:0:0:
219,164,130091,1,0,0:0:0:0:
281,104,130285,1,2,0:0:0:0:
403,97,130480,1,0,0:0:0:0:
214,135,130675,6,0,L|161:245,1,108.5,4|2,3:0|0:0,0:0:0:0:
297,221,131065,2,0,L|328:345,1,108.5,2|2,0:0|0:0,0:0:0:0:
144,323,131454,2,0,L|23:355,1,108.5,4|0,3:0|0:0,0:0:0:0:
323,299,131844,2,0,L|453:337,1,108.5,2|0,0:0|0:0,0:0:0:0:
137,215,132233,6,0,L|103:150,1,54.25,4|0,3:0|0:0,0:0:0:0:
364,212,132623,2,0,L|388:150,1,54.25,4|0,3:0|0:0,0:0:0:0:
127,91,133013,1,0,3:0:0:0:
254,81,133142,1,0,3:0:0:0:
330,56,133272,1,0,3:0:0:0:
80,34,133402,1,0,3:0:0:0:
42,122,133532,1,0,3:0:0:0:
129,178,133662,1,0,3:0:0:0:
377,262,133792,6,0,P|399:195|287:123,1,217,4|0,0:0|0:0,0:0:0:0:
175,233,134376,1,0,3:0:0:0:
378,160,134571,2,0,L|254:217,1,108.5,8|0,0:0|0:0,0:0:0:0:
393,204,134961,1,0,0:0:0:0:
216,212,135155,1,2,0:0:0:0:
390,78,135350,6,0,P|443:141|425:215,1,144.666666666667
177,124,135740,2,0,L|298:218,1,144.666666666667
87,290,136129,2,0,P|46:223|120:159,1,144.666666666667
178,118,136519,2,0,L|65:116,1,108.5,10|0,0:0|0:0,0:0:0:0:
325,311,136909,6,0,L|457:137,1,217,0|0,3:0|0:0,0:0:0:0:
271,140,137493,1,0,3:0:0:0:
350,97,137688,2,0,P|396:141|360:233,1,162.75,8|0,0:0|0:0,0:0:0:0:
163,251,138078,2,0,L|264:342,1,108.5,0|2,3:0|0:0,0:0:0:0:
59,205,138467,2,0,L|216:204,1,144.666666666667
398,209,138857,2,0,P|432:132|337:96,1,144.666666666667
154,140,139246,2,0,L|-4:141,1,144.666666666667
269,137,139636,5,10,0:0:0:0:
319,121,139733,1,0,0:0:0:0:
275,95,139831,1,0,0:0:0:0:
235,84,139928,1,0,0:0:0:0:
403,58,140026,6,0,P|447:101|426:166,1,108.5,0|0,3:0|0:0,0:0:0:0:
399,187,140318,1,0,0:0:0:0:
336,219,140415,1,0,0:0:0:0:
161,177,140610,1,0,0:0:0:0:
341,86,140805,6,0,L|219:84,1,108.5,8|0,0:0|0:0,0:0:0:0:
121,192,141194,2,0,P|95:237|88:305,1,108.5,0|0,3:0|0:0,0:0:0:0:
292,283,141584,1,0,0:0:0:0:
361,264,141681,1,0,0:0:0:0:
389,201,141779,1,0,0:0:0:0:
380,134,141876,1,0,0:0:0:0:
225,138,141974,5,0,3:0:0:0:
363,130,142168,1,0,0:0:0:0:
192,280,142363,2,0,P|224:215|342:201,1,162.75,8|0,0:0|0:0,0:0:0:0:
140,328,142753,2,0,L|33:224,1,108.5,0|0,0:0|3:0,0:0:0:0:
345,329,143142,6,0,P|411:277|365:151,1,217,8|0,0:0|0:0,0:0:0:0:
188,172,143727,2,0,L|375:31,1,217,8|0,0:0|0:0,0:0:0:0:
193,313,144311,2,0,L|188:83,1,217,8|0,0:0|0:0,0:0:0:0:
367,271,144896,2,0,L|321:203,1,54.25,8|8,0:0|0:0,0:0:0:0:
245,264,145091,1,8,0:0:0:0:
393,221,145285,2,0,L|338:144,1,54.25,8|0,0:0|0:0,0:0:0:0:
197,187,145480,2,0,L|283:15,1,162.75,8|0,0:0|0:0,0:0:0:0:
136,323,145870,2,0,L|51:209,1,108.5
139,233,146162,1,0,0:0:0:0:
369,266,146259,6,0,L|361:138,1,108.5,4|0,0:0|0:0,0:0:0:0:
261,141,146649,2,0,L|391:133,1,108.5,8|0,0:0|0:0,0:0:0:0:
205,181,147039,2,0,L|93:189,1,108.5,8|0,0:0|0:0,0:0:0:0:
186,240,147428,1,8,0:0:0:0:
285,276,147623,1,8,0:0:0:0:
127,213,147818,6,0,L|126:93,1,108.5,8|8,0:0|0:0,0:0:0:0:
312,77,148207,2,0,L|187:69,1,108.5,8|0,0:0|0:0,0:0:0:0:
103,131,148597,1,0,0:0:0:0:
105,195,148694,1,0,0:0:0:0:
104,257,148792,1,0,0:0:0:0:
365,206,148987,2,0,P|409:153|354:59,1,162.75,8|0,0:0|0:0,0:0:0:0:
126,235,149376,6,0,L|133:351,1,108.5,8|0,0:0|0:0,0:0:0:0:
207,144,149766,2,0,L|61:139,1,108.5,8|0,0:0|0:0,0:0:0:0:
299,323,150155,2,0,L|412:275,1,108.5,8|0,0:0|0:0,0:0:0:0:
285,257,150545,1,8,0:0:0:0:
391,241,150740,1,8,0:0:0:0:
214,114,150935,6,0,L|123:185,1,108.5,8|8,0:0|0:0,0:0:0:0:
247,207,151324,2,0,L|99:205,1,108.5,8|0,0:0|0:0,0:0:0:0:
267,163,151714,1,8,0:0:0:0:
466,188,151909,5,0,0:0:0:0:
341,191,152104,1,8,0:0:0:0:
466,188,152298,1,0,0:0:0:0:
164,258,152493,2,0,L|87:136,1,108.5,4|0,0:0|0:0,0:0:0:0:
292,229,152883,5,8,0:0:0:0:
382,214,153078,1,0,0:0:0:0:
437,139,153272,1,8,0:0:0:0:
443,59,153467,1,0,0:0:0:0:
261,87,153662,2,0,L|383:85,1,108.5,8|8,0:0|0:0,0:0:0:0:
202,186,154052,5,8,0:0:0:0:
367,255,154246,2,0,P|459:215|355:113,1,271.25,8|0,0:0|0:0,0:0:0:0:
163,246,154831,6,0,L|54:330,1,108.5,8|0,0:0|0:0,0:0:0:0:
234,166,155220,2,0,L|155:77,1,108.5,8|0,0:0|0:0,0:0:0:0:
362,78,155610,2,0,L|246:166,1,108.5,8|0,0:0|0:0,0:0:0:0:
191,221,156000,2,0,L|299:273,1,108.5,8|0,0:0|0:0,0:0:0:0:
36,251,156389,5,8,0:0:0:0:
86,163,156584,1,0,0:0:0:0:
175,116,156779,1,8,0:0:0:0:
271,117,156974,1,8,0:0:0:0:
454,132,157168,6,0,L|347:185,1,108.5,8|8,0:0|0:0,0:0:0:0:
206,252,157558,2,0,L|328:313,1,108.5,8|0,0:0|0:0,0:0:0:0:
454,233,157948,5,8,0:0:0:0:
403,294,158142,1,0,0:0:0:0:
341,311,158240,1,0,0:0:0:0:
309,188,158337,2,0,L|345:55,1,108.5,8|0,0:0|0:0,0:0:0:0:
52,265,158727,6,0,L|59:89,1,162.75,12|0,0:0|0:0,0:0:0:0:
133,80,159117,2,0,L|241:81,1,108.5,8|0,0:0|0:0,0:0:0:0:
328,92,159506,2,0,L|332:212,1,108.5,8|0,0:0|0:0,0:0:0:0:
153,237,159896,1,8,0:0:0:0:
460,255,160091,6,0,P|462:179|367:133,1,162.75,8|0,0:0|0:0,0:0:0:0:
330,136,160480,1,0,0:0:0:0:
154,146,160675,2,0,L|156:14,1,108.5,8|0,0:0|0:0,0:0:0:0:
322,64,161065,5,8,0:0:0:0:
191,247,161259,1,0,0:0:0:0:
229,199,161357,1,0,0:0:0:0:
262,156,161454,1,8,0:0:0:0:
97,116,161649,1,0,0:0:0:0:
252,230,161844,6,0,L|469:186,2,217,8|8|8,0:0|0:0|0:0,0:0:0:0:
252,230,162818,1,0,0:0:0:0:
150,239,163013,1,8,0:0:0:0:
332,265,163207,6,0,P|339:183|188:95,1,271.25,8|0,0:0|0:0,0:0:0:0:
129,100,163792,2,0,L|126:255,1,108.5,8|0,0:0|0:0,0:0:0:0:
304,279,164181,5,8,0:0:0:0:
381,256,164376,1,0,0:0:0:0:
424,206,164571,1,8,0:0:0:0:
424,137,164766,1,0,0:0:0:0:
172,117,164961,6,0,L|81:199,1,108.5,12|0,3:2|3:0,0:0:0:0:
278,202,165350,1,8,3:2:0:0:
366,198,165545,1,0,3:0:0:0:
195,296,165740,2,0,L|325:296,1,108.5,8|0,3:2|3:0,0:0:0:0:
131,111,166129,1,8,3:2:0:0:
434,241,166324,6,0,L|321:165,2,108.5,0|8|0,3:0|3:2|3:0,0:0:0:0:
121,256,166909,1,8,3:2:0:0:
304,273,167104,2,0,L|184:190,2,108.5,0|8|0,3:0|3:2|3:0,0:0:0:0:
119,274,167688,2,0,L|59:175,1,108.5,8|0,3:2|3:0,0:0:0:0:
330,97,168078,5,8,3:2:0:0:
394,106,168175,1,0,3:0:0:0:
425,165,168272,1,8,3:2:0:0:
396,228,168370,1,0,3:0:0:0:
329,235,168467,1,8,3:2:0:0:
263,244,168565,1,0,3:0:0:0:
221,295,168662,1,8,3:2:0:0:
220,353,168759,1,0,3:0:0:0:
420,318,168857,2,0,L|403:141,1,162.75,8|0,3:2|3:0,0:0:0:0:
171,278,169246,1,8,3:2:0:0:
303,193,169441,5,8,3:2:0:0:
256,192,169636,12,0,171000,0:0:0:0:
202,118,171194,6,0,L|88:121,1,108.5,4|0,3:2|0:0,0:0:0:0:
283,274,171584,2,0,L|362:359,1,108.5,0|0,0:0|0:0,0:0:0:0:
164,291,171974,2,0,P|115:231|219:184,1,217,8|0,0:0|3:0,0:0:0:0:
69,193,172558,2,0,L|38:71,1,108.5,0|0,0:0|0:0,0:0:0:0:
357,269,172948,6,0,L|482:270,3,108.5,0|0|0|8,0:0|3:0|0:0|0:0,0:0:0:0:
274,268,173727,1,0,3:0:0:0:
413,273,173922,2,0,L|402:128,1,108.5,0|0,0:0|3:0,0:0:0:0:
110,262,174311,6,0,L|229:330,1,108.5,4|0,3:2|0:0,0:0:0:0:
48,156,174701,2,0,L|185:155,1,108.5,0|0,0:0|0:0,0:0:0:0:
347,280,175091,2,0,L|113:290,1,217,8|0,0:0|3:0,0:0:0:0:
325,174,175675,1,0,0:0:0:0:
219,106,175870,5,0,0:0:0:0:
413,228,176065,2,0,L|306:308,1,108.5,0|0,0:0|3:0,0:0:0:0:
154,231,176454,2,0,L|240:332,1,108.5,0|8,0:0|0:0,0:0:0:0:
380,175,176844,1,0,3:0:0:0:
201,94,177039,2,0,P|127:159|96:233,1,162.75,0|0,0:0|0:0,0:0:0:0:
299,193,177428,6,0,L|419:207,1,108.5,4|0,3:2|0:0,0:0:0:0:
240,228,177818,2,0,L|242:342,1,108.5,0|0,0:0|0:0,0:0:0:0:
431,285,178207,2,0,P|386:217|231:207,1,217,8|0,0:0|3:0,0:0:0:0:
414,109,178792,6,0,L|262:106,1,108.5
166,281,179181,2,0,L|48:284,2,108.5,0|0|0,0:0|3:0|0:0,0:0:0:0:
293,214,179766,1,8,0:0:0:0:
215,161,179961,1,0,3:0:0:0:
41,147,180155,2,0,L|146:87,1,108.5,0|0,0:0|3:0,0:0:0:0:
391,195,180545,6,0,L|394:340,1,108.5,4|0,3:2|0:0,0:0:0:0:
107,256,180935,2,0,L|248:254,1,108.5,0|0,0:0|3:0,0:0:0:0:
381,105,181324,2,0,L|317:200,1,108.5,0|0,0:0|0:0,0:0:0:0:
41,122,181714,2,0,L|165:117,1,108.5,0|0,3:0|0:0,0:0:0:0:
307,233,182104,6,0,L|179:230,1,108.5,0|0,0:0|3:0,0:0:0:0:
455,172,182493,2,0,L|357:283,1,108.5,0|0,0:0|0:0,0:0:0:0:
193,182,182883,2,0,L|365:181,1,162.75,8|0,0:0|0:0,0:0:0:0:
276,166,183272,2,0,L|105:75,1,162.75,8|0,0:0|0:0,0:0:0:0:
376,226,183662,6,0,L|292:122,1,108.5,4|0,3:2|0:0,0:0:0:0:
465,110,184052,2,0,L|371:181,1,108.5,0|0,0:0|0:0,0:0:0:0:
93,304,184441,2,0,P|40:244|143:174,1,217,8|0,0:0|3:0,0:0:0:0:
314,292,185026,1,0,0:0:0:0:
174,290,185220,6,0,L|156:150,1,108.5
353,256,185610,6,0,L|224:165,2,108.5,0|0|8,3:0|0:0|0:0,0:0:0:0:
171,244,186194,1,0,3:0:0:0:
362,225,186389,2,0,L|197:155,1,162.75
402,156,186779,6,0,L|430:41,1,108.5,4|0,3:2|0:0,0:0:0:0:
256,204,187168,2,0,P|234:135|252:52,1,108.5
502,150,187558,2,0,L|320:326,1,217,8|0,0:0|3:0,0:0:0:0:
183,258,188142,1,0,0:0:0:0:
362,119,188337,6,0,L|310:264,1,108.5
142,231,188727,2,0,L|90:121,1,108.5,0|0,3:0|0:0,0:0:0:0:
269,259,189117,2,0,L|137:254,1,108.5,8|0,0:0|3:0,0:0:0:0:
353,174,189506,2,0,P|386:90|345:4,1,162.75,0|0,0:0|0:0,0:0:0:0:
190,223,189896,6,0,L|321:227,1,108.5,4|0,3:2|0:0,0:0:0:0:
99,285,190285,2,0,L|217:289,1,108.5,0|0,0:0|0:0,0:0:0:0:
402,179,190675,2,0,L|184:174,1,217,8|0,0:0|3:0,0:0:0:0:
376,90,191259,1,0,0:0:0:0:
301,41,191454,1,0,0:0:0:0:
220,15,191649,1,0,0:0:0:0:
390,308,191844,6,0,L|433:179,1,108.5,0|0,3:0|0:0,0:0:0:0:
236,125,192233,2,0,L|354:127,1,108.5,8|0,0:0|3:0,0:0:0:0:
153,338,192623,2,0,L|284:197,1,162.75,0|0,0:0|0:0,0:0:0:0:
91,238,193013,6,0,L|76:103,1,108.5,4|0,3:2|0:0,0:0:0:0:
264,126,193402,6,0,L|149:121,1,108.5,0|0,0:0|3:0,0:0:0:0:
55,262,193792,2,0,L|179:180,1,108.5,0|0,0:0|0:0,0:0:0:0:
414,228,194181,2,0,L|256:231,1,108.5,0|0,3:0|0:0,0:0:0:0:
474,124,194571,2,0,L|340:119,1,108.5,0|0,0:0|3:0,0:0:0:0:
81,188,194961,6,0,L|83:320,1,108.5,0|0,0:0|0:0,0:0:0:0:
276,283,195350,2,0,L|168:214,1,108.5,8|0,0:0|0:0,0:0:0:0:
372,180,195740,2,0,L|372:52,1,108.5,8|0,0:0|0:0,0:0:0:0:
92,153,196129,5,4,3:2:0:0:
256,192,205480,12,0,207818,0:0:0:0:
148,175,208013,6,0,L|147:269,1,54.25,0|0,0:0|0:0,0:0:0:0:
273,217,208207,2,0,L|398:218,1,108.5
58,74,208597,2,0,L|136:161,1,108.5,4|0,0:0|0:0,0:0:0:0:
225,180,208987,2,0,L|108:240,1,108.5,8|0,0:0|0:0,0:0:0:0:
332,308,209376,2,0,L|336:176,1,108.5,8|0,0:0|0:0,0:0:0:0:
237,127,209766,5,8,0:0:0:0:
375,133,209961,1,8,0:0:0:0:
187,283,210155,6,0,L|183:138,1,108.5,8|8,0:0|0:0,0:0:0:0:
323,234,210545,2,0,L|179:230,1,108.5,8|0,0:0|0:0,0:0:0:0:
75,118,210935,2,0,L|198:116,1,108.5,8|0,0:0|0:0,0:0:0:0:
149,115,211227,1,0,0:0:0:0:
253,167,211324,2,0,L|350:95,1,108.5,8|0,0:0|0:0,0:0:0:0:
80,242,211714,6,0,L|75:95,1,108.5,8|0,0:0|0:0,0:0:0:0:
208,311,212104,2,0,L|80:314,1,108.5,8|0,0:0|0:0,0:0:0:0:
354,138,212493,2,0,L|218:138,1,108.5,8|0,0:0|0:0,0:0:0:0:
70,136,212883,5,8,0:0:0:0:
181,62,213078,1,8,0:0:0:0:
373,55,213272,6,0,L|235:55,1,108.5,8|8,0:0|0:0,0:0:0:0:
102,224,213662,2,0,L|47:360,1,108.5,8|0,0:0|0:0,0:0:0:0:
255,218,214052,2,0,L|160:324,1,108.5,8|0,0:0|0:0,0:0:0:0:
179,231,214344,1,0,0:0:0:0:
305,207,214441,2,0,L|310:325,1,108.5,8|0,0:0|0:0,0:0:0:0:
120,149,214831,6,0,L|241:150,3,108.5,12|0|8|0,3:2|3:0|3:2|3:0,0:0:0:0:
418,271,215610,1,8,3:2:0:0:
272,197,215805,2,0,L|123:197,2,108.5,0|8|0,3:0|3:2|3:0,0:0:0:0:
465,90,216389,6,0,L|327:130,1,108.5,8|0,3:2|3:0,0:0:0:0:
169,235,216779,2,0,L|316:264,1,108.5,8|0,3:2|3:0,0:0:0:0:
90,113,217168,2,0,L|224:176,1,108.5,8|0,3:2|3:0,0:0:0:0:
379,223,217558,2,0,L|307:305,1,108.5,8|0,3:2|3:0,0:0:0:0:
54,273,217948,5,8,3:2:0:0:
53,223,218045,1,0,3:0:0:0:
88,183,218142,1,8,3:2:0:0:
160,164,218240,1,0,3:0:0:0:
344,283,218337,1,8,3:2:0:0:
389,233,218435,1,0,3:0:0:0:
360,169,218532,1,8,3:2:0:0:
298,153,218629,1,0,3:0:0:0:
202,287,218727,5,8,3:2:0:0:
153,240,218824,1,0,3:0:0:0:
144,171,218922,1,8,3:2:0:0:
207,135,219019,1,0,3:0:0:0:
300,141,219117,1,8,3:2:0:0:
48,136,219311,1,8,3:2:0:0:
256,192,219506,12,0,220870,0:0:0:0:
310,125,221065,6,0,P|323:156|312:250,1,108.5,4|0,3:2|0:0,0:0:0:0:
211,237,221454,2,0,L|328:234,1,108.5
151,288,221844,2,0,P|63:243|100:138,1,217,8|0,0:0|3:0,0:0:0:0:
235,201,222428,1,0,0:0:0:0:
61,111,222623,6,0,L|194:108,1,108.5
361,160,223013,6,0,L|355:285,1,108.5,0|0,3:0|0:0,0:0:0:0:
187,237,223402,2,0,L|311:238,1,108.5,8|0,0:0|3:0,0:0:0:0:
481,214,223792,2,0,P|484:152|376:84,1,162.75
250,77,224181,6,0,L|136:95,1,108.5,4|0,3:2|0:0,0:0:0:0:
52,161,224571,2,0,L|53:288,1,108.5,0|0,0:0|0:0,0:0:0:0:
250,77,224961,2,0,P|313:116|208:191,1,217,8|0,0:0|3:0,0:0:0:0:
158,249,225545,1,0,0:0:0:0:
351,136,225740,6,0,L|243:137,1,108.5
73,176,226129,2,0,L|193:202,1,108.5,0|0,3:0|0:0,0:0:0:0:
366,237,226519,2,0,L|372:362,1,108.5,8|0,0:0|3:0,0:0:0:0:
182,301,226909,2,0,L|177:92,1,162.75,0|0,0:0|0:0,0:0:0:0:
349,254,227298,5,4,3:2:0:0:
425,221,227493,1,0,0:0:0:0:
461,144,227688,1,0,0:0:0:0:
388,95,227883,1,0,0:0:0:0:
198,292,228078,2,0,L|274:198,1,108.5,8|0,0:0|0:0,0:0:0:0:
449,148,228467,6,0,L|325:151,2,108.5,0|0|0,3:0|0:0|0:0,0:0:0:0:
288,256,229052,1,0,0:0:0:0:
114,177,229246,2,0,L|129:21,1,108.5,0|0,3:0|0:0,0:0:0:0:
320,180,229636,2,0,L|283:55,1,108.5,8|0,0:0|3:0,0:0:0:0:
109,285,230026,2,0,L|257:168,1,162.75,0|0,0:0|0:0,0:0:0:0:
80,159,230415,6,0,L|92:290,1,108.5,4|0,3:2|0:0,0:0:0:0:
294,194,230805,2,0,L|171:192,1,108.5,0|0,0:0|3:2,0:0:0:0:
372,121,231194,2,0,L|509:103,1,108.5,0|0,0:0|0:0,0:0:0:0:
165,285,231584,2,0,L|51:191,1,108.5,0|0,3:0|0:0,0:0:0:0:
276,205,231974,5,0,0:0:0:0:
149,211,232168,1,0,3:0:0:0:
454,193,232363,2,0,L|354:271,1,108.5
106,305,232753,2,0,L|234:137,1,162.75,0|0,0:0|0:0,0:0:0:0:
78,178,233142,2,0,L|78:46,1,108.5,0|0,0:0|0:0,0:0:0:0:
256,192,233532,12,0,236259,0:0:0:0:
