osu file format v14

[General]
AudioFilename: audio.mp3
AudioLeadIn: 0
PreviewTime: 218516
Countdown: 0
SampleSet: Soft
StackLeniency: 0.6
Mode: 0
LetterboxInBreaks: 0
WidescreenStoryboard: 0

[Editor]
DistanceSpacing: 0.5
BeatDivisor: 4
GridSize: 4
TimelineZoom: 5.200002

[Metadata]
Title:Dionysus
TitleUnicode:Dionysus
Artist:BTS
ArtistUnicode:방탄소년단
Creator:DeRandom Otaku
Version:Showtime
Source:
Tags:map of the soul persona album 起 承 轉 her tear wonder beyond the scene bangtan boys sonyeondan bangtansonyeondan bulletproof boy scouts 슈가 진 제이홉 지민 뷔 정국 jungkook rm j-hope jimin v suga jin hot yoongi k-pop kpop korean pop ren KittyAdventure -_frontier_- frontier gokugohan12468
BeatmapID:2086065
BeatmapSetID:971842

[Difficulty]
HPDrainRate:6
CircleSize:3.8
OverallDifficulty:8.5
ApproachRate:9.2
SliderMultiplier:1.5
SliderTickRate:1

[Events]
//Background and Video events
0,0,"dionysus.jpg",0,0
//Break Periods
2,185989,190674
//Storyboard Layer 0 (Background)
//Storyboard Layer 1 (Fail)
//Storyboard Layer 2 (Pass)
//Storyboard Layer 3 (Foreground)
//Storyboard Sound Samples

[TimingPoints]
335,340.909090909091,4,2,0,40,1,0
335,-192.307692307692,4,2,0,40,0,0
11244,-138.888888888889,4,2,0,50,0,0
16698,-108.695652173913,4,2,0,55,0,0
17550,-121.951219512195,4,2,0,55,0,0
19425,-108.695652173913,4,2,0,55,0,0
20789,-98.0392156862745,4,2,0,60,0,0
22153,-81.9672131147541,4,2,0,70,0,0
43971,-108.695652173913,4,2,0,55,0,0
54880,-121.951219512195,4,2,0,55,0,0
65278,-89.2857142857142,4,2,0,55,0,0
65789,-81.9672131147541,4,2,0,80,0,1
86925,-81.9672131147541,4,2,0,80,0,0
87607,-81.9672131147541,4,2,0,80,0,1
98516,-98.0392156862745,4,2,0,60,0,0
120335,-108.695652173913,4,2,0,55,0,0
131244,-121.951219512195,4,2,0,55,0,0
141641,-89.2857142857142,4,2,0,55,0,0
142153,-81.9672131147541,4,2,0,80,0,1
163971,-98.0392156862745,4,2,0,60,0,0
191244,-121.951219512195,4,2,0,50,0,0
195335,-89.2857142857142,4,2,0,65,0,0
196698,-75.7575757575758,4,2,0,88,0,1
217835,-75.7575757575758,4,2,0,88,0,0
218516,-75.7575757575758,4,2,0,90,0,1
228744,-75.7575757575758,4,2,0,90,0,0
229425,-75.7575757575758,4,2,0,90,0,1
240335,-108.695652173913,4,2,0,55,0,0
243062,-312.5,4,2,0,55,0,0
243147,-312.5,4,2,0,5,0,0

[Colours]
Combo1 : 128,128,255
Combo2 : 255,128,128
Combo3 : 237,193,63
Combo4 : 173,90,90

[HitObjects]
423,107,335,6,0,B|271:76|314:218|202:259,1,272.99999833374,2|2,0:2|0:2,0:0:0:0:
164,169,1698,2,0,P|177:241|182:336,1,155.999999047852,2|0,0:2|0:2,0:0:0:0:
213,29,2891,1,2,0:2:0:0:
213,29,3062,6,0,P|316:53|309:200,1,272.99999833374,2|2,0:2|0:2,0:0:0:0:
249,127,4425,1,2,0:2:0:0:
249,127,4766,2,0,P|199:120|162:120,1,77.9999995239258,2|0,0:2|0:2,0:0:0:0:
109,189,5278,2,0,P|70:195|31:196,1,77.9999995239258,2|2,0:2|0:2,0:0:0:0:
90,334,5789,6,0,B|261:305|121:230|328:195,1,272.99999833374,2|2,0:2|0:2,0:0:0:0:
350,281,7153,2,0,P|352:216|372:125,1,155.999999047852,2|0,0:2|0:2,0:0:0:0:
155,27,8346,1,2,0:2:0:0:
155,27,8516,5,2,0:2:0:0:
57,187,8857,2,0,P|51:146|37:96,1,77.9999995239258,2|0,0:2|0:2,0:0:0:0:
151,23,9369,2,0,P|141:60|135:99,1,77.9999995239258,2|0,0:2|0:2,0:0:0:0:
142,248,9880,5,10,0:2:0:0:
142,248,10050,1,10,0:2:0:0:
249,183,10221,1,0,1:2:0:0:
238,331,10391,1,0,1:2:0:0:
115,230,10562,1,2,1:2:0:0:
104,378,10732,1,0,1:2:0:0:
268,209,10903,1,2,1:2:0:0:
257,357,11073,1,2,1:2:0:0:
148,142,11244,6,0,P|122:134|84:133,1,54.0000013183594,6|0,1:2|0:2,0:0:0:0:
89,257,11585,2,0,P|115:254|141:247,1,54.0000013183594,2|0,0:2|0:2,0:0:0:0:
249,183,11925,1,2,0:2:0:0:
249,183,12096,2,0,P|243:240|234:302,1,108.000002636719,2|0,0:2|0:2,0:0:0:0:
188,113,12607,2,0,P|227:94|256:89,1,54.0000013183594,2|0,0:2|0:2,0:0:0:0:
298,204,12948,2,0,P|272:196|249:183,1,54.0000013183594,2|0,0:2|0:2,0:0:0:0:
347,123,13289,1,2,0:2:0:0:
347,123,13460,2,0,P|331:177|326:233,1,108.000002636719,2|0,0:2|0:2,0:0:0:0:
409,361,13971,6,0,P|407:323|403:299,1,54.0000013183594,6|0,1:2|0:2,0:0:0:0:
496,217,14312,2,0,P|492:243|491:270,1,54.0000013183594,2|0,0:2|0:2,0:0:0:0:
400,145,14653,1,2,0:2:0:0:
400,145,14823,2,0,P|359:118|294:111,1,108.000002636719,2|0,0:2|0:2,0:0:0:0:
213,226,15335,2,0,P|223:197|232:155,1,54.0000013183594,2|0,0:2|0:2,0:0:0:0:
253,39,15675,2,0,P|263:68|272:110,1,54.0000013183594,2|0,0:2|0:2,0:0:0:0:
302,260,16016,1,2,0:2:0:0:
302,260,16187,2,0,P|308:233|317:208,1,54.0000013183594,2|2,0:2|0:2,0:0:0:0:
182,103,16528,1,2,0:2:0:0:
89,265,16698,6,0,B|97:187|59:229|73:122,1,137.999995367432,6|2,1:2|0:2,0:0:0:0:
86,21,17210,1,0,0:2:0:0:
182,103,17380,1,2,0:2:0:0:
182,103,17550,2,0,P|227:91|307:82,1,123.000001876831,2|0,0:2|0:2,0:0:0:0:
415,185,18062,2,0,P|377:182|346:174,1,61.5000009384155,2|0,0:2|0:2,0:0:0:0:
199,211,18403,2,0,P|237:214|268:222,1,61.5000009384155,2|0,0:2|0:2,0:0:0:0:
420,279,18744,1,10,0:2:0:0:
259,307,18914,1,10,0:2:0:0:
444,309,19085,2,0,P|448:339|447:372,1,61.5000009384155,10|0,0:2|1:2,0:0:0:0:
277,209,19425,6,0,P|275:170|281:131,1,68.9999976837159,6|0,1:2|0:2,0:0:0:0:
431,38,19766,2,0,P|471:35|509:26,2,45.9999984558106,2|0|0,3:2|3:2|3:2,0:0:0:0:
391,26,20107,2,0,P|394:60|393:94,1,68.9999976837159,2|0,3:2|0:2,0:0:0:0:
360,263,20448,1,0,3:2:0:0:
309,64,20619,1,2,3:2:0:0:
309,64,20704,1,0,3:2:0:0:
309,64,20789,6,0,L|200:69,1,76.5000004669189,2|0,3:2|3:2,0:0:0:0:
149,28,21045,1,2,3:2:0:0:
149,28,21130,2,0,P|111:33|88:40,3,38.2500002334595,0|0|2|0,3:2|3:2|3:2|3:2,3:3:0:0:
24,91,21471,1,2,3:2:0:0:
30,109,21556,1,0,3:0:0:0:
36,127,21641,1,2,3:2:0:0:
42,145,21727,1,0,3:0:0:0:
48,163,21812,2,0,P|43:192|34:215,1,38.2500002334595,2|0,3:2|3:2,0:0:0:0:
163,352,21982,2,0,P|157:333|154:314,1,38.2500002334595,2|0,3:2|3:2,0:0:0:0:
192,142,22153,6,0,B|289:139|225:188|339:195,1,137.249994345474,6|0,1:2|0:2,0:0:0:0:
345,171,22494,2,0,P|385:158|450:159,1,91.4999962303163,2|0,0:2|0:2,0:0:0:0:
203,233,22835,1,10,0:2:0:0:
203,233,23175,1,2,0:2:0:0:
354,276,23346,1,2,0:2:0:0:
187,320,23516,5,2,1:2:0:0:
345,305,23687,1,2,0:2:0:0:
182,224,23857,1,2,0:2:0:0:
356,384,24028,2,0,P|364:339|387:276,1,91.4999962303163,2|8,0:2|0:2,0:0:0:0:
181,88,24369,2,0,P|185:142|181:237,1,137.249994345474,2|0,0:2|0:2,0:0:0:0:
178,261,24710,1,2,0:2:0:0:
286,120,24880,6,0,P|323:100|379:96,1,91.4999962303163,2|0,1:2|0:2,0:0:0:0:
429,329,25221,2,0,P|383:324|343:303,1,91.4999962303163,2|0,0:2|0:2,0:0:0:0:
286,120,25562,1,10,0:2:0:0:
408,239,25732,1,2,0:2:0:0:
305,92,25903,1,2,0:2:0:0:
301,306,26073,1,2,0:2:0:0:
195,136,26244,6,0,P|161:116|97:109,1,91.4999962303163,2|0,1:2|0:2,0:0:0:0:
277,210,26585,1,2,0:2:0:0:
172,346,26755,2,0,P|138:366|74:373,1,91.4999962303163,2|8,0:2|0:2,0:0:0:0:
20,178,27096,1,10,0:2:0:0:
239,286,27266,1,10,0:2:0:0:
10,306,27437,1,10,0:2:0:0:
195,136,27607,6,0,P|195:86|176:9,1,91.4999962303163,2|0,1:2|0:2,0:0:0:0:
239,286,27948,2,0,P|231:331|231:376,1,91.4999962303163,2|0,0:2|0:2,0:0:0:0:
168,138,28289,2,0,P|168:88|149:11,1,91.4999962303163,10|0,0:2|0:2,0:0:0:0:
143,318,28630,1,2,0:2:0:0:
282,148,28800,2,0,P|323:130|375:132,1,91.4999962303163,2|0,0:2|1:2,0:0:0:0:
436,317,29141,5,2,0:2:0:0:
495,146,29312,1,2,0:2:0:0:
456,339,29482,1,2,0:2:0:0:
369,130,29653,2,0,P|316:83|245:75,1,137.249994345474,10|0,0:2|0:2,0:0:0:0:
220,98,29994,2,0,B|132:96|184:52|77:63,1,137.249994345474,2|0,0:2|0:2,0:0:0:0:
55,77,30335,5,0,1:2:0:0:
28,295,30505,1,2,1:2:0:0:
104,167,30675,1,2,0:2:0:0:
126,352,30845,1,2,0:2:0:0:
21,202,31016,1,10,0:2:0:0:
201,262,31187,1,2,0:2:0:0:
15,319,31357,1,2,1:2:0:0:
133,154,31528,1,2,1:2:0:0:
264,368,31698,5,14,1:2:0:0:
297,110,31869,1,2,0:2:0:0:
150,334,32039,1,10,0:2:0:0:
117,76,32210,1,2,0:2:0:0:
336,275,32380,1,10,0:2:0:0:
45,227,32550,1,8,0:2:0:0:
45,227,32636,1,8,0:2:0:0:
45,227,32721,1,10,0:2:0:0:
264,368,32891,1,8,0:2:0:0:
23,358,33062,1,0,1:2:0:0:
225,253,33232,5,2,0:2:0:0:
225,253,33403,2,0,P|223:198|219:144,1,91.4999962303163,2|2,0:2|0:2,0:0:0:0:
32,17,33744,1,10,0:2:0:0:
32,17,33915,2,0,P|29:62|27:108,1,91.4999962303163,2|2,0:2|0:2,0:0:0:0:
123,346,34255,1,2,0:2:0:0:
123,346,34426,2,0,P|121:291|117:237,1,91.4999962303163,2|2,1:2|0:2,0:0:0:0:
201,76,34766,5,2,0:2:0:0:
230,293,34937,1,2,0:2:0:0:
236,51,35107,2,0,P|275:32|334:29,1,91.4999962303163,10|0,0:2|0:2,0:0:0:0:
486,269,35448,2,0,B|372:270|442:200|288:207,1,182.999992460633,2|0,0:2|1:2,0:0:0:0:
81,253,35960,5,2,0:2:0:0:
81,253,36045,1,2,0:2:0:0:
81,253,36130,1,2,0:2:0:0:
246,147,36300,1,2,0:2:0:0:
25,167,36471,1,10,0:2:0:0:
237,178,36641,1,2,0:2:0:0:
16,136,36812,1,2,0:2:0:0:
236,51,36982,1,2,0:2:0:0:
81,253,37153,5,2,1:2:0:0:
147,2,37323,1,2,0:2:0:0:
171,277,37494,1,2,0:2:0:0:
57,26,37664,1,2,0:2:0:0:
17,310,37835,1,10,0:2:0:0:
17,310,38005,1,8,0:2:0:0:
189,113,38175,1,10,0:2:0:0:
189,113,38346,1,8,0:2:0:0:
246,366,38516,6,0,P|296:359|336:319,1,91.4999962303163,2|0,1:2|0:2,0:0:0:0:
121,188,38857,1,2,0:2:0:0:
285,94,39028,2,0,P|335:101|375:141,1,91.4999962303163,2|8,0:2|0:2,0:0:0:0:
487,344,39369,1,2,0:2:0:0:
447,122,39539,1,2,0:2:0:0:
404,365,39710,1,2,0:2:0:0:
300,172,39880,5,2,1:2:0:0:
512,232,40050,1,2,0:2:0:0:
312,293,40221,1,2,0:2:0:0:
447,122,40391,2,0,P|440:64|424:15,1,91.4999962303163,2|8,0:2|0:2,0:0:0:0:
251,238,40732,1,2,0:2:0:0:
436,204,40903,1,2,0:2:0:0:
227,150,41073,1,2,0:2:0:0:
412,292,41244,5,6,1:2:0:0:
340,73,41414,1,2,1:2:0:0:
260,278,41585,1,2,0:2:0:0:
188,59,41755,2,0,P|183:115|177:182,1,91.4999962303163,2|8,1:2|0:2,0:0:0:0:
165,373,42096,1,2,0:2:0:0:
65,177,42266,1,2,1:2:0:0:
260,278,42437,1,2,1:2:0:0:
28,298,42607,5,10,0:2:0:0:
289,165,42778,1,2,0:2:0:0:
90,348,42948,1,10,0:2:0:0:
165,76,43119,1,2,0:2:0:0:
248,357,43289,1,8,0:2:0:0:
323,85,43460,1,8,0:2:0:0:
323,85,43545,1,8,0:2:0:0:
323,85,43630,1,10,0:2:0:0:
382,314,43800,1,8,0:2:0:0:
185,172,43971,6,0,P|141:156|105:153,1,68.9999976837159,2|2,0:2|0:2,0:0:0:0:
29,362,44312,1,2,0:2:0:0:
29,362,44482,1,2,0:2:0:0:
170,262,44653,2,0,P|214:246|250:243,1,68.9999976837159,2|2,0:2|0:2,0:0:0:0:
382,314,44994,2,0,P|348:308|316:295,1,68.9999976837159,2|2,0:2|0:2,0:0:0:0:
239,117,45335,2,0,B|368:136|290:197|424:214,1,206.999993051148,2|2,0:2|0:2,0:0:0:0:
482,146,46016,2,0,P|460:210|455:290,1,137.999995367432,2|2,0:2|0:2,0:0:0:0:
388,30,46698,5,2,0:2:0:0:
388,30,46869,1,2,0:2:0:0:
388,30,47039,2,0,P|353:41|317:45,1,68.9999976837159,2|2,0:2|0:2,0:0:0:0:
172,102,47380,2,0,P|206:106|239:117,1,68.9999976837159,2|2,0:2|0:2,0:0:0:0:
356,172,47721,1,2,0:2:0:0:
356,172,47891,1,2,0:2:0:0:
198,231,48062,2,0,B|77:210|151:140|16:133,1,206.999993051148,2|2,0:2|0:2,0:0:0:0:
31,232,48744,2,0,P|48:284|43:373,1,137.999995367432,2|2,0:2|0:2,0:0:0:0:
199,129,49425,5,2,0:2:0:0:
199,129,49596,2,0,P|235:120|280:122,1,68.9999976837159,2|0,0:2|0:2,0:0:0:0:
345,188,49937,1,2,0:2:0:0:
345,188,50108,2,0,P|381:197|426:195,1,68.9999976837159,2|0,0:2|0:2,0:0:0:0:
499,144,50448,1,2,0:2:0:0:
499,144,50619,1,2,0:2:0:0:
387,43,50789,5,2,0:2:0:0:
387,43,50960,2,0,P|394:82|394:111,1,68.9999976837159,2|0,0:2|0:2,0:0:0:0:
349,192,51300,1,2,0:2:0:0:
349,192,51471,2,0,P|342:231|342:260,1,68.9999976837159,2|0,0:2|0:2,0:0:0:0:
272,371,51812,1,2,0:2:0:0:
272,371,51982,1,2,0:2:0:0:
213,215,52153,6,0,P|130:217|85:275,1,137.999995367432,2|2,0:2|0:2,0:0:0:0:
359,340,52835,2,0,P|426:344|478:301,1,137.999995367432,2|2,0:2|0:2,0:0:0:0:
478,301,53516,5,10,0:2:0:0:
205,235,53687,1,10,0:2:0:0:
397,186,53857,1,10,1:2:0:0:
350,366,54028,1,8,1:2:0:0:
274,163,54198,1,2,1:2:0:0:
321,343,54369,1,0,1:2:0:0:
340,109,54539,1,2,1:2:0:0:
403,269,54710,1,2,1:2:0:0:
257,59,54880,6,0,B|121:47|165:172|48:200,1,246.000003753662,2|0,1:2|1:2,0:0:0:0:
69,194,55903,2,0,P|78:235|80:276,1,61.5000009384155,2|2,0:2|0:2,0:0:0:0:
228,145,56244,2,0,P|213:204|206:265,1,123.000001876831,2|2,1:2|0:2,0:0:0:0:
47,73,56925,2,0,P|61:132|69:194,1,123.000001876831,2|2,1:2|0:2,0:0:0:0:
180,359,57607,6,0,B|333:358|237:262|410:262,1,246.000003753662,2|2,1:2|1:2,0:0:0:0:
392,262,58630,2,0,P|433:271|466:271,1,61.5000009384155,2|2,0:2|0:2,0:0:0:0:
372,366,58971,1,2,1:2:0:0:
280,153,59312,1,2,0:2:0:0:
180,359,59653,2,0,P|171:290|151:211,1,123.000001876831,2|2,1:2|0:2,0:0:0:0:
123,142,60164,1,2,0:2:0:0:
308,260,60335,6,0,P|315:171|349:17,1,246.000003753662,2|0,1:2|1:2,0:0:0:0:
349,18,61357,2,0,P|360:51|363:89,1,61.5000009384155,2|2,0:2|0:2,0:0:0:0:
427,177,61698,2,0,P|435:116|455:58,1,123.000001876831,2|2,1:2|0:2,0:0:0:0:
189,13,62380,2,0,P|209:70|217:131,1,123.000001876831,2|2,1:2|0:2,0:0:0:0:
208,348,63062,5,6,3:2:0:0:
208,348,63403,2,0,P|241:329|286:322,1,61.5000009384155,2|0,3:2|0:0,0:0:0:0:
302,338,63658,1,0,3:2:0:0:
302,338,63744,1,2,3:2:0:0:
191,110,64085,2,0,P|162:101|131:100,1,61.5000009384155,0|0,3:2|3:2,3:3:0:0:
100,121,64340,1,0,3:2:0:0:
100,121,64425,6,0,P|75:131|53:137,3,30.7500004692078,2|2|0|0,3:2|3:2|3:2|3:2,0:0:0:0:
12,217,64766,2,0,P|26:222|40:228,3,30.7500004692078,2|2|0|0,3:2|3:2|3:2|3:2,0:0:0:0:
113,344,65107,5,2,3:2:0:0:
113,344,65192,1,0,3:2:0:0:
113,344,65278,2,0,P|114:309|120:281,1,42.0000005126953,0|0,3:2|3:2,0:0:0:0:
191,110,65448,5,2,3:2:0:0:
191,110,65533,1,0,3:0:0:0:
191,110,65619,2,0,P|190:125|194:156,1,42.0000005126953,0|0,3:0|3:0,0:0:0:0:
265,326,65789,5,6,1:2:0:0:
287,80,65959,1,2,0:2:0:0:
118,200,66129,1,2,0:2:0:0:
331,203,66300,1,2,0:2:0:0:
191,110,66471,1,10,0:2:0:0:
172,363,66641,1,2,0:2:0:0:
307,107,66812,1,2,0:2:0:0:
285,353,66982,1,2,0:2:0:0:
174,90,67153,5,2,1:2:0:0:
152,336,67323,1,2,0:2:0:0:
352,181,67494,1,2,0:2:0:0:
96,177,67665,1,2,0:2:0:0:
312,30,67835,2,0,P|358:18|414:24,1,91.4999962303163,10|0,0:2|0:2,0:0:0:0:
199,268,68175,2,0,B|215:174|153:196|175:76,1,182.999992460633,2|2,0:2|1:2,0:0:0:0:
101,237,68687,5,2,0:2:0:0:
285,123,68857,1,2,0:2:0:0:
27,118,69028,1,2,0:2:0:0:
260,42,69198,1,10,0:2:0:0:
101,237,69369,1,2,0:2:0:0:
174,10,69539,1,2,0:2:0:0:
199,268,69710,1,2,0:2:0:0:
94,54,69880,5,2,1:2:0:0:
286,220,70050,1,2,0:2:0:0:
29,197,70221,1,2,0:2:0:0:
285,123,70391,1,2,0:2:0:0:
132,314,70562,1,10,0:2:0:0:
132,314,70732,1,8,0:2:0:0:
357,176,70903,1,10,0:2:0:0:
357,176,71073,1,8,0:2:0:0:
94,54,71244,6,0,P|114:123|117:217,1,137.249994345474,6|0,1:2|0:2,0:0:0:0:
116,227,71585,2,0,B|213:225|151:183|280:180,1,137.249994345474,2|0,0:2|0:2,0:0:0:0:
279,168,71925,2,0,P|265:219|258:306,1,137.249994345474,10|0,0:2|0:2,0:0:0:0:
259,342,72266,2,0,P|303:325|350:323,1,91.4999962303163,2|0,0:2|0:2,0:0:0:0:
120,231,72607,5,2,1:2:0:0:
120,231,72948,2,0,P|125:173|147:85,1,137.249994345474,2|0,0:2|0:2,0:0:0:0:
154,59,73289,2,0,P|206:80|296:90,1,137.249994345474,10|0,0:2|0:2,0:0:0:0:
319,69,73630,2,0,P|363:56|417:55,1,91.4999962303163,2|0,0:2|0:2,0:0:0:0:
210,187,73971,5,6,1:2:0:0:
210,187,74141,1,0,1:2:0:0:
308,269,74312,2,0,P|352:282|406:283,1,91.4999962303163,2|0,0:2|1:2,0:0:0:0:
187,343,74653,2,0,P|141:344|97:357,1,91.4999962303163,10|0,0:2|0:2,0:0:0:0:
320,366,74994,1,2,1:2:0:0:
298,169,75164,1,2,1:2:0:0:
213,370,75335,5,10,0:2:0:0:
403,246,75505,1,2,0:2:0:0:
221,115,75675,2,0,P|177:99|114:101,1,91.4999962303163,10|0,0:2|0:2,0:0:0:0:
10,282,76016,1,10,0:2:0:0:
48,63,76187,1,8,0:2:0:0:
48,63,76272,1,8,0:2:0:0:
48,63,76357,1,10,0:2:0:0:
116,294,76528,2,0,P|121:230|131:170,1,91.4999962303163,8|6,0:2|1:2,0:0:0:0:
153,11,76869,5,2,0:2:0:0:
210,256,77039,1,2,0:2:0:0:
273,11,77210,1,2,0:2:0:0:
233,285,77380,1,10,0:2:0:0:
76,102,77550,1,2,0:2:0:0:
333,161,77721,1,2,0:2:0:0:
73,209,77891,1,2,0:2:0:0:
260,34,78062,5,2,1:2:0:0:
310,299,78232,1,2,0:2:0:0:
174,102,78403,1,2,0:2:0:0:
124,367,78573,1,2,0:2:0:0:
280,147,78744,2,0,P|324:125|384:125,1,91.4999962303163,10|0,0:2|0:2,0:0:0:0:
477,353,79085,2,0,B|359:358|428:294|296:299,1,182.999992460633,2|0,0:2|1:2,0:0:0:0:
56,335,79596,5,2,0:2:0:0:
290,265,79766,1,2,0:2:0:0:
27,253,79937,1,2,0:2:0:0:
253,347,80107,1,10,0:2:0:0:
159,121,80278,1,2,0:2:0:0:
78,352,80448,1,2,0:2:0:0:
192,146,80619,1,2,0:2:0:0:
286,372,80789,5,2,1:2:0:0:
104,198,80960,1,2,0:2:0:0:
343,198,81130,1,2,0:2:0:0:
161,372,81301,1,2,0:2:0:0:
398,275,81471,1,10,0:2:0:0:
398,275,81641,1,8,0:2:0:0:
149,278,81812,1,10,0:2:0:0:
149,278,81982,1,8,0:2:0:0:
367,105,82153,6,0,B|366:196|401:158|399:249,1,137.249994345474,6|0,1:2|0:2,0:0:0:0:
398,275,82494,2,0,P|351:246|266:238,1,137.249994345474,2|0,0:2|0:2,0:0:0:0:
248,269,82835,2,0,P|201:299|116:307,1,137.249994345474,10|0,0:2|0:2,0:0:0:0:
93,281,83175,2,0,P|57:259|-6:253,1,91.4999962303163,2|0,0:2|0:2,0:0:0:0:
256,374,83516,5,2,1:2:0:0:
256,374,83857,2,0,P|317:349|405:350,1,137.249994345474,2|0,0:2|0:2,0:0:0:0:
422,365,84198,2,0,P|423:306|435:215,1,137.249994345474,10|0,0:2|0:2,0:0:0:0:
448,193,84539,2,0,P|405:169|356:169,1,91.4999962303163,2|0,0:2|0:2,0:0:0:0:
158,227,84880,5,12,0:2:0:0:
158,227,85050,1,0,3:2:0:0:
270,77,85221,2,0,P|313:53|362:53,1,91.4999962303163,2|8,1:2|0:2,0:0:0:0:
381,267,85562,2,0,P|335:264|296:241,1,91.4999962303163,8|0,0:2|1:2,0:0:0:0:
474,116,85903,1,10,0:2:0:0:
445,330,86073,1,2,0:2:0:0:
269,161,86244,5,2,1:2:0:0:
298,375,86414,1,10,0:2:0:0:
347,125,86585,2,0,P|311:87|250:74,1,91.4999962303163,2|0,0:2|1:2,0:0:0:0:
57,192,86925,5,2,3:2:0:0:
57,192,87011,1,0,3:2:0:0:
57,192,87096,1,0,3:2:0:0:
57,192,87181,1,0,3:2:0:0:
57,192,87266,1,2,3:2:0:0:
102,187,87351,1,0,3:2:0:0:
147,182,87436,1,0,3:2:0:0:
193,177,87521,1,0,3:2:0:0:
238,172,87607,6,0,P|224:222|223:291,1,91.4999962303163,6|0,1:2|0:2,0:0:0:0:
29,372,87948,2,0,P|24:326|11:282,1,91.4999962303163,2|0,0:2|0:2,0:0:0:0:
187,22,88289,1,10,0:2:0:0:
24,50,88460,2,0,B|145:50|76:117|203:124,1,182.999992460633,2|0,0:2|0:2,0:0:0:0:
417,92,88971,6,0,P|372:70|318:70,1,91.4999962303163,2|0,1:2|0:2,0:0:0:0:
270,328,89312,2,0,P|310:348|355:352,1,91.4999962303163,2|0,0:2|0:2,0:0:0:0:
213,127,89653,1,10,0:2:0:0:
131,369,89823,2,0,P|124:276|110:181,1,182.999992460633,2|0,0:2|0:2,0:0:0:0:
226,3,90335,6,0,P|219:48|216:93,1,91.4999962303163,2|0,1:2|0:2,0:0:0:0:
270,328,90675,2,0,P|266:282|260:237,1,91.4999962303163,2|0,0:2|0:2,0:0:0:0:
78,74,91016,1,10,0:2:0:0:
331,18,91187,2,0,B|450:16|376:75|499:74,1,182.999992460633,2|0,0:2|0:2,0:0:0:0:
365,253,91698,6,0,P|356:203|351:126,1,91.4999962303163,2|0,1:2|0:2,0:0:0:0:
226,3,92039,2,0,P|221:48|213:93,1,91.4999962303163,2|0,0:2|0:2,0:0:0:0:
152,307,92380,1,10,0:2:0:0:
299,94,92550,1,8,0:2:0:0:
285,354,92721,1,10,0:2:0:0:
140,132,92891,1,10,0:2:0:0:
370,301,93062,6,0,P|414:321|467:322,1,91.4999962303163,6|0,1:2|0:2,0:0:0:0:
236,141,93403,2,0,P|190:144|149:163,1,91.4999962303163,2|0,0:2|0:2,0:0:0:0:
22,374,93744,1,10,0:2:0:0:
221,229,93914,2,0,P|311:235|394:274,1,182.999992460633,2|0,0:2|0:2,0:0:0:0:
500,75,94425,6,0,P|445:95|396:103,1,91.4999962303163,2|0,1:2|0:2,0:0:0:0:
177,27,94766,2,0,P|221:36|264:53,1,91.4999962303163,2|0,0:2|0:2,0:0:0:0:
471,191,95107,1,10,0:2:0:0:
326,4,95278,2,0,P|297:82|289:192,1,182.999992460633,2|0,0:2|0:2,0:0:0:0:
173,369,95789,6,0,P|162:309|144:265,1,91.4999962303163,2|0,1:2|1:2,0:0:0:0:
92,43,96130,2,0,P|77:86|70:131,1,91.4999962303163,2|0,0:2|0:2,0:0:0:0:
83,348,96471,1,10,0:2:0:0:
159,107,96641,2,0,P|199:80|251:76,1,91.4999962303163,2|0,0:2|1:2,0:0:0:0:
436,226,96982,1,2,1:2:0:0:
320,20,97153,5,14,0:2:0:0:
288,272,97323,2,0,P|289:326|303:383,1,91.4999962303163,2|8,0:2|0:2,0:0:0:0:
387,82,97664,1,2,0:2:0:0:
485,354,97835,1,10,0:2:0:0:
255,166,98005,1,10,0:2:0:0:
223,162,98090,1,8,0:2:0:0:
191,158,98175,1,10,0:2:0:0:
504,195,98346,1,10,0:2:0:0:
360,54,98516,6,0,P|304:29|234:32,1,102.000000622559,6|0,0:2|0:2,0:0:0:0:
221,102,98857,2,0,P|165:127|95:124,1,102.000000622559,2|0,0:2|0:2,0:0:0:0:
84,54,99198,2,0,P|94:90|95:144,1,76.5000004669189,10|0,0:2|0:2,0:0:0:0:
23,218,99539,2,0,P|13:254|12:308,1,76.5000004669189,2|0,0:2|0:2,0:0:0:0:
106,373,99880,1,2,0:2:0:0:
71,27,100562,1,10,0:2:0:0:
71,27,100903,2,0,P|136:28|177:57,1,102.000000622559,2|2,0:2|0:2,0:0:0:0:
231,103,101244,6,0,P|283:90|333:86,1,102.000000622559,2|0,0:2|0:2,0:0:0:0:
349,171,101585,2,0,P|297:184|247:188,1,102.000000622559,2|0,0:2|0:2,0:0:0:0:
165,162,101925,2,0,P|161:217|164:287,1,102.000000622559,10|0,0:2|0:2,0:0:0:0:
190,347,102266,2,0,P|217:333|266:332,1,76.5000004669189,2|0,0:2|0:2,0:0:0:0:
449,354,102607,1,2,0:2:0:0:
416,25,103289,2,8,P|368:25|341:45,1,76.5000004669189,10|8,0:2|0:2,0:0:0:0:
274,126,103630,1,10,0:2:0:0:
274,126,103800,1,8,0:2:0:0:
456,158,103971,5,2,0:2:0:0:
345,40,104141,1,2,0:2:0:0:
330,205,104312,2,0,P|332:250|341:295,1,76.5000004669189,2|0,0:2|0:2,0:0:0:0:
274,126,104653,1,10,0:2:0:0:
414,230,104823,1,2,0:2:0:0:
294,97,104994,1,2,0:2:0:0:
255,272,105164,1,2,0:2:0:0:
395,117,105335,6,0,P|432:100|489:102,1,76.5000004669189,2|0,0:2|0:2,0:0:0:0:
467,286,105675,2,0,P|429:283|394:266,1,76.5000004669189,2|0,0:2|0:2,0:0:0:0:
241,107,106016,1,10,0:2:0:0:
241,107,106357,2,0,P|203:110|168:126,1,76.5000004669189,2|0,0:2|0:2,0:0:0:0:
51,264,106698,5,2,1:2:0:0:
51,264,106869,1,0,1:2:0:0:
91,105,107039,1,2,0:2:0:0:
146,287,107210,1,0,1:2:0:0:
241,107,107380,2,0,P|232:161|232:235,1,102.000000622559,10|2,0:2|0:2,0:0:0:0:
231,245,107721,1,2,1:2:0:0:
161,49,107891,1,2,0:2:0:0:
326,171,108062,5,10,0:2:0:0:
326,171,108403,2,0,P|369:168|407:151,1,76.5000004669189,10|0,0:2|0:2,0:0:0:0:
256,18,108744,1,10,0:2:0:0:
231,245,108914,1,8,0:2:0:0:
231,245,108999,1,8,0:2:0:0:
231,245,109085,1,10,0:2:0:0:
336,86,109255,1,8,0:2:0:0:
479,284,109425,6,0,P|418:268|347:264,1,114.750000700378,6|0,1:2|0:2,0:0:0:0:
332,277,109766,1,2,0:2:0:0:
492,192,109937,1,2,0:2:0:0:
260,120,110107,1,10,0:2:0:0:
260,120,110448,2,0,P|209:121|168:135,1,76.5000004669189,2|0,0:2|0:2,0:0:0:0:
26,314,110789,5,2,1:2:0:0:
127,8,111130,1,2,0:2:0:0:
139,355,111471,1,10,0:2:0:0:
24,83,111812,2,0,P|38:140|41:176,1,76.5000004669189,2|0,0:2|0:2,0:0:0:0:
127,8,112153,6,0,P|190:10|246:56,1,114.750000700378,2|0,1:2|0:2,0:0:0:0:
259,61,112494,1,2,0:2:0:0:
134,211,112664,1,2,0:2:0:0:
372,237,112835,1,10,0:2:0:0:
372,237,113175,2,0,P|360:295|355:342,1,76.5000004669189,2|0,0:2|0:2,0:0:0:0:
394,142,113516,5,2,1:2:0:0:
101,286,113857,1,2,0:2:0:0:
459,288,114198,1,10,0:2:0:0:
459,288,114369,1,8,0:2:0:0:
394,142,114539,1,10,0:2:0:0:
366,342,114710,1,8,0:2:0:0:
294,125,114880,6,0,P|240:93|177:95,1,114.750000700378,2|0,1:2|0:2,0:0:0:0:
156,102,115221,1,2,0:2:0:0:
332,42,115391,1,2,0:2:0:0:
218,182,115562,1,10,0:2:0:0:
249,6,115732,1,2,0:2:0:0:
132,196,115903,1,2,0:2:0:0:
101,20,116073,1,2,0:2:0:0:
294,125,116244,5,2,1:2:0:0:
45,357,116585,1,2,0:2:0:0:
249,6,116925,1,10,0:2:0:0:
253,343,117266,2,0,P|295:343|340:324,1,76.5000004669189,2|0,0:2|0:2,0:0:0:0:
457,268,117607,5,2,1:2:0:0:
457,268,117778,1,0,1:2:0:0:
319,228,117948,1,2,0:2:0:0:
429,353,118119,1,2,1:2:0:0:
371,159,118289,1,10,0:2:0:0:
162,360,118630,1,2,1:2:0:0:
162,360,118800,1,0,1:2:0:0:
104,166,118971,5,10,0:2:0:0:
429,353,119312,1,8,0:2:0:0:
326,26,119653,1,10,0:2:0:0:
285,206,119823,1,8,0:2:0:0:
285,206,119908,1,8,0:2:0:0:
285,206,119994,1,8,0:2:0:0:
425,81,120164,1,8,0:2:0:0:
215,69,120335,6,0,P|173:74|135:85,1,68.9999976837159,2|2,0:2|0:2,0:0:0:0:
285,206,120675,1,2,0:2:0:0:
285,206,120846,1,2,0:2:0:0:
175,259,121016,2,0,P|133:254|95:243,1,68.9999976837159,2|2,0:2|0:2,0:0:0:0:
117,54,121357,2,0,P|150:45|184:42,1,68.9999976837159,2|2,0:2|0:2,0:0:0:0:
366,195,121698,2,0,B|238:202|314:126|171:137,1,206.999993051148,2|2,0:2|0:2,0:0:0:0:
72,266,122380,2,0,P|134:238|203:234,1,137.999995367432,2|2,0:2|0:2,0:0:0:0:
479,356,123062,5,2,0:2:0:0:
479,356,123232,1,2,0:2:0:0:
479,356,123403,2,0,P|470:315|470:260,1,68.9999976837159,2|2,0:2|0:2,0:0:0:0:
387,164,123744,2,0,P|384:198|376:231,1,68.9999976837159,2|2,0:2|0:2,0:0:0:0:
333,360,124085,1,2,0:2:0:0:
333,360,124255,1,2,0:2:0:0:
292,182,124425,2,0,B|174:156|199:277|112:292,1,206.999993051148,2|2,0:2|0:2,0:0:0:0:
70,213,125107,2,0,P|85:278|83:358,1,137.999995367432,2|2,0:2|0:2,0:0:0:0:
159,100,125789,5,2,0:2:0:0:
159,100,125960,2,0,P|192:88|230:85,1,68.9999976837159,2|0,0:2|0:2,0:0:0:0:
301,162,126300,1,2,0:2:0:0:
301,162,126471,2,0,P|334:174|372:177,1,68.9999976837159,2|0,0:2|0:2,0:0:0:0:
461,127,126812,1,2,0:2:0:0:
461,127,126982,1,2,0:2:0:0:
351,14,127153,5,2,0:2:0:0:
351,14,127323,2,0,P|355:55|354:90,1,68.9999976837159,2|0,0:2|0:2,0:0:0:0:
305,166,127664,1,2,0:2:0:0:
305,166,127834,2,0,P|301:207|302:242,1,68.9999976837159,2|0,0:2|0:2,0:0:0:0:
344,326,128175,1,2,0:2:0:0:
344,326,128346,1,2,0:2:0:0:
207,227,128516,6,0,B|108:204|156:259|47:246,1,137.999995367432,2|2,0:2|0:2,0:0:0:0:
344,326,129198,2,0,B|443:303|395:358|504:345,1,137.999995367432,2|2,0:2|0:2,0:0:0:0:
475,347,129880,5,10,0:2:0:0:
429,164,130050,1,10,0:2:0:0:
312,303,130221,1,10,1:2:0:0:
335,118,130391,1,8,1:2:0:0:
406,295,130562,1,2,1:2:0:0:
263,207,130732,1,0,1:2:0:0:
429,164,130903,1,2,1:2:0:0:
312,303,131073,1,2,1:2:0:0:
256,105,131244,6,0,P|205:34|46:24,1,246.000003753662,2|0,1:2|1:2,0:0:0:0:
56,19,132266,2,0,P|68:60|76:103,1,61.5000009384155,2|2,0:2|0:2,0:0:0:0:
128,228,132607,2,0,P|141:168|159:109,1,123.000001876831,2|2,1:2|0:2,0:0:0:0:
53,369,133289,2,0,P|39:309|21:250,1,123.000001876831,2|2,1:2|0:2,0:0:0:0:
311,33,133971,6,0,P|394:33|459:166,1,246.000003753662,2|2,1:2|1:2,0:0:0:0:
459,165,134994,2,0,P|420:155|386:153,1,61.5000009384155,2|2,0:2|0:2,0:0:0:0:
294,158,135335,1,2,1:2:0:0:
506,266,135675,1,2,0:2:0:0:
294,374,136016,2,0,P|235:348|170:338,1,123.000001876831,2|2,1:2|0:2,0:0:0:0:
61,355,136528,1,2,0:2:0:0:
141,170,136698,6,0,B|292:172|213:259|379:266,1,246.000003753662,2|0,1:2|1:2,0:0:0:0:
358,265,137721,2,0,P|363:222|371:189,1,61.5000009384155,2|2,0:2|0:2,0:0:0:0:
258,72,138062,2,0,P|269:132|275:193,1,123.000001876831,2|2,1:2|0:2,0:0:0:0:
468,376,138744,2,0,P|473:314|485:254,1,123.000001876831,2|2,1:2|0:2,0:0:0:0:
177,338,139425,5,6,3:2:0:0:
177,338,139766,2,0,P|170:291|169:266,1,61.5000009384155,0|0,3:2|0:0,0:0:0:0:
173,245,140022,1,0,3:2:0:0:
173,245,140107,1,2,3:2:0:0:
460,133,140448,2,0,P|467:86|468:61,1,61.5000009384155,0|0,3:2|0:0,0:0:0:0:
464,40,140704,1,0,3:2:0:0:
464,40,140789,6,0,P|435:31|412:28,3,30.7500004692078,2|2|0|0,3:2|3:2|3:2|3:2,0:0:0:0:
359,105,141130,2,0,P|330:114|307:117,3,30.7500004692078,2|2|0|0,3:2|3:2|3:2|3:2,0:0:0:0:
228,87,141471,5,2,3:2:0:0:
228,87,141556,1,0,3:2:0:0:
228,87,141641,2,0,P|236:122|236:160,1,42.0000005126953,0|0,3:2|3:2,0:0:0:0:
290,303,141812,5,0,3:0:0:0:
290,303,141897,1,0,3:0:0:0:
290,303,141982,2,0,P|292:282|298:261,1,42.0000005126953,0|0,3:0|3:0,0:0:0:0:
329,114,142153,5,6,1:2:0:0:
208,262,142324,1,2,0:2:0:0:
431,208,142494,1,2,0:2:0:0:
186,233,142664,1,2,0:2:0:0:
375,308,142835,1,10,0:2:0:0:
198,310,143005,1,2,0:2:0:0:
329,114,143175,1,2,0:2:0:0:
335,372,143346,1,2,0:2:0:0:
219,117,143516,5,2,1:2:0:0:
213,375,143687,1,2,0:2:0:0:
128,147,143857,1,2,0:2:0:0:
28,370,144028,1,2,0:2:0:0:
215,208,144198,2,0,P|266:208|310:241,1,91.4999962303163,10|0,0:2|0:2,0:0:0:0:
495,368,144539,2,0,B|500:265|451:311|464:181,1,182.999992460633,2|2,0:2|1:2,0:0:0:0:
489,15,145050,5,2,0:2:0:0:
383,229,145221,1,2,0:2:0:0:
329,23,145391,1,2,0:2:0:0:
463,191,145562,1,10,0:2:0:0:
242,100,145732,1,2,0:2:0:0:
268,329,145903,1,2,0:2:0:0:
404,119,146073,1,2,0:2:0:0:
378,348,146244,5,2,1:2:0:0:
197,194,146414,1,2,0:2:0:0:
451,270,146585,1,2,0:2:0:0:
201,279,146755,1,2,0:2:0:0:
404,119,146925,1,10,0:2:0:0:
404,119,147096,1,8,0:2:0:0:
482,361,147266,1,10,0:2:0:0:
482,361,147437,1,8,0:2:0:0:
322,173,147607,6,0,P|259:141|182:142,1,137.249994345474,6|0,1:2|0:2,0:0:0:0:
159,159,147948,2,0,P|178:224|174:310,1,137.249994345474,2|0,0:2|0:2,0:0:0:0:
171,331,148289,2,0,B|86:333|128:286|45:291,1,137.249994345474,10|0,0:2|0:2,0:0:0:0:
14,312,148630,2,0,P|5:262|8:215,1,91.4999962303163,2|0,0:2|0:2,0:0:0:0:
39,29,148971,5,2,1:2:0:0:
39,29,149312,2,0,P|85:58|166:58,1,137.249994345474,2|0,0:2|0:2,0:0:0:0:
195,32,149653,2,0,P|262:28|321:61,1,137.249994345474,10|0,0:2|0:2,0:0:0:0:
349,89,149994,2,0,P|339:139|341:191,1,91.4999962303163,2|0,0:2|0:2,0:0:0:0:
355,364,150335,5,6,1:2:0:0:
355,364,150505,1,0,1:2:0:0:
248,200,150675,2,0,P|209:178|164:173,1,91.4999962303163,2|0,0:2|1:2,0:0:0:0:
91,370,151016,2,0,P|136:364|175:342,1,91.4999962303163,10|0,0:2|0:2,0:0:0:0:
59,180,151357,1,2,1:2:0:0:
14,362,151528,1,2,1:2:0:0:
164,173,151698,5,10,0:2:0:0:
265,358,151869,1,2,0:2:0:0:
195,157,152039,2,0,P|200:97|212:31,1,91.4999962303163,10|0,0:2|0:2,0:0:0:0:
339,295,152380,1,10,0:2:0:0:
109,273,152550,1,8,0:2:0:0:
109,273,152636,1,8,0:2:0:0:
109,273,152721,1,10,0:2:0:0:
298,133,152891,2,0,P|339:115|411:115,1,91.4999962303163,8|6,0:2|1:2,0:0:0:0:
508,350,153232,5,2,0:2:0:0:
420,123,153403,1,2,0:2:0:0:
385,369,153573,1,2,0:2:0:0:
385,110,153744,1,10,0:2:0:0:
473,337,153914,1,2,0:2:0:0:
505,97,154085,1,2,0:2:0:0:
341,293,154255,1,2,0:2:0:0:
316,30,154425,5,2,1:2:0:0:
442,256,154596,1,2,0:2:0:0:
289,50,154766,1,2,0:2:0:0:
177,280,154937,1,2,0:2:0:0:
109,36,155107,2,0,P|64:13|11:13,1,91.4999962303163,10|0,0:2|0:2,0:0:0:0:
263,230,155448,2,0,P|269:139|289:50,1,182.999992460633,2|0,0:2|1:2,0:0:0:0:
177,280,155960,5,2,0:2:0:0:
109,36,156130,1,2,0:2:0:0:
263,230,156300,1,2,0:2:0:0:
50,108,156471,1,10,0:2:0:0:
29,361,156641,1,2,0:2:0:0:
15,95,156812,1,2,0:2:0:0:
107,328,156982,1,2,0:2:0:0:
238,106,157153,5,2,1:2:0:0:
193,360,157323,1,2,0:2:0:0:
136,122,157494,1,2,0:2:0:0:
306,338,157664,1,2,0:2:0:0:
367,86,157835,1,10,0:2:0:0:
367,86,158005,1,8,0:2:0:0:
169,264,158175,1,10,0:2:0:0:
169,264,158345,1,8,0:2:0:0:
421,165,158516,6,0,P|414:258|412:317,1,137.249994345474,6|0,1:2|0:2,0:0:0:0:
417,341,158857,2,0,B|314:345|381:289|257:306,1,137.249994345474,2|0,0:2|0:2,0:0:0:0:
259,327,159198,2,0,P|200:327|172:243,1,137.249994345474,10|0,0:2|0:2,0:0:0:0:
184,229,159539,2,0,P|193:174|187:116,1,91.4999962303163,2|0,0:2|0:2,0:0:0:0:
96,363,159880,5,2,1:2:0:0:
96,363,160221,2,0,P|43:363|18:270,1,137.249994345474,2|0,0:2|0:2,0:0:0:0:
31,264,160562,2,0,B|41:170|0:226|15:103,1,137.249994345474,10|0,0:2|0:2,0:0:0:0:
25,94,160903,2,0,P|71:67|119:66,1,91.4999962303163,2|0,0:2|0:2,0:0:0:0:
334,192,161244,5,12,0:2:0:0:
334,192,161414,1,0,3:2:0:0:
199,11,161585,2,0,P|213:55|218:107,1,91.4999962303163,2|8,1:2|0:2,0:0:0:0:
285,295,161925,2,0,P|290:249|304:206,1,91.4999962303163,8|0,0:2|1:2,0:0:0:0:
375,39,162266,1,10,0:2:0:0:
418,255,162437,1,2,0:2:0:0:
258,81,162607,5,2,1:2:0:0:
200,293,162778,1,10,0:2:0:0:
108,64,162948,2,0,P|121:120|126:178,1,91.4999962303163,2|0,0:2|1:2,0:0:0:0:
93,363,163289,5,2,3:2:0:0:
93,363,163374,1,0,3:2:0:0:
93,363,163460,1,0,3:2:0:0:
93,363,163545,1,0,3:2:0:0:
93,363,163630,1,2,3:2:0:0:
117,324,163715,1,0,3:2:0:0:
155,300,163800,1,0,3:2:0:0:
200,293,163886,1,0,3:2:0:0:
244,306,163971,6,0,P|239:255|237:202,1,76.5000004669189,6|2,1:2|0:2,0:0:0:0:
252,196,164227,2,0,P|257:145|259:92,1,76.5000004669189,2|2,0:2|0:2,0:0:0:0:
251,84,164482,1,2,0:2:0:0:
332,251,164653,1,10,0:2:0:0:
372,112,164823,1,2,0:2:0:0:
372,112,164908,1,2,0:2:0:0:
435,240,165079,1,2,0:2:0:0:
435,240,165164,1,2,0:2:0:0:
258,119,165335,6,0,P|208:112|161:114,1,76.5000004669189,2|10,0:2|0:2,0:0:0:0:
151,126,165590,1,2,0:2:0:0:
151,126,165675,1,0,0:2:0:0:
17,208,165846,1,2,1:2:0:0:
75,57,166016,1,10,0:2:0:0:
125,237,166187,1,2,0:2:0:0:
158,26,166357,1,2,0:2:0:0:
158,26,166698,6,0,P|146:94|143:170,1,114.750000700378,2|2,1:2|0:2,0:0:0:0:
145,271,167124,1,2,0:2:0:0:
145,271,167210,1,2,0:2:0:0:
258,119,167380,2,0,P|270:187|273:263,1,114.750000700378,10|2,0:2|0:2,0:0:0:0:
271,364,167806,1,2,0:2:0:0:
271,364,167892,1,2,0:2:0:0:
367,195,168062,6,0,P|404:170|465:167,1,76.5000004669189,2|8,0:2|0:2,0:0:0:0:
512,272,168403,2,0,P|506:307|504:337,1,38.2500002334595,2|0,0:2|0:2,0:0:0:0:
468,178,168573,1,2,1:2:0:0:
360,230,168744,2,0,P|371:278|374:312,1,76.5000004669189,10|0,0:2|0:2,0:0:0:0:
314,109,169085,2,0,P|318:71|327:33,1,76.5000004669189,2|0,0:2|0:2,0:0:0:0:
252,227,169425,6,0,P|199:227|161:202,1,76.5000004669189,2|0,1:2|0:2,0:0:0:0:
161,191,169681,2,0,P|108:191|70:216,1,76.5000004669189,2|0,0:2|0:2,0:0:0:0:
66,224,169937,1,2,0:2:0:0:
145,96,170107,1,10,0:2:0:0:
135,302,170278,1,2,0:2:0:0:
64,87,170448,1,2,0:2:0:0:
64,87,170789,6,0,P|86:42|110:24,1,76.5000004669189,2|8,0:2|0:2,0:0:0:0:
139,19,171045,2,0,P|173:24|224:28,1,76.5000004669189,2|0,0:2|0:2,0:0:0:0:
247,30,171300,1,2,1:2:0:0:
441,156,171471,1,10,0:2:0:0:
354,13,171641,1,2,0:2:0:0:
338,229,171812,1,2,0:2:0:0:
452,43,171982,1,2,0:2:0:0:
452,43,172067,1,2,0:2:0:0:
452,43,172153,6,0,P|442:111|443:184,2,114.750000700378,2|2|2,1:2|0:2|0:2,0:0:0:0:
338,229,172835,2,0,P|336:171|327:115,2,114.750000700378,10|2|2,0:2|0:2|0:2,0:0:0:0:
337,358,173516,6,0,P|293:346|232:335,1,76.5000004669189,2|10,0:2|0:2,0:0:0:0:
120,356,173857,2,0,P|88:372|47:375,2,51.0000003112793,2|2|2,1:2|0:0|0:0,0:0:0:0:
157,332,174198,1,8,0:2:0:0:
62,229,174369,1,0,3:2:0:0:
62,229,174454,1,0,3:2:0:0:
62,229,174539,2,0,P|79:170|165:145,1,153.000000933838,2|4,0:2|1:2,0:0:0:0:
318,208,175050,5,2,0:2:0:0:
252,113,175221,1,2,0:2:0:0:
225,268,175391,1,2,0:2:0:0:
279,127,175562,1,10,0:2:0:0:
303,305,175732,1,2,0:2:0:0:
400,179,175903,1,2,0:2:0:0:
376,357,176073,1,2,0:2:0:0:
370,153,176244,6,0,P|372:114|383:76,1,76.5000004669189,2|8,0:2|0:2,0:0:0:0:
491,323,176585,1,2,0:2:0:0:
447,166,176755,1,2,1:2:0:0:
376,357,176925,2,0,P|314:355|236:285,1,153.000000933838,10|2,0:2|0:2,0:0:0:0:
337,164,177437,2,0,P|346:201|348:240,1,76.5000004669189,0|0,0:2|1:2,0:0:0:0:
240,86,177778,5,2,0:2:0:0:
181,225,177948,1,2,0:2:0:0:
213,63,178119,1,2,0:2:0:0:
268,217,178289,1,10,0:2:0:0:
328,80,178460,1,2,0:2:0:0:
328,80,178545,1,2,0:2:0:0:
328,80,178630,1,2,0:2:0:0:
348,240,178800,1,2,0:2:0:0:
240,86,178971,6,0,P|194:66|153:65,1,76.5000004669189,2|8,0:2|0:2,0:0:0:0:
19,189,179312,1,2,0:2:0:0:
75,36,179482,1,2,1:2:0:0:
124,231,179653,1,10,0:2:0:0:
124,231,179994,2,0,P|109:278|105:322,2,76.5000004669189,0|0|0,0:2|0:2|1:2,0:0:0:0:
177,83,180505,5,2,0:2:0:0:
211,236,180675,1,2,0:2:0:0:
278,99,180846,1,2,0:2:0:0:
134,205,181016,1,10,0:2:0:0:
238,30,181187,1,2,0:2:0:0:
290,226,181357,1,2,0:2:0:0:
177,83,181528,1,2,0:2:0:0:
149,282,181698,6,0,P|158:331|156:382,1,76.5000004669189,2|8,0:2|0:2,0:0:0:0:
55,189,182039,2,0,P|56:150|64:113,1,76.5000004669189,2|0,0:2|1:2,0:0:0:0:
76,84,182295,1,2,0:2:0:0:
76,84,182380,2,0,B|179:88|110:136|219:144,1,153.000000933838,10|2,0:2|0:2,0:0:0:0:
360,143,182891,6,0,P|352:108|353:62,1,76.5000004669189,2|0,0:2|1:2,0:0:0:0:
473,235,183232,2,0,P|489:160|488:84,1,153.000000933838,2|0,0:2|0:2,0:0:0:0:
380,237,183744,1,10,0:2:0:0:
353,67,183914,1,2,0:2:0:0:
291,279,184085,2,0,B|199:278|249:223|148:229,1,153.000000933838,2|2,0:2|0:2,0:0:0:0:
113,248,184511,6,0,P|118:195|121:110,2,114.750000700378,2|2|2,0:2|0:2|0:2,0:0:0:0:
109,285,185107,1,10,0:2:0:0:
10,345,185278,1,0,3:2:0:0:
30,230,185448,1,0,3:2:0:0:
84,363,185619,1,0,3:2:0:0:
113,248,185789,1,0,3:2:0:0:
256,192,191244,12,0,193800,0:0:0:0:
185,133,193971,6,0,B|262:133|232:95|311:97,2,123.000001876831,0|8|0,3:2|3:2|1:2,0:0:0:0:
31,112,194823,1,0,1:2:0:0:
185,10,194994,2,0,P|215:14|244:24,1,61.5000009384155,8|0,0:2|0:2,0:0:0:0:
409,216,195335,5,12,0:2:0:0:
341,7,195505,1,0,1:2:0:0:
324,249,195675,1,12,0:2:0:0:
444,14,195845,1,0,1:2:0:0:
444,14,195931,1,0,1:2:0:0:
444,14,196016,1,12,0:2:0:0:
479,271,196187,1,0,1:2:0:0:
327,101,196357,1,8,0:2:0:0:
292,358,196528,2,0,P|283:320|276:249,1,84.0000010253906,0|6,1:2|1:2,0:0:0:0:
276,35,196869,5,2,1:2:0:0:
184,309,197039,1,10,0:2:0:0:
187,16,197210,1,2,0:2:0:0:
278,275,197380,1,2,1:2:0:0:
372,16,197550,1,2,1:2:0:0:
158,181,197721,1,10,0:2:0:0:
427,153,197891,1,2,0:2:0:0:
281,380,198062,5,2,1:2:0:0:
327,86,198232,1,2,1:2:0:0:
194,336,198403,1,10,0:2:0:0:
146,42,198573,1,2,0:2:0:0:
295,291,198744,2,0,P|352:291|396:253,1,98.999999697876,2|0,1:2|0:2,0:0:0:0:
67,151,199085,2,0,B|61:290|121:223|111:345,1,197.999999395752,10|2,0:2|1:2,0:0:0:0:
241,63,199596,5,2,1:2:0:0:
194,336,199766,1,10,0:2:0:0:
147,56,199937,1,2,0:2:0:0:
295,291,200107,1,2,1:2:0:0:
342,17,200278,1,2,1:2:0:0:
177,241,200448,1,10,0:2:0:0:
412,88,200619,1,2,0:2:0:0:
441,370,200789,5,2,1:2:0:0:
328,100,200960,1,2,1:2:0:0:
251,364,201130,1,10,0:2:0:0:
477,194,201300,1,2,0:2:0:0:
196,219,201471,2,0,P|168:168|168:98,1,98.999999697876,2|0,1:2|0:2,0:0:0:0:
469,2,201812,2,0,B|429:140|505:81|473:217,1,197.999999395752,10|0,0:2|1:2,0:0:0:0:
441,370,202323,5,0,1:2:0:0:
379,160,202494,2,0,B|288:168|330:223|232:230,1,148.499999546814,10|0,0:2|0:2,0:0:0:0:
213,213,202835,1,2,1:2:0:0:
386,258,203005,1,0,1:2:0:0:
248,125,203175,2,0,P|248:66|259:3,1,98.999999697876,10|0,0:2|0:2,0:0:0:0:
276,310,203516,5,2,1:2:0:0:
276,310,203687,1,0,1:2:0:0:
158,140,203857,2,0,P|169:205|173:322,1,148.499999546814,10|0,0:2|0:2,0:0:0:0:
172,324,204198,2,0,B|85:318|122:274|33:281,1,148.499999546814,2|0,1:2|0:2,0:0:0:0:
6,305,204539,2,0,P|19:243|17:182,1,98.999999697876,10|0,0:2|0:2,0:0:0:0:
20,17,204880,5,6,1:2:0:0:
20,17,205050,1,0,1:2:0:0:
151,192,205221,2,0,P|194:216|260:218,1,98.999999697876,10|0,0:2|0:2,0:0:0:0:
323,9,205562,2,0,P|274:14|231:37,1,98.999999697876,2|0,1:2|0:2,0:0:0:0:
351,264,205903,1,10,0:2:0:0:
430,12,206073,1,2,0:2:0:0:
466,296,206244,5,14,0:2:0:0:
347,86,206414,1,2,1:2:0:0:
266,344,206585,1,10,0:2:0:0:
473,179,206755,1,0,1:2:0:0:
473,179,206840,1,0,1:2:0:0:
473,179,206925,1,10,0:2:0:0:
219,184,207096,1,0,1:2:0:0:
474,325,207266,2,0,B|346:331|421:265|270:271,1,197.999999395752,2|6,1:2|1:2,0:0:0:0:
26,350,207778,5,2,1:2:0:0:
113,86,207948,1,10,0:2:0:0:
189,360,208119,1,2,0:2:0:0:
87,108,208289,1,2,1:2:0:0:
349,193,208460,1,2,1:2:0:0:
64,228,208630,1,10,0:2:0:0:
361,220,208800,1,2,0:2:0:0:
172,15,208971,5,2,1:2:0:0:
256,282,209141,1,2,1:2:0:0:
340,15,209312,1,10,0:2:0:0:
164,237,209482,1,2,0:2:0:0:
410,85,209653,2,0,P|460:77|525:89,1,98.999999697876,2|0,1:2|0:2,0:0:0:0:
379,370,209994,2,0,P|374:290|350:161,1,197.999999395752,10|2,0:2|1:2,0:0:0:0:
172,15,210505,5,2,1:2:0:0:
428,158,210675,1,10,0:2:0:0:
141,113,210846,1,2,0:2:0:0:
446,129,211016,1,2,1:2:0:0:
178,236,211187,1,2,1:2:0:0:
334,5,211357,1,10,0:2:0:0:
411,289,211528,1,2,0:2:0:0:
244,54,211698,5,2,1:2:0:0:
167,338,211869,1,2,1:2:0:0:
358,96,212039,1,10,0:2:0:0:
435,380,212210,1,2,0:2:0:0:
243,173,212380,2,0,P|192:151|135:151,1,98.999999697876,2|0,1:2|0:2,0:0:0:0:
417,19,212721,2,0,P|397:83|388:215,1,197.999999395752,10|0,0:2|1:2,0:0:0:0:
435,380,213232,5,0,1:2:0:0:
279,155,213403,2,0,P|295:210|305:305,1,148.499999546814,10|0,0:2|0:2,0:0:0:0:
305,338,213744,1,2,1:2:0:0:
470,240,213914,1,0,1:2:0:0:
279,155,214085,2,0,P|225:159|181:186,1,98.999999697876,10|0,0:2|0:2,0:0:0:0:
45,333,214425,5,2,1:2:0:0:
45,333,214596,1,0,1:2:0:0:
127,123,214766,2,0,P|156:183|166:270,1,148.499999546814,10|0,0:2|0:2,0:0:0:0:
166,302,215107,2,0,P|228:275|319:271,1,148.499999546814,2|0,1:2|0:2,0:0:0:0:
338,292,215448,2,0,P|389:313|444:316,1,98.999999697876,10|0,0:2|0:2,0:0:0:0:
256,155,215789,5,6,1:2:0:0:
256,155,215960,1,0,1:2:0:0:
366,63,216130,2,0,P|417:41|472:38,1,98.999999697876,10|0,0:2|0:2,0:0:0:0:
256,155,216471,2,0,P|206:149|161:129,1,98.999999697876,2|0,1:2|0:2,0:0:0:0:
431,136,216812,1,10,0:2:0:0:
328,326,216982,1,2,0:2:0:0:
285,79,217153,5,14,0:2:0:0:
413,316,217323,1,2,1:2:0:0:
377,49,217494,1,10,0:2:0:0:
505,286,217664,1,0,1:2:0:0:
505,286,217749,1,0,1:2:0:0:
505,286,217835,1,10,0:2:0:0:
341,181,218005,1,0,1:2:0:0:
507,192,218175,1,2,1:2:0:0:
343,275,218346,1,0,1:0:0:0:
433,20,218516,6,0,P|383:20|339:51,1,98.999999697876,6|0,1:2|1:2,0:0:0:0:
278,330,218857,2,0,P|319:356|367:355,1,98.999999697876,10|0,0:2|0:2,0:0:0:0:
180,138,219198,1,2,1:2:0:0:
133,368,219369,1,2,1:2:0:0:
282,141,219539,2,0,P|323:114|371:115,1,98.999999697876,10|0,0:2|0:2,0:0:0:0:
492,368,219880,5,2,1:2:0:0:
492,368,220050,1,0,1:2:0:0:
310,208,220221,2,0,P|268:181|220:182,1,98.999999697876,10|0,0:2|0:2,0:0:0:0:
19,362,220562,1,2,1:2:0:0:
246,262,220732,1,2,0:2:0:0:
15,176,220903,2,0,P|21:117|32:51,1,98.999999697876,10|0,0:2|0:2,0:0:0:0:
145,324,221244,5,2,1:2:0:0:
145,324,221414,1,0,1:2:0:0:
191,90,221585,2,0,P|230:69|293:65,1,98.999999697876,10|0,0:2|0:2,0:0:0:0:
492,223,221925,1,2,1:2:0:0:
386,16,222096,1,2,1:2:0:0:
350,269,222266,2,0,P|350:329|362:392,1,98.999999697876,10|0,0:2|0:2,0:0:0:0:
496,128,222607,5,2,1:2:0:0:
496,128,222778,1,0,1:2:0:0:
252,196,222948,2,0,P|252:136|264:73,1,98.999999697876,10|0,0:2|0:2,0:0:0:0:
432,294,223289,1,2,1:2:0:0:
157,315,223460,1,2,0:2:0:0:
346,184,223630,1,10,0:2:0:0:
279,378,223800,1,2,0:2:0:0:
173,141,223971,6,0,P|130:104|69:100,1,98.999999697876,2|0,1:2|1:2,0:0:0:0:
339,271,224312,2,0,P|386:260|422:226,1,98.999999697876,10|0,0:2|0:2,0:0:0:0:
265,68,224653,1,2,1:2:0:0:
235,302,224823,1,2,1:2:0:0:
360,86,224994,2,0,P|347:134|346:184,1,98.999999697876,10|0,0:2|0:2,0:0:0:0:
495,369,225335,5,2,1:2:0:0:
495,369,225505,1,0,1:2:0:0:
268,209,225675,2,0,P|214:204|164:234,1,98.999999697876,10|0,0:2|0:2,0:0:0:0:
390,372,226016,1,2,1:2:0:0:
394,95,226187,1,2,0:2:0:0:
286,338,226357,2,0,P|282:279|266:197,1,98.999999697876,10|0,0:2|0:2,0:0:0:0:
193,13,226698,5,6,1:2:0:0:
193,13,226869,1,0,1:2:0:0:
394,95,227039,2,0,P|381:148|378:214,1,98.999999697876,10|0,0:2|0:2,0:0:0:0:
390,372,227380,1,2,1:2:0:0:
241,152,227550,2,0,P|195:126|144:130,1,98.999999697876,2|10,0:2|0:2,0:0:0:0:
23,359,227891,1,2,0:2:0:0:
70,79,228062,5,6,1:2:0:0:
140,364,228232,2,0,P|144:303|153:253,1,98.999999697876,2|10,3:2|0:2,0:0:0:0:
187,26,228573,1,0,3:2:0:0:
187,26,228658,1,0,3:2:0:0:
187,26,228744,1,2,3:2:0:0:
44,235,228914,1,2,3:2:0:0:
247,84,229085,1,2,3:2:0:0:
299,336,229255,1,2,3:2:0:0:
398,61,229425,6,0,P|443:37|508:40,1,98.999999697876,6|0,1:2|1:2,0:0:0:0:
490,312,229766,2,0,P|440:309|397:286,1,98.999999697876,10|0,0:2|0:2,0:0:0:0:
312,24,230107,1,2,1:2:0:0:
466,223,230278,1,2,1:2:0:0:
229,62,230448,2,0,P|217:115|216:192,1,98.999999697876,10|0,0:2|0:2,0:0:0:0:
220,362,230789,5,2,1:2:0:0:
220,362,230960,1,0,1:2:0:0:
397,152,231130,2,0,P|442:127|502:128,1,98.999999697876,10|0,0:2|0:2,0:0:0:0:
327,362,231471,1,2,1:2:0:0:
277,95,231641,1,2,0:2:0:0:
220,362,231812,2,0,P|212:303|199:245,1,98.999999697876,10|0,0:2|0:2,0:0:0:0:
126,53,232153,5,2,1:2:0:0:
126,53,232323,1,0,1:2:0:0:
297,236,232494,2,0,P|343:255|400:255,1,98.999999697876,10|0,0:2|0:2,0:0:0:0:
261,7,232835,1,2,1:2:0:0:
204,264,233005,1,2,1:2:0:0:
367,51,233175,2,0,P|413:32|470:32,1,98.999999697876,10|0,0:2|0:2,0:0:0:0:
301,240,233516,5,2,1:2:0:0:
301,240,233687,1,0,1:2:0:0:
184,23,233857,2,0,P|139:5|90:3,1,98.999999697876,10|0,0:2|0:2,0:0:0:0:
120,287,234198,1,2,1:2:0:0:
296,95,234369,1,2,0:2:0:0:
234,332,234539,1,10,0:2:0:0:
156,95,234710,1,2,0:2:0:0:
379,293,234880,6,0,P|424:311|473:308,1,98.999999697876,2|0,1:2|1:2,0:0:0:0:
474,30,235221,2,0,P|424:27|379:45,1,98.999999697876,10|0,0:2|0:2,0:0:0:0:
170,197,235562,1,2,1:2:0:0:
423,156,235732,1,2,1:2:0:0:
207,0,235903,2,0,P|223:57|231:120,1,98.999999697876,10|0,0:2|0:2,0:0:0:0:
223,352,236244,5,2,1:2:0:0:
223,352,236414,1,0,1:2:0:0:
141,113,236585,2,0,P|94:88|34:88,1,98.999999697876,10|0,0:2|0:2,0:0:0:0:
256,259,236925,1,2,1:2:0:0:
306,16,237096,1,2,0:2:0:0:
126,224,237266,2,0,P|135:276|141:349,1,98.999999697876,10|0,0:2|0:2,0:0:0:0:
200,39,237607,5,6,1:2:0:0:
340,247,237778,1,8,1:2:0:0:
340,247,237863,1,8,0:2:0:0:
340,247,237948,2,0,P|389:247|433:218,1,98.999999697876,10|0,0:2|0:2,0:0:0:0:
141,113,238289,1,2,1:2:0:0:
223,352,238460,2,0,P|229:285|239:231,1,98.999999697876,2|14,0:2|0:2,0:0:0:0:
293,22,238800,1,2,0:2:0:0:
126,224,238971,5,2,1:2:0:0:
362,102,239141,2,0,P|415:103|459:129,1,98.999999697876,2|10,3:2|0:2,0:0:0:0:
328,375,239482,1,0,3:2:0:0:
328,375,239567,1,0,3:2:0:0:
328,375,239653,1,2,3:2:0:0:
153,137,239823,2,0,P|100:138|56:164,1,98.999999697876,2|2,3:2|3:2,0:0:0:0:
193,351,240164,1,2,3:2:0:0:
256,161,240335,6,0,P|248:101|246:11,1,137.999995367432,2|2,0:2|0:2,0:0:0:0:
153,137,240846,1,2,0:2:0:0:
153,136,241016,2,0,P|161:68|163:0,1,137.999995367432,2|2,0:2|0:2,0:0:0:0:
278,157,241528,2,0,P|269:88|267:19,1,137.999995367432,2|2,0:2|0:2,0:0:0:0:
393,191,242039,2,0,B|313:195|366:241|250:243,1,137.999995367432,2|2,0:2|0:2,0:0:0:0:
65,64,242721,1,2,0:2:0:0:
57,334,243062,6,0,B|301:330|147:196|400:190,1,384,2|0,0:0|0:0,0:0:0:0:
