osu file format v14

[General]
AudioFilename: audio.mp3
AudioLeadIn: 0
PreviewTime: 218516
Countdown: 0
SampleSet: Soft
StackLeniency: 0.6
Mode: 0
LetterboxInBreaks: 0
WidescreenStoryboard: 1

[Editor]
Bookmarks: 120335
DistanceSpacing: 1.8
BeatDivisor: 4
GridSize: 4
TimelineZoom: 5.200003

[Metadata]
Title:Dionysus
TitleUnicode:Dionysus
Artist:BTS
ArtistUnicode:방탄소년단
Creator:DeRandom Otaku
Version:Rengoku's Insane
Source:
Tags:map of the soul persona album 起 承 轉 her tear wonder beyond the scene bangtan boys sonyeondan bangtansonyeondan bulletproof boy scouts 슈가 진 제이홉 지민 뷔 정국 jungkook rm j-hope jimin v suga jin hot yoongi k-pop kpop korean pop ren KittyAdventure -_frontier_- frontier gokugohan12468
BeatmapID:2071687
BeatmapSetID:971842

[Difficulty]
HPDrainRate:5
CircleSize:3.6
OverallDifficulty:7.5
ApproachRate:9
SliderMultiplier:1.3
SliderTickRate:1

[Events]
//Background and Video events
0,0,"dionysus.jpg",0,0
//Break Periods
2,188516,190644
//Storyboard Layer 0 (Background)
//Storyboard Layer 1 (Fail)
//Storyboard Layer 2 (Pass)
//Storyboard Layer 3 (Foreground)
//Storyboard Sound Samples

[TimingPoints]
335,340.909090909091,4,2,0,40,1,0
335,-192.307692307692,4,2,0,40,0,0
9880,-138.888888888889,4,2,0,40,0,0
11244,-138.888888888889,4,2,0,50,0,0
16698,-108.695652173913,4,2,0,55,0,0
19425,-108.695652173913,4,2,0,55,0,0
20789,-98.0392156862745,4,2,0,60,0,0
22153,-81.9672131147541,4,2,0,70,0,0
43971,-108.695652173913,4,2,0,55,0,0
54880,-121.951219512195,4,2,0,55,0,0
65789,-81.9672131147541,4,2,0,80,0,1
86925,-81.9672131147541,4,2,0,80,0,0
87607,-81.9672131147541,4,2,0,80,0,1
98516,-98.0392156862745,4,2,0,60,0,0
120335,-108.695652173913,4,2,0,55,0,0
122380,-138.888888888889,4,2,0,55,0,0
123062,-108.695652173913,4,2,0,55,0,0
125107,-138.888888888889,4,2,0,55,0,0
125789,-108.695652173913,4,2,0,55,0,0
131244,-121.951219512195,4,2,0,55,0,0
139425,-111.111111111111,4,2,0,55,0,0
140022,-90.9090909090909,4,2,0,55,0,0
140107,-111.111111111111,4,2,0,55,0,0
140448,-83.3333333333333,4,2,0,55,0,0
140704,-66.6666666666667,4,2,0,55,0,0
140789,-100,4,2,0,55,0,0
141471,-100,4,2,0,55,0,0
142153,-95.2380952380952,4,2,0,80,0,1
163971,-105.263157894737,4,2,0,80,0,0
174198,-86.9565217391304,4,2,0,80,0,0
174454,-86.9565217391304,4,2,0,5,0,0
174539,-105.263157894737,4,2,0,80,0,0
185789,-153.846153846153,4,2,0,80,0,0
193971,-133.333333333333,4,2,0,80,0,0
195335,-76.9230769230769,4,2,0,80,0,0
196698,-90.9090909090909,4,2,0,80,0,1
196869,-90.9090909090909,4,2,0,80,0,1
215533,-66.6666666666667,4,2,0,80,0,1
215619,-90.9090909090909,4,2,0,80,0,1
216386,-90.9090909090909,4,2,0,5,0,1
216471,-90.9090909090909,4,2,0,80,0,1
216727,-90.9090909090909,4,2,0,5,0,1
216812,-90.9090909090909,4,2,0,80,0,1
217067,-90.9090909090909,4,2,0,5,0,1
217153,-76.9230769230769,4,2,0,80,0,0
217323,-90.9090909090909,4,2,0,80,0,0
218516,-86.9565217391304,4,2,0,80,0,1
222948,-83.3333333333333,4,2,0,80,0,1
223289,-86.9565217391304,4,2,0,80,0,1
228062,-80,4,2,0,80,0,1
228744,-76.9230769230769,4,2,0,80,0,1
229425,-86.9565217391304,4,2,0,80,0,1
240335,-133.333333333333,4,2,0,50,0,0
243062,-153.846153846153,4,2,0,25,0,0
243147,-153.846153846153,4,2,0,5,0,0
245789,-153.846153846153,4,2,0,5,0,0

[Colours]
Combo1 : 128,128,255
Combo2 : 255,128,128
Combo3 : 237,193,63
Combo4 : 173,90,90

[HitObjects]
452,65,335,6,0,B|319:34|356:127|217:75,1,236.599998555908,2|2,0:2|0:2,0:0:0:0:
158,10,1698,2,0,P|184:69|160:138,1,135.199999174805,2|0,0:2|0:2,0:0:0:0:
40,342,2891,1,2,0:2:0:0:
40,342,3062,6,0,B|199:289|123:380|279:338,1,236.599998555908,2|2,0:2|0:2,0:0:0:0:
358,356,4425,2,0,P|363:315|375:282,1,67.5999995874023,2|2,0:2|0:2,0:0:0:0:
451,77,5278,2,0,P|415:63|375:62,1,67.5999995874023,2|2,0:2|0:2,0:0:0:0:
326,115,5789,6,0,B|184:120|277:53|93:56,1,236.599998555908,2|2,0:2|0:2,0:0:0:0:
26,115,7153,2,0,P|42:175|39:258,1,135.199999174805,2|0,0:2|0:2,0:0:0:0:
256,366,8346,1,2,0:2:0:0:
256,366,8516,6,0,P|281:335|305:315,1,67.5999995874023,2|2,0:2|0:2,0:0:0:0:
475,159,9369,2,0,P|450:128|426:108,1,67.5999995874023,2|0,0:2|0:2,0:0:0:0:
365,60,9880,6,0,L|317:82,1,46.8000011425781,10|10,0:2|0:2,0:0:0:0:
289,8,10221,2,0,L|241:30,1,46.8000011425781,0|0,1:2|1:2,0:0:0:0:
241,121,10562,2,0,P|192:121|156:88,1,93.6000022851563,2|2,1:2|1:2,0:0:0:0:
105,27,11073,1,2,1:2:0:0:
35,141,11244,6,0,P|51:202|55:247,1,93.6000022851563,6|2,1:2|0:2,0:0:0:0:
256,360,11925,1,2,0:2:0:0:
256,360,12096,2,0,P|262:313|275:268,1,93.6000022851563,2|0,0:2|0:2,0:0:0:0:
329,195,12607,6,0,P|322:148|309:103,1,93.6000022851563,2|2,0:2|0:2,0:0:0:0:
496,13,13289,1,2,0:2:0:0:
496,13,13460,2,0,P|482:57|476:104,1,93.6000022851563,2|0,0:2|0:2,0:0:0:0:
505,194,13971,6,0,P|457:183|402:176,1,93.6000022851563,6|2,1:2|0:2,0:0:0:0:
178,238,14653,1,2,0:2:0:0:
178,238,14823,2,0,P|223:227|269:220,1,93.6000022851563,2|0,0:2|0:2,0:0:0:0:
342,273,15335,6,0,P|350:235|352:174,1,93.6000022851563,2|2,0:2|0:2,0:0:0:0:
227,14,16016,1,2,0:2:0:0:
227,14,16187,2,0,P|178:20|120:22,1,93.6000022851563,2|2,0:2|0:2,0:0:0:0:
42,16,16698,6,0,P|48:77|51:144,1,119.599995985108,6|2,1:2|0:2,0:0:0:0:
123,357,17380,1,2,0:2:0:0:
123,357,17550,2,0,P|125:297|131:237,1,119.599995985108,2|0,0:2|0:2,0:0:0:0:
163,159,18062,6,0,P|220:177|285:178,1,119.599995985108,2|2,0:2|0:2,0:0:0:0:
506,55,18744,2,0,P|494:86|487:128,1,59.7999979925538,10|10,0:2|0:2,0:0:0:0:
497,201,19085,1,10,0:2:0:0:
497,201,19255,1,0,1:2:0:0:
390,119,19425,6,0,P|405:188|412:256,1,119.599995985108,6|2,1:2|3:2,0:0:0:0:
391,322,19880,2,0,P|356:308|325:309,1,39.8666653283692,0|0,3:2|3:2,0:0:0:0:
272,342,20107,2,0,P|250:285|249:223,1,119.599995985108,2|0,3:2|3:2,0:0:0:0:
268,93,20619,1,2,3:2:0:0:
153,164,20789,5,2,3:2:0:0:
121,171,20874,1,0,0:0:0:0:
89,160,20959,1,0,3:2:0:0:
68,136,21044,1,2,3:2:0:0:
63,103,21130,2,0,L|70:53,3,33.1500002023315,0|0|2|0,3:2|3:2|3:2|3:2,0:0:0:0:
150,80,21471,2,0,L|156:29,3,33.1500002023315,2|0|2|2,3:2|3:2|3:2|3:2,0:0:0:0:
236,56,21812,2,0,L|242:5,3,33.1500002023315,2|0|2|0,3:2|3:2|3:2|3:2,0:0:0:0:
294,140,22153,6,0,P|370:140|401:55,2,158.599993465882,6|2|10,1:2|0:2|0:2,0:0:0:0:
39,41,23175,1,2,0:2:0:0:
39,41,23346,1,2,0:2:0:0:
92,124,23516,2,0,P|84:165|84:211,1,79.2999967329408,2|2,1:2|0:2,0:0:0:0:
158,53,23857,1,2,0:2:0:0:
224,124,24028,2,0,P|240:206|240:298,1,158.599993465882,2|2,0:2|0:2,0:0:0:0:
158,370,24539,1,0,0:0:0:0:
158,370,24710,1,2,0:2:0:0:
271,267,24880,6,0,P|317:252|368:252,1,79.2999967329408,2|0,1:2|0:2,0:0:0:0:
495,359,25221,2,0,P|455:355|418:342,1,79.2999967329408,2|0,0:2|0:2,0:0:0:0:
388,173,25562,1,10,0:2:0:0:
393,177,25732,1,2,0:2:0:0:
468,270,25903,1,2,0:2:0:0:
473,274,26073,1,2,0:2:0:0:
484,135,26244,6,0,P|449:94|342:94,1,158.599993465882,2|2,1:2|0:2,0:0:0:0:
197,179,26755,2,0,L|297:176,1,79.2999967329408,2|8,0:2|0:2,0:0:0:0:
393,177,27096,1,10,0:2:0:0:
235,83,27266,1,10,0:2:0:0:
336,238,27437,1,10,0:2:0:0:
357,51,27607,6,0,P|395:20|485:21,1,118.949995099411,2|0,1:2|0:0,0:0:0:0:
493,29,27948,2,0,P|482:75|479:115,1,79.2999967329408,2|0,0:2|0:2,0:0:0:0:
511,300,28289,2,0,B|413:279|449:341|342:316,1,158.599993465882,10|2,0:2|0:2,0:0:0:0:
357,148,28800,2,0,P|372:184|382:223,1,79.2999967329408,2|0,0:2|1:2,0:0:0:0:
445,97,29141,5,2,0:2:0:0:
512,220,29312,1,2,0:2:0:0:
445,97,29482,1,2,0:2:0:0:
382,223,29653,2,0,P|341:231|292:217,1,79.2999967329408,10|0,0:2|0:0,0:0:0:0:
177,71,29994,2,0,B|277:37|233:102|335:69,1,158.599993465882,2|0,0:2|1:2,0:0:0:0:
219,150,30505,5,2,1:2:0:0:
219,150,30675,2,0,L|228:243,1,79.2999967329408,2|2,0:2|0:2,0:0:0:0:
94,102,31016,2,0,L|101:23,1,79.2999967329408,10|2,0:2|0:2,0:0:0:0:
139,207,31357,1,2,1:2:0:0:
139,207,31528,1,2,1:2:0:0:
219,51,31698,5,14,1:2:0:0:
226,228,31869,1,2,0:2:0:0:
302,85,32039,1,10,0:2:0:0:
309,262,32210,1,2,0:2:0:0:
385,119,32380,2,0,P|423:102|469:100,1,79.2999967329408,10|8,0:2|0:2,0:0:0:0:
499,128,32636,1,8,0:2:0:0:
499,128,32721,1,10,0:2:0:0:
369,25,32891,2,0,P|331:8|285:6,1,79.2999967329408,8|0,0:2|1:2,0:0:0:0:
141,120,33232,5,2,0:2:0:0:
141,120,33403,2,0,L|219:112,1,79.2999967329408,2|2,0:2|0:2,0:0:0:0:
135,202,33744,1,10,0:2:0:0:
135,202,33915,2,0,L|213:194,1,79.2999967329408,2|2,0:2|0:2,0:0:0:0:
129,284,34254,1,2,0:2:0:0:
129,284,34425,6,0,L|207:276,1,79.2999967329408,2|2,1:2|0:2,0:0:0:0:
219,111,34766,2,0,L|141:119,1,79.2999967329408,2|2,0:2|0:2,0:0:0:0:
316,175,35107,2,0,P|336:99|295:25,2,158.599993465882,10|2|0,0:2|0:2|1:2,0:0:0:0:
252,298,35960,5,2,0:2:0:0:
252,298,36045,1,2,0:2:0:0:
252,298,36130,2,0,P|292:287|342:287,1,79.2999967329408,2|2,0:2|0:2,0:0:0:0:
492,219,36471,2,0,P|452:217|414:206,1,79.2999967329408,10|2,0:2|0:2,0:0:0:0:
289,145,36812,1,2,0:2:0:0:
416,115,36982,1,2,0:2:0:0:
284,45,37153,6,0,L|195:50,1,79.2999967329408,2|2,1:2|0:2,0:0:0:0:
46,135,37494,1,2,0:2:0:0:
114,15,37664,1,2,0:2:0:0:
140,167,37835,2,0,L|131:254,1,79.2999967329408,10|8,0:2|0:2,0:0:0:0:
292,123,38175,2,0,L|283:44,1,79.2999967329408,10|8,0:2|0:2,0:0:0:0:
247,259,38516,6,0,P|316:299|412:285,1,158.599993465882,2|2,1:2|0:2,0:0:0:0:
503,210,39028,2,0,P|455:195|405:195,1,79.2999967329408,2|8,0:2|0:2,0:0:0:0:
296,327,39369,1,2,0:2:0:0:
445,290,39539,2,0,P|459:342|460:379,1,79.2999967329408,2|2,0:2|0:2,0:0:0:0:
336,212,39880,5,2,1:2:0:0:
336,212,40050,1,2,0:2:0:0:
503,210,40221,1,2,0:2:0:0:
396,132,40391,2,0,P|356:116|308:116,1,79.2999967329408,2|8,0:2|0:2,0:0:0:0:
207,171,40732,1,2,0:2:0:0:
246,67,40903,1,2,0:2:0:0:
291,211,41073,1,2,0:2:0:0:
164,94,41244,6,0,B|126:83|126:83|76:95,1,79.2999967329408,6|2,1:2|1:2,0:0:0:0:
16,220,41585,1,2,0:2:0:0:
124,168,41755,2,0,P|117:228|110:339,1,158.599993465882,2|2,1:2|0:2,0:0:0:0:
16,220,42266,1,2,1:2:0:0:
85,351,42437,1,2,1:2:0:0:
124,168,42607,5,10,0:2:0:0:
198,309,42778,1,2,0:2:0:0:
332,227,42948,1,10,0:2:0:0:
258,368,43119,1,2,0:2:0:0:
237,190,43289,2,0,L|245:102,1,79.2999967329408,8|8,0:2|0:2,0:0:0:0:
263,80,43545,1,8,0:2:0:0:
263,80,43630,1,10,0:2:0:0:
332,227,43800,1,8,0:2:0:0:
371,50,43971,6,0,P|403:42|432:41,1,59.7999979925538,2|2,0:2|0:2,0:0:0:0:
443,124,44312,2,0,P|411:132|382:133,1,59.7999979925538,2|2,0:2|0:2,0:0:0:0:
305,103,44653,2,0,P|275:104|246:112,1,59.7999979925538,2|2,0:2|0:2,0:0:0:0:
196,179,44994,2,0,P|166:177|137:169,1,59.7999979925538,2|2,0:2|0:2,0:0:0:0:
80,108,45335,2,0,P|98:175|101:308,1,179.399993977661,2|2,0:2|0:2,0:0:0:0:
51,349,46016,2,0,P|115:327|172:348,1,119.599995985108,2|2,0:2|0:2,0:0:0:0:
328,368,46698,6,0,P|334:328|335:302,1,59.7999979925538,2|2,0:2|0:2,0:0:0:0:
275,249,47039,2,0,P|269:209|268:183,1,59.7999979925538,2|2,0:2|0:2,0:0:0:0:
327,130,47380,2,0,P|333:90|334:64,1,59.7999979925538,2|2,0:2|0:2,0:0:0:0:
277,8,47721,2,0,P|238:7|195:22,1,59.7999979925538,2|2,0:2|0:2,0:0:0:0:
183,88,48062,2,0,B|72:93|141:42|5:44,1,179.399993977661,2|2,0:2|0:2,0:0:0:0:
21,127,48744,2,0,P|20:201|13:272,1,119.599995985108,2|2,0:2|0:2,0:0:0:0:
163,325,49425,5,2,0:2:0:0:
163,325,49596,2,0,P|200:313|239:311,1,59.7999979925538,2|0,0:2|0:2,0:0:0:0:
290,357,49937,1,2,0:2:0:0:
290,357,50108,2,0,P|327:369|366:371,1,59.7999979925538,2|0,0:2|0:2,0:0:0:0:
424,338,50448,2,0,P|419:308|409:280,1,59.7999979925538,2|2,0:2|0:2,0:0:0:0:
346,224,50789,5,2,0:2:0:0:
346,224,50960,2,0,L|350:150,1,59.7999979925538,2|0,0:2|0:2,0:0:0:0:
265,160,51300,1,2,0:2:0:0:
265,160,51471,2,0,L|261:219,1,59.7999979925538,2|0,0:2|0:2,0:0:0:0:
176,214,51812,2,0,L|180:155,1,59.7999979925538,2|2,0:2|0:2,0:0:0:0:
154,74,52153,6,0,P|99:49|26:50,1,119.599995985108,2|2,0:2|0:2,0:0:0:0:
21,213,52835,2,0,P|76:238|149:237,1,119.599995985108,2|2,0:2|0:2,0:0:0:0:
208,200,53346,1,0,0:0:0:0:
208,200,53516,6,0,L|285:204,1,59.7999979925538,10|10,0:2|0:2,0:0:0:0:
352,150,53857,1,10,1:2:0:0:
352,150,54028,1,8,1:2:0:0:
392,237,54198,1,2,1:2:0:0:
392,237,54369,1,0,1:2:0:0:
453,167,54539,2,0,L|445:96,1,59.7999979925538,2|2,1:2|1:2,0:0:0:0:
401,28,54880,6,0,B|248:-2|329:78|181:45,1,213.200003253174,2|0,1:2|1:2,0:0:0:0:
17,11,55903,2,0,P|4:46|3:78,1,53.3000008132935,2|2,0:2|0:2,0:0:0:0:
40,144,56244,2,0,L|34:262,1,106.600001626587,2|2,1:2|0:2,0:0:0:0:
163,377,56925,2,0,L|168:270,1,106.600001626587,2|2,1:2|0:2,0:0:0:0:
141,90,57607,6,0,B|282:56|220:139|360:114,1,213.200003253174,2|2,1:2|1:2,0:0:0:0:
499,20,58630,2,0,P|489:60|486:91,1,53.3000008132935,2|2,0:2|0:2,0:0:0:0:
499,162,58971,2,0,P|456:148|385:146,1,106.600001626587,2|2,1:2|0:2,0:0:0:0:
299,299,59653,2,0,P|256:313|185:315,1,106.600001626587,2|2,1:2|0:2,0:0:0:0:
112,278,60164,1,2,0:2:0:0:
187,227,60335,6,0,P|220:163|218:21,1,213.200003253174,2|0,1:2|1:2,0:0:0:0:
38,5,61357,2,0,P|42:41|42:78,1,53.3000008132935,2|2,0:2|0:2,0:0:0:0:
8,142,61698,2,0,L|14:253,1,106.600001626587,2|2,1:2|0:2,0:0:0:0:
147,125,62380,2,0,L|153:236,1,106.600001626587,2|2,1:2|0:2,0:0:0:0:
273,367,63062,5,6,3:2:0:0:
273,367,63403,2,0,P|305:359|337:357,1,53.3000008132935,2|0,3:2|0:2,0:0:0:0:
362,368,63658,1,0,3:2:0:0:
362,368,63744,1,2,3:2:0:0:
490,133,64085,2,0,P|458:141|426:143,1,53.3000008132935,2|0,3:2|0:2,0:0:0:0:
401,132,64340,1,0,3:2:0:0:
401,132,64425,6,0,P|375:127|357:123,3,26.6500004066467,2|2|0|0,3:2|3:2|3:2|3:2,0:0:0:0:
337,135,64766,2,0,P|311:130|293:126,3,26.6500004066467,2|2|0|0,3:2|3:2|3:2|3:2,0:0:0:0:
260,65,65107,1,2,3:2:0:0:
233,66,65192,1,0,3:2:0:0:
206,68,65277,1,0,3:2:0:0:
180,69,65362,1,0,3:2:0:0:
153,71,65448,2,0,P|139:73|126:76,3,26.6500004066467,2|0|0|0,3:2|3:2|3:2|3:2,0:0:0:0:
66,134,65789,5,6,1:2:0:0:
34,18,65960,1,2,0:2:0:0:
151,159,66130,2,0,L|141:251,1,79.2999967329408,2|2,0:2|0:2,0:0:0:0:
30,326,66471,2,0,L|21:247,1,79.2999967329408,10|2,0:2|0:2,0:0:0:0:
173,155,66812,2,0,L|163:247,1,79.2999967329408,2|2,0:2|0:2,0:0:0:0:
239,361,67153,5,2,1:2:0:0:
290,217,67323,1,2,0:2:0:0:
341,361,67494,1,2,0:2:0:0:
290,217,67664,1,2,0:2:0:0:
239,361,67835,2,0,P|188:360|150:340,1,79.2999967329408,10|0,0:2|0:2,0:0:0:0:
290,217,68175,2,0,B|387:183|354:248|474:219,1,158.599993465882,2|2,0:2|1:2,0:0:0:0:
419,122,68687,5,2,0:2:0:0:
337,289,68857,2,0,L|344:386,1,79.2999967329408,2|2,0:2|0:2,0:0:0:0:
490,299,69198,2,0,L|484:219,1,79.2999967329408,10|2,0:2|0:2,0:0:0:0:
316,298,69539,2,0,L|323:395,1,79.2999967329408,2|2,0:2|0:2,0:0:0:0:
305,173,69880,5,2,1:2:0:0:
213,282,70050,1,2,0:2:0:0:
316,194,70221,1,2,0:2:0:0:
224,303,70391,1,2,0:2:0:0:
192,143,70562,2,0,L|199:56,1,79.2999967329408,10|8,0:2|0:2,0:0:0:0:
316,194,70903,2,0,L|323:107,1,79.2999967329408,10|8,0:2|0:2,0:0:0:0:
213,282,71244,6,0,B|118:280|175:230|57:230,2,158.599993465882,6|2|10,1:2|0:2|0:2,0:0:0:0:
401,242,72266,2,0,P|404:196|412:133,1,79.2999967329408,2|0,0:2|0:2,0:0:0:0:
423,339,72607,1,2,1:2:0:0:
423,339,72948,2,0,B|322:345|376:292|255:298,1,158.599993465882,2|10,0:2|0:2,0:0:0:0:
53,364,73630,2,0,P|42:326|42:270,1,79.2999967329408,2|0,0:2|0:2,0:0:0:0:
68,117,73971,5,6,1:2:0:0:
68,117,74141,1,0,1:2:0:0:
141,232,74312,2,0,P|149:188|167:142,1,79.2999967329408,2|0,0:2|1:2,0:0:0:0:
226,25,74653,2,0,P|238:62|245:101,1,79.2999967329408,10|0,0:2|0:2,0:0:0:0:
262,228,74994,1,2,1:2:0:0:
339,115,75164,1,2,1:2:0:0:
360,273,75335,5,10,0:2:0:0:
257,140,75505,1,2,0:2:0:0:
422,183,75675,2,0,L|509:169,1,79.2999967329408,10|0,0:2|0:2,0:0:0:0:
360,273,76016,1,10,0:2:0:0:
416,78,76187,1,8,0:2:0:0:
416,78,76272,1,8,0:2:0:0:
416,78,76357,2,0,L|408:-6,1,79.2999967329408,10|8,0:2|0:2,0:0:0:0:
422,183,76698,5,6,1:2:0:0:
321,51,76869,1,2,0:2:0:0:
295,208,77039,2,0,L|304:301,1,79.2999967329408,2|2,0:2|0:2,0:0:0:0:
443,353,77380,2,0,L|435:274,1,79.2999967329408,10|2,0:2|0:2,0:0:0:0:
266,196,77721,2,0,L|275:289,1,79.2999967329408,2|2,0:2|0:2,0:0:0:0:
422,183,78062,5,2,1:2:0:0:
321,51,78232,1,2,0:2:0:0:
355,245,78403,1,2,0:2:0:0:
254,113,78573,1,2,0:2:0:0:
422,183,78744,2,0,P|422:136|433:83,1,79.2999967329408,10|0,0:2|0:2,0:0:0:0:
212,37,79085,2,0,P|224:125|223:215,1,158.599993465882,2|0,0:2|1:2,0:0:0:0:
192,356,79596,5,2,0:2:0:0:
302,230,79766,2,0,L|402:245,1,79.2999967329408,2|2,0:2|0:2,0:0:0:0:
167,269,80107,2,0,L|88:257,1,79.2999967329408,10|2,0:2|0:2,0:0:0:0:
305,257,80448,2,0,L|405:272,1,79.2999967329408,2|2,0:2|0:2,0:0:0:0:
144,175,80789,5,2,1:2:0:0:
192,356,80960,1,2,0:2:0:0:
120,176,81130,1,2,0:2:0:0:
168,357,81301,1,2,0:2:0:0:
225,194,81471,2,0,P|260:176|320:177,1,79.2999967329408,10|8,0:2|0:2,0:0:0:0:
90,285,81812,2,0,P|55:303|-5:302,1,79.2999967329408,10|8,0:2|0:2,0:0:0:0:
187,118,82153,6,0,P|192:197|192:276,2,158.599993465882,6|2|10,1:2|0:2|0:2,0:0:0:0:
397,17,83175,2,0,P|390:71|388:120,1,79.2999967329408,2|0,0:2|0:2,0:0:0:0:
389,207,83516,1,2,1:2:0:0:
389,207,83857,2,0,P|451:175|489:239,1,158.599993465882,2|10,0:2|0:2,0:0:0:0:
264,367,84539,2,0,P|254:322|252:282,1,79.2999967329408,2|0,0:2|0:2,0:0:0:0:
279,176,84880,6,0,P|240:157|197:159,1,79.2999967329408,12|0,0:2|3:2,0:0:0:0:
91,248,85221,1,2,1:2:0:0:
122,110,85391,1,8,0:2:0:0:
117,267,85562,2,0,L|107:359,1,79.2999967329408,8|0,0:2|1:2,0:0:0:0:
42,176,85903,1,10,0:2:0:0:
204,157,86073,1,2,0:2:0:0:
24,306,86244,5,2,1:2:0:0:
186,287,86414,1,10,0:2:0:0:
42,175,86585,2,0,L|49:80,1,79.2999967329408,2|0,0:2|1:2,0:0:0:0:
206,118,86925,2,0,L|203:157,3,39.6499983664704,2|0|0|0,3:2|3:2|3:2|3:2,0:0:0:0:
233,182,87266,2,0,L|230:221,3,39.6499983664704,2|0|0|0,3:2|3:2|3:2|3:2,0:0:0:0:
260,246,87607,6,0,P|307:227|361:227,1,79.2999967329408,6|0,1:2|0:2,0:0:0:0:
489,340,87948,2,0,P|449:334|413:318,1,79.2999967329408,2|0,0:2|0:2,0:0:0:0:
474,98,88289,1,10,0:2:0:0:
474,98,88460,2,0,B|468:168|468:168|475:185|475:185|467:281,1,158.599993465882,2|0,0:2|0:2,0:0:0:0:
402,53,88971,6,0,P|434:21|481:12,1,79.2999967329408,2|0,1:2|0:2,0:0:0:0:
372,218,89312,2,0,P|340:250|293:259,1,79.2999967329408,2|0,0:2|0:2,0:0:0:0:
147,150,89653,1,10,0:2:0:0:
147,150,89823,2,0,B|249:131|212:192|303:176,1,158.599993465882,2|0,0:2|0:2,0:0:0:0:
183,314,90335,6,0,P|177:272|182:218,1,79.2999967329408,2|0,1:2|0:2,0:0:0:0:
301,98,90675,2,0,P|302:137|296:176,1,79.2999967329408,2|0,0:2|0:2,0:0:0:0:
153,49,91016,1,10,0:2:0:0:
153,49,91187,2,0,P|218:22|299:57,1,158.599993465882,2|0,0:2|0:2,0:0:0:0:
147,150,91698,6,0,L|65:138,1,79.2999967329408,2|0,1:2|0:2,0:0:0:0:
296,176,92039,2,0,L|374:164,1,79.2999967329408,2|0,0:2|0:2,0:0:0:0:
490,29,92380,1,10,0:2:0:0:
490,29,92550,1,8,0:2:0:0:
468,196,92721,1,10,0:2:0:0:
468,196,92891,1,10,0:2:0:0:
354,30,93062,6,0,L|275:41,1,79.2999967329408,6|0,1:2|0:2,0:0:0:0:
217,164,93403,2,0,L|295:175,1,79.2999967329408,2|0,0:2|0:2,0:0:0:0:
145,53,93744,1,10,0:2:0:0:
145,53,93914,2,0,B|116:97|116:97|125:215,1,158.599993465882,2|0,0:2|0:2,0:0:0:0:
131,366,94425,6,0,P|109:331|72:302,1,79.2999967329408,2|0,1:2|0:2,0:0:0:0:
295,175,94766,2,0,P|265:200|244:234,1,79.2999967329408,2|0,0:2|0:2,0:0:0:0:
345,364,95107,1,10,0:2:0:0:
345,364,95278,2,0,P|383:323|492:309,1,158.599993465882,2|0,0:2|0:2,0:0:0:0:
328,258,95789,5,2,1:2:0:0:
328,258,95960,1,0,1:2:0:0:
483,133,96130,2,0,P|474:188|474:233,1,79.2999967329408,2|0,0:2|0:2,0:0:0:0:
376,56,96471,1,10,0:2:0:0:
376,56,96641,2,0,P|336:20|226:22,1,158.599993465882,2|2,0:2|1:2,0:0:0:0:
180,171,97153,5,14,0:2:0:0:
284,100,97323,2,0,P|274:161|272:213,1,79.2999967329408,2|8,0:2|0:2,0:0:0:0:
194,24,97664,1,2,0:2:0:0:
253,210,97835,1,10,0:2:0:0:
123,92,98005,1,10,0:2:0:0:
123,92,98090,1,8,0:2:0:0:
123,92,98175,2,0,L|23:95,1,79.2999967329408,10|10,0:2|0:2,0:0:0:0:
284,100,98516,6,0,L|402:113,1,88.4000005395508,6|0,0:2|0:2,0:0:0:0:
433,184,98857,2,0,L|345:193,1,88.4000005395508,2|0,0:2|0:2,0:0:0:0:
284,268,99198,2,0,L|351:275,1,66.3000004046631,10|0,0:2|0:2,0:0:0:0:
433,352,99539,2,0,L|357:360,1,66.3000004046631,2|0,0:2|0:2,0:0:0:0:
495,256,99880,1,2,0:2:0:0:
177,188,100562,1,10,0:2:0:0:
177,188,100903,2,0,P|133:166|74:166,1,88.4000005395508,2|2,0:2|0:2,0:0:0:0:
31,229,101244,6,0,P|39:279|39:328,1,88.4000005395508,2|0,0:2|0:2,0:0:0:0:
120,373,101585,2,0,P|121:328|128:285,1,88.4000005395508,2|0,0:2|0:2,0:0:0:0:
209,229,101925,2,0,P|210:273|217:316,1,88.4000005395508,10|0,0:2|0:2,0:0:0:0:
298,373,102266,2,0,P|299:332|305:292,1,66.3000004046631,2|0,0:2|0:2,0:0:0:0:
342,108,102607,1,2,0:2:0:0:
390,349,103289,2,0,P|428:337|472:338,1,66.3000004046631,10|8,0:2|0:2,0:0:0:0:
302,307,103630,2,0,P|264:319|220:318,1,66.3000004046631,10|8,0:2|0:2,0:0:0:0:
373,231,103971,5,2,0:2:0:0:
373,231,104141,1,2,0:2:0:0:
242,181,104312,2,0,P|204:169|160:170,1,66.3000004046631,2|0,0:2|0:2,0:0:0:0:
73,250,104653,1,10,0:2:0:0:
73,250,104823,1,2,0:2:0:0:
159,355,104994,2,0,P|156:321|149:289,1,66.3000004046631,2|2,0:2|0:2,0:0:0:0:
87,124,105335,6,0,P|122:86|206:90,1,132.600000809326,2|2,0:2|0:2,0:0:0:0:
463,249,106016,2,0,P|445:197|444:104,1,132.600000809326,10|2,0:2|0:2,0:0:0:0:
384,343,106698,6,0,P|346:333|295:331,1,66.3000004046631,2|0,1:2|1:2,0:0:0:0:
208,368,107039,1,2,0:2:0:0:
208,368,107210,1,0,1:2:0:0:
245,258,107380,2,0,P|245:212|239:137,1,88.4000005395508,10|2,0:2|0:2,0:0:0:0:
229,137,107721,2,0,P|263:123|309:117,1,66.3000004046631,2|2,1:2|0:2,0:0:0:0:
489,186,108062,5,10,0:2:0:0:
485,208,108403,1,10,0:2:0:0:
481,230,108744,1,10,0:2:0:0:
402,131,108914,1,8,0:2:0:0:
402,131,108999,1,8,0:2:0:0:
402,131,109085,1,10,0:2:0:0:
390,274,109255,1,8,0:2:0:0:
291,117,109425,6,0,P|302:178|309:276,1,132.600000809326,6|2,1:2|0:2,0:0:0:0:
259,358,109937,1,2,0:2:0:0:
213,262,110107,1,10,0:2:0:0:
213,262,110448,2,0,P|174:248|125:247,1,66.3000004046631,2|0,0:2|0:2,0:0:0:0:
41,280,110789,5,2,1:2:0:0:
308,248,111130,1,2,0:2:0:0:
36,260,111471,1,10,0:2:0:0:
303,228,111812,1,2,0:2:0:0:
35,78,112153,6,0,B|125:67|74:124|181:116,1,132.600000809326,2|2,1:2|0:2,0:0:0:0:
266,65,112664,1,2,0:2:0:0:
159,37,112835,1,10,0:2:0:0:
159,37,113175,2,0,P|165:76|169:107,1,66.3000004046631,2|0,0:2|0:2,0:0:0:0:
160,208,113516,5,2,1:2:0:0:
435,111,113857,1,2,0:2:0:0:
161,228,114198,2,0,P|174:278|180:322,1,66.3000004046631,10|8,0:2|0:2,0:0:0:0:
283,208,114539,2,0,P|270:258|264:302,1,66.3000004046631,10|8,0:2|0:2,0:0:0:0:
204,115,114880,6,0,P|168:90|82:89,1,132.600000809326,2|2,1:2|0:2,0:0:0:0:
17,232,115391,1,2,0:2:0:0:
124,169,115562,2,0,P|112:220|107:262,1,66.3000004046631,10|2,0:2|0:2,0:0:0:0:
51,98,115903,1,2,0:2:0:0:
17,232,116073,1,2,0:2:0:0:
81,89,116244,5,2,1:2:0:0:
144,371,116585,1,2,0:2:0:0:
104,87,116925,1,10,0:2:0:0:
167,369,117266,1,2,0:2:0:0:
274,100,117607,6,0,P|306:87|344:86,1,66.3000004046631,2|0,1:2|1:2,0:0:0:0:
431,138,117948,1,2,0:2:0:0:
431,138,118119,1,2,1:2:0:0:
417,24,118289,1,10,0:2:0:0:
326,328,118630,2,0,L|317:249,1,66.3000004046631,2|0,1:2|1:2,0:0:0:0:
300,160,118971,5,10,0:2:0:0:
503,371,119312,1,8,0:2:0:0:
298,139,119653,2,0,L|226:151,1,66.3000004046631,10|8,0:2|0:2,0:0:0:0:
202,173,119908,1,8,0:2:0:0:
202,173,119994,1,8,0:2:0:0:
256,42,120164,1,8,0:2:0:0:
160,84,120335,6,0,L|95:73,1,59.7999979925538,2|2,0:2|0:2,0:0:0:0:
104,164,120675,2,0,L|39:153,1,59.7999979925538,2|2,0:2|0:2,0:0:0:0:
202,173,121016,2,0,L|267:162,1,59.7999979925538,2|2,0:2|0:2,0:0:0:0:
258,253,121357,2,0,L|323:242,1,59.7999979925538,2|2,0:2|0:2,0:0:0:0:
399,183,121698,6,0,B|352:224|352:224|363:346,1,179.399993977661,2|2,0:2|0:2,0:0:0:0:
453,354,122380,2,0,L|444:261,1,93.6000022851563,2|2,0:2|0:2,0:0:0:0:
258,253,123062,6,0,L|263:312,1,59.7999979925538,2|2,0:2|0:2,0:0:0:0:
176,359,123403,2,0,L|170:299,1,59.7999979925538,2|2,0:2|0:2,0:0:0:0:
252,193,123744,2,0,L|257:252,1,59.7999979925538,2|2,0:2|0:2,0:0:0:0:
170,299,124085,2,0,L|164:239,1,59.7999979925538,2|2,0:2|0:2,0:0:0:0:
170,150,124425,6,0,P|214:111|324:141,1,179.399993977661,2|2,0:2|0:2,0:0:0:0:
348,222,125107,2,0,L|446:215,1,93.6000022851563,2|2,0:2|0:2,0:0:0:0:
458,190,125789,5,2,0:2:0:0:
512,300,125960,2,0,L|443:303,1,59.7999979925538,2|0,0:2|0:2,0:0:0:0:
458,190,126300,5,2,0:2:0:0:
383,373,126471,2,0,L|314:376,1,59.7999979925538,2|0,0:2|0:2,0:0:0:0:
255,301,126812,1,2,0:2:0:0:
306,208,126982,1,2,0:2:0:0:
255,301,127153,5,2,0:2:0:0:
226,149,127323,2,0,L|166:156,1,59.7999979925538,2|0,0:2|0:2,0:0:0:0:
306,208,127664,5,2,0:2:0:0:
337,61,127835,2,0,L|277:54,1,59.7999979925538,2|0,0:2|0:2,0:0:0:0:
449,136,128175,2,0,L|389:143,1,59.7999979925538,2|2,0:2|0:2,0:0:0:0:
285,289,128516,5,2,0:2:0:0:
306,208,128857,1,2,0:2:0:0:
387,229,129198,1,2,0:2:0:0:
365,310,129539,1,2,0:2:0:0:
374,326,129880,5,10,0:2:0:0:
403,219,130050,1,10,0:2:0:0:
296,191,130221,1,10,1:2:0:0:
268,298,130391,1,8,1:2:0:0:
285,289,130562,5,2,1:2:0:0:
306,208,130732,1,0,1:2:0:0:
387,229,130903,1,2,1:2:0:0:
365,310,131073,1,2,1:2:0:0:
374,326,131244,6,0,P|280:372|194:322,1,213.200003253174,2|0,1:2|1:2,0:0:0:0:
122,199,132266,2,0,L|56:203,1,53.3000008132935,2|2,0:2|0:2,0:0:0:0:
6,135,132607,6,0,P|59:94|109:97,1,106.600001626587,2|2,1:2|0:2,0:0:0:0:
208,27,133289,2,0,L|200:148,1,106.600001626587,2|2,1:2|0:2,0:0:0:0:
360,212,133971,6,0,P|344:165|194:137,1,213.200003253174,2|2,1:2|1:2,0:0:0:0:
260,294,134994,2,0,L|321:286,1,53.3000008132935,2|2,0:2|0:2,0:0:0:0:
360,212,135335,2,0,L|466:225,2,106.600001626587,2|2|2,1:2|0:2|1:2,0:0:0:0:
253,19,136357,1,2,0:2:0:0:
212,102,136528,1,2,0:2:0:0:
278,165,136698,6,0,B|251:210|251:210|257:251|288:269|328:257|328:257|360:212,1,213.200003253174,2|0,1:2|1:2,0:0:0:0:
397,338,137721,2,0,P|367:338|339:349,1,53.3000008132935,2|2,0:2|0:2,0:0:0:0:
261,377,138062,2,0,P|235:351|157:344,1,106.600001626587,2|2,1:2|0:2,0:0:0:0:
6,384,138744,2,0,P|48:352|63:302,1,106.600001626587,2|2,1:2|0:2,0:0:0:0:
145,199,139425,6,0,P|112:203|85:206,1,58.4999982147217,6|0,3:2|0:0,0:0:0:0:
205,55,139766,2,0,P|175:51|146:48,1,58.4999982147217,2|0,3:2|0:2,0:0:0:0:
146,48,140022,2,0,L|143:88,3,35.7500010910034,0|2|0|0,3:2|3:2|0:0|0:0,0:0:0:0:
340,154,140448,6,0,P|301:159|263:164,1,77.999997619629,2|0,3:2|0:2,0:0:0:0:
262,164,140704,2,0,L|269:214,3,48.750001859665,0|2|2|0,3:2|3:2|3:2|3:2,0:0:0:0:
173,371,141130,5,2,3:2:0:0:
195,358,141215,1,2,3:2:0:0:
217,370,141300,1,0,3:2:0:0:
241,360,141386,1,0,3:2:0:0:
241,360,141471,6,0,L|278:356,3,32.5,2|0|0|0,3:2|3:2|3:2|3:2,0:0:0:0:
355,345,141812,2,0,L|392:341,3,32.5,2|0|0|0,3:2|3:2|3:2|3:2,0:0:0:0:
485,330,142153,5,6,1:2:0:0:
416,175,142323,1,2,0:2:0:0:
387,341,142494,1,2,0:2:0:0:
511,223,142664,1,2,0:2:0:0:
336,250,142835,2,0,L|266:260,1,68.2499979171754,10|2,0:2|0:2,0:0:0:0:
417,339,143175,2,0,L|484:329,1,68.2499979171754,2|2,0:2|0:2,0:0:0:0:
512,223,143516,5,2,1:2:0:0:
416,175,143687,1,2,0:2:0:0:
336,250,143857,2,0,L|266:260,1,68.2499979171754,2|2,0:2|0:2,0:0:0:0:
416,175,144198,2,0,L|442:109,1,68.2499979171754,10|0,0:2|0:2,0:0:0:0:
442,276,144539,2,0,L|484:329,1,68.2499979171754,2|0,0:2|0:0,0:0:0:0:
336,250,144880,5,2,1:2:0:0:
416,175,145050,1,2,0:2:0:0:
442,276,145221,1,2,0:2:0:0:
315,150,145391,1,2,0:2:0:0:
270,335,145562,2,0,L|174:324,1,68.2499979171754,10|2,0:2|0:2,0:0:0:0:
336,250,145903,2,0,L|240:239,1,68.2499979171754,2|2,0:2|0:2,0:0:0:0:
109,270,146244,6,0,L|104:338,1,68.2499979171754,2|2,1:2|0:2,0:0:0:0:
80,165,146585,2,0,L|84:96,1,68.2499979171754,2|2,0:2|0:2,0:0:0:0:
122,251,146925,2,0,L|117:319,1,68.2499979171754,10|8,0:2|0:2,0:0:0:0:
61,173,147266,2,0,L|65:104,1,68.2499979171754,10|8,0:2|0:2,0:0:0:0:
0,249,147607,6,0,P|60:222|121:249,1,136.499995834351,6|2,1:2|0:2,0:0:0:0:
210,170,148289,2,0,P|147:189|121:250,1,136.499995834351,10|2,0:2|0:2,0:0:0:0:
131,339,148800,1,0,0:2:0:0:
131,339,148971,5,2,1:2:0:0:
300,360,149312,2,0,L|295:224,2,136.499995834351,2|10|2,0:2|0:2|0:2,0:0:0:0:
391,362,150164,1,0,0:2:0:0:
210,325,150335,5,6,1:2:0:0:
210,325,150505,2,0,L|206:253,2,68.2499979171754,0|2|0,1:2|0:2|1:2,0:0:0:0:
301,359,151016,2,0,L|294:223,1,136.499995834351,10|2,0:2|1:2,0:0:0:0:
206,256,151528,1,0,0:0:0:0:
106,177,151698,5,10,0:2:0:0:
389,178,152039,1,10,0:2:0:0:
166,42,152380,1,10,0:2:0:0:
331,102,152550,2,0,L|327:61,2,34.1249989585877,8|8|10,0:2|0:2|0:2,0:0:0:0:
178,131,152891,1,8,0:2:0:0:
363,191,153062,5,6,1:2:0:0:
257,90,153232,1,2,0:2:0:0:
281,247,153403,2,0,B|286:321,1,68.2499979171754,2|2,0:2|0:2,0:0:0:0:
257,90,153744,5,10,0:2:0:0:
173,62,153914,1,2,0:2:0:0:
197,219,154085,2,0,B|202:293,1,68.2499979171754,2|2,0:2|0:2,0:0:0:0:
173,62,154425,5,2,1:2:0:0:
89,34,154595,1,2,0:2:0:0:
113,191,154766,2,0,B|118:265,1,68.2499979171754,2|2,0:2|0:2,0:0:0:0:
94,103,155107,2,0,B|89:34,1,68.2499979171754,10|0,0:2|0:2,0:0:0:0:
197,219,155448,2,0,B|202:293,1,68.2499979171754,2|0,0:2|0:0,0:0:0:0:
178,131,155789,5,0,1:2:0:0:
113,191,155960,1,2,0:2:0:0:
173,43,156130,1,2,0:2:0:0:
265,155,156300,1,2,0:2:0:0:
94,103,156471,5,10,0:2:0:0:
257,71,156641,1,2,0:2:0:0:
197,219,156812,1,2,0:2:0:0:
173,43,156982,1,2,0:2:0:0:
346,122,157153,6,0,P|351:160|343:189,1,68.2499979171754,2|2,1:2|0:2,0:0:0:0:
373,267,157494,2,0,P|334:272|305:264,1,68.2499979171754,2|2,0:2|0:2,0:0:0:0:
228,296,157835,2,0,P|222:257|230:228,1,68.2499979171754,10|8,0:2|0:2,0:0:0:0:
198,152,158176,2,0,P|236:146|265:154,1,68.2499979171754,10|8,0:2|0:0,0:0:0:0:
141,221,158516,6,0,P|81:193|18:218,1,136.499995834351,6|2,1:2|0:2,0:0:0:0:
14,309,159198,2,0,P|74:335|136:309,1,136.499995834351,10|2,0:2|0:2,0:0:0:0:
136,309,159710,1,0,0:2:0:0:
198,152,159880,5,2,1:2:0:0:
141,221,160221,2,0,P|83:190|68:126,2,136.499995834351,2|10|2,0:2|0:2|0:2,0:0:0:0:
129,54,161073,1,0,0:2:0:0:
129,54,161244,6,0,B|185:56|185:56|212:42|212:42|275:44,1,136.499995834351,12|2,0:2|1:2,0:0:0:0:
355,55,161755,2,0,P|294:79|273:142,1,136.499995834351,8|0,0:2|1:2,0:0:0:0:
356,205,162266,2,0,B|364:176|364:176|355:138,1,68.2499979171754,10|2,0:2|0:2,0:0:0:0:
356,56,162607,5,2,1:2:0:0:
356,56,162778,2,0,L|423:66,1,68.2499979171754,10|2,0:2|0:2,0:0:0:0:
206,152,163119,2,0,L|273:142,2,68.2499979171754,0|2|0,1:2|3:2|3:2,0:0:0:0:
207,152,163630,1,2,3:2:0:0:
154,32,163800,1,0,3:2:0:0:
103,107,163971,6,0,P|58:115|22:166,1,92.6249975266457,6|2,1:2|0:2,0:0:0:0:
101,281,164482,1,2,0:2:0:0:
101,281,164567,1,0,0:0:0:0:
101,281,164653,2,0,L|170:276,1,61.7499983510972,10|2,0:2|0:2,0:0:0:0:
194,275,164908,2,0,L|185:321,1,30.8749991755486,2|0,0:2|0:0,0:0:0:0:
255,370,165164,1,2,0:2:0:0:
314,300,165335,6,0,L|408:293,2,92.6249975266457,2|2|2,0:2|0:2|1:2,0:0:0:0:
314,300,166016,1,10,0:2:0:0:
310,219,166186,1,2,0:2:0:0:
307,140,166357,2,0,L|246:145,1,61.7499983510972,2|0,0:2|0:0,0:0:0:0:
140,30,166698,5,2,1:2:0:0:
80,165,166954,1,2,0:2:0:0:
144,237,167124,1,2,0:2:0:0:
144,237,167210,2,0,L|137:267,1,30.8749991755486,2|0,0:2|0:0,0:0:0:0:
118,300,167380,2,0,L|214:290,1,92.6249975266457,10|2,0:2|0:2,0:0:0:0:
305,347,167806,1,2,0:2:0:0:
322,324,167891,2,0,L|316:293,1,30.8749991755486,2|0,0:0|0:0,0:0:0:0:
313,263,168062,6,0,P|347:272|403:267,1,92.6249975266457,2|2,0:2|0:2,0:0:0:0:
460,102,168488,1,0,0:2:0:0:
460,102,168573,2,0,P|435:126|425:153,2,61.7499983510972,2|10|0,1:2|0:2|0:2,0:0:0:0:
512,272,169085,2,0,P|502:238|484:216,1,61.7499983510972,2|0,0:2|0:2,0:0:0:0:
376,248,169425,6,0,L|313:242,1,61.7499983510972,2|0,1:2|0:2,0:0:0:0:
283,216,169681,2,0,L|221:221,1,61.7499983510972,2|0,0:2|0:2,0:0:0:0:
191,250,169937,1,2,0:2:0:0:
159,245,170022,1,0,0:0:0:0:
129,240,170107,6,0,L|136:305,1,61.7499983510972,10|2,0:2|0:2,0:0:0:0:
150,150,170448,2,0,L|143:88,1,61.7499983510972,2|0,0:2|0:0,0:0:0:0:
403,242,170789,6,0,L|340:236,1,61.7499983510972,2|8,0:2|0:2,0:0:0:0:
294,170,171045,2,0,L|232:175,1,61.7499983510972,2|0,0:2|0:2,0:0:0:0:
191,250,171301,1,2,1:2:0:0:
159,245,171386,1,0,0:0:0:0:
129,240,171471,6,0,L|136:305,1,61.7499983510972,10|2,0:2|0:2,0:0:0:0:
150,150,171812,2,0,L|143:88,1,61.7499983510972,2|2,0:2|0:2,0:0:0:0:
131,8,172067,1,2,0:2:0:0:
131,8,172153,6,0,P|167:3|195:18,1,61.7499983510972,2|0,1:2|0:0,0:0:0:0:
219,42,172408,2,0,P|257:53|316:29,1,92.6249975266457,2|2,0:2|0:2,0:0:0:0:
444,34,172835,2,0,L|440:98,1,61.7499983510972,10|0,0:2|0:0,0:0:0:0:
370,220,173175,2,0,L|366:158,1,61.7499983510972,0|2,0:0|0:2,0:0:0:0:
489,213,173516,6,0,L|492:274,1,61.7499983510972,2|10,0:2|0:2,0:0:0:0:
400,355,173857,2,0,L|392:347|389:305,2,41.1666655673981,2|2|2,0:2|0:2|0:2,0:0:0:0:
400,355,174198,2,0,L|286:347,1,112.125002138615,8|0,0:2|3:2,0:0:0:0:
262,344,174539,1,2,0:2:0:0:
120,240,174710,1,0,0:0:0:0:
158,332,174880,5,4,1:2:0:0:
200,185,175050,1,2,0:2:0:0:
290,200,175221,1,2,0:2:0:0:
380,220,175391,1,2,0:2:0:0:
255,50,175562,2,0,L|261:119,1,61.7499983510972,10|2,0:2|0:2,0:0:0:0:
360,65,175903,2,0,L|354:134,1,61.7499983510972,2|2,0:2|0:2,0:0:0:0:
380,220,176244,6,0,P|447:219|493:166,1,123.499996702194,2|2,0:2|0:2,0:0:0:0:
486,182,176755,1,2,1:2:0:0:
425,363,176925,2,0,P|374:328|306:334,1,123.499996702194,10|2,0:2|0:2,0:0:0:0:
234,368,177437,1,0,0:2:0:0:
147,358,177607,5,0,1:2:0:0:
75,205,177778,1,2,0:2:0:0:
175,170,177948,1,2,0:2:0:0:
160,265,178119,1,2,0:2:0:0:
147,358,178289,2,0,L|69:353,1,61.7499983510972,10|2,0:2|0:2,0:0:0:0:
160,265,178630,2,0,L|221:268,1,61.7499983510972,2|2,0:2|0:2,0:0:0:0:
296,176,178971,6,0,B|353:155|353:155|401:196,1,123.499996702194,2|2,0:2|0:2,0:0:0:0:
221,268,179481,1,0,0:2:0:0:
336,260,179653,2,0,B|324:302|324:302|342:328|342:328|328:385,1,123.499996702194,10|0,0:2|0:2,0:0:0:0:
330,374,180164,1,0,0:2:0:0:
436,362,180335,5,0,1:2:0:0:
296,176,180675,1,2,0:2:0:0:
379,119,180846,1,2,0:2:0:0:
445,188,181016,2,0,L|510:176,1,61.7499983510972,10|2,0:2|0:2,0:0:0:0:
505,65,181357,2,0,L|440:53,1,61.7499983510972,2|2,0:2|0:2,0:0:0:0:
445,188,181698,6,0,L|458:284,2,92.6249975266457,2|0|0,0:2|0:0|1:2,0:0:0:0:
295,76,182380,1,10,0:2:0:0:
296,176,182550,2,0,L|216:164,2,61.7499983510972,0|2|2,0:0|0:2|0:2,0:0:0:0:
188,252,183062,6,0,L|318:271,1,123.499996702194,0|0,1:2|0:0,0:0:0:0:
506,368,183744,1,10,0:2:0:0:
421,358,183914,2,0,P|428:327|460:297,2,61.7499983510972,2|2|0,0:2|0:2|0:0,0:0:0:0:
405,222,184425,6,0,P|445:255|518:240,2,123.499996702194,2|2|10,0:2|0:2|0:2,0:0:0:0:
405,222,185278,1,0,3:2:0:0:
428,132,185448,1,0,3:2:0:0:
339,108,185619,1,0,3:2:0:0:
315,198,185789,5,0,3:2:0:0:
256,192,191244,12,2,193630,3:2:0:0:
256,192,193971,12,8,194994,0:2:0:0:
85,45,195335,5,12,0:2:0:0:
190,80,195505,1,0,1:2:0:0:
140,210,195675,5,12,0:2:0:0:
290,170,195846,2,0,B|281:193|281:193|291:217,2,42.2499980659486,0|0|12,1:2|1:2|0:2,0:0:0:0:
420,80,196187,1,0,1:2:0:0:
275,10,196357,5,8,0:2:0:0:
290,170,196528,1,0,1:2:0:0:
275,10,196698,6,0,L|345:21,1,71.5000021820069,6|2,1:2|1:2,0:0:0:0:
410,105,197039,2,0,L|480:93,1,71.5000021820069,10|2,0:2|0:2,0:0:0:0:
291,171,197380,1,2,1:2:0:0:
413,241,197550,1,2,1:2:0:0:
292,379,197721,2,0,B|281:345|281:345|293:309,1,71.5000021820069,10|2,0:2|0:2,0:0:0:0:
291,171,198062,5,2,1:2:0:0:
165,230,198232,1,2,1:2:0:0:
160,25,198403,2,0,P|180:58|180:100,1,71.5000021820069,10|2,0:2|0:2,0:0:0:0:
165,230,198744,2,0,P|111:189|35:206,1,143.000004364014,2|10,1:2|0:2,0:0:0:0:
291,171,199425,5,2,1:2:0:0:
292,311,199596,1,2,1:2:0:0:
413,241,199766,2,0,P|450:237|487:252,1,71.5000021820069,10|2,0:2|0:2,0:0:0:0:
410,80,200107,5,2,1:2:0:0:
291,171,200278,1,2,1:2:0:0:
285,25,200448,2,0,P|248:21|211:36,1,71.5000021820069,10|2,0:2|0:2,0:0:0:0:
291,171,200789,5,2,1:2:0:0:
137,173,200960,1,2,1:2:0:0:
213,368,201130,2,0,P|224:326|211:291,1,71.5000021820069,10|2,0:2|0:2,0:0:0:0:
137,173,201471,2,0,P|96:208|1:209,1,143.000004364014,2|10,1:2|0:2,0:0:0:0:
216,299,202153,5,0,1:2:0:0:
137,173,202323,1,0,1:2:0:0:
216,299,202494,2,0,L|296:294,1,71.5000021820069,10|0,0:2|0:0,0:0:0:0:
468,158,202835,2,0,P|426:168|371:258,1,143.000004364014,2|10,1:2|0:2,0:0:0:0:
466,252,203346,1,0,0:2:0:0:
510,71,203516,5,2,1:2:0:0:
466,252,203687,1,0,1:2:0:0:
411,47,203857,2,0,L|340:58,1,71.5000021820069,10|0,0:2|0:0,0:0:0:0:
185,27,204198,2,0,P|237:69|251:157,1,143.000004364014,2|10,1:2|0:2,0:0:0:0:
254,140,204710,1,0,0:2:0:0:
155,126,204880,5,6,1:2:0:0:
190,223,205050,1,0,1:2:0:0:
185,27,205221,2,0,L|257:32,1,71.5000021820069,10|0,0:2|0:2,0:0:0:0:
155,126,205562,2,0,B|75:124|110:178|27:180,2,143.000004364014,2|10|14,1:2|0:2|0:2,0:0:0:0:
155,126,206414,5,2,1:2:0:0:
190,223,206585,1,10,0:2:0:0:
256,31,206755,1,0,1:2:0:0:
256,31,206840,1,0,1:2:0:0:
256,31,206925,1,10,0:2:0:0:
341,213,207096,1,0,1:2:0:0:
409,29,207266,2,0,P|452:35|485:68,1,71.5000021820069,2|0,1:2|0:0,0:0:0:0:
341,213,207607,5,6,1:2:0:0:
501,168,207778,1,2,1:2:0:0:
341,213,207948,2,0,L|261:198,1,71.5000021820069,10|2,0:2|0:2,0:0:0:0:
455,336,208289,5,2,1:2:0:0:
501,168,208460,1,2,1:2:0:0:
455,336,208630,2,0,L|384:349,1,71.5000021820069,10|2,0:2|0:2,0:0:0:0:
270,199,208971,5,2,1:2:0:0:
213,378,209141,1,2,1:2:0:0:
33,233,209312,2,0,P|74:240|109:228,1,71.5000021820069,10|2,0:2|0:2,0:0:0:0:
270,199,209653,2,0,P|206:226|181:294,1,143.000004364014,2|10,1:2|0:2,0:0:0:0:
150,150,210335,5,2,1:2:0:0:
84,17,210505,1,2,1:2:0:0:
102,231,210675,2,0,P|61:224|26:236,1,71.5000021820069,10|2,0:2|0:2,0:0:0:0:
150,150,211016,5,2,1:2:0:0:
0,81,211187,1,2,1:2:0:0:
69,308,211357,2,0,P|50:347|50:376,1,71.5000021820069,10|2,0:2|0:2,0:0:0:0:
150,150,211698,5,2,1:2:0:0:
135,365,211869,1,2,1:2:0:0:
214,218,212039,2,0,L|291:212,1,71.5000021820069,10|2,0:2|0:2,0:0:0:0:
481,288,212380,2,0,B|411:313|411:313|355:271,2,143.000004364014,2|10|0,1:2|0:2|1:2,0:0:0:0:
481,288,213232,5,0,1:2:0:0:
442,146,213403,2,0,P|426:186|431:221,1,71.5000021820069,10|0,0:2|0:0,0:0:0:0:
368,80,213744,2,0,P|416:102|494:66,1,143.000004364014,2|10,1:2|0:2,0:0:0:0:
493,66,214255,1,0,0:2:0:0:
261,21,214425,6,0,L|268:95,1,71.5000021820069,2|0,1:2|1:2,0:0:0:0:
316,243,214766,2,0,L|322:171,1,71.5000021820069,10|0,0:2|0:0,0:0:0:0:
163,158,215107,2,0,P|197:181|232:180,1,71.5000021820069,2|0,1:2|0:0,0:0:0:0:
101,90,215448,2,0,P|63:114|43:208,1,143.000004364014,10|6,0:2|1:2,0:0:0:0:
41,204,215960,1,0,1:2:0:0:
25,309,216130,6,0,L|139:303,1,107.25000327301,10|0,0:2|0:0,0:0:0:0:
177,222,216471,2,0,P|210:244|232:313,1,107.25000327301,2|0,1:2|0:0,0:0:0:0:
315,332,216812,2,0,P|344:305|417:302,1,107.25000327301,10|0,0:2|0:0,0:0:0:0:
499,328,217153,6,0,L|493:241,1,84.4999961318971,14|2,0:2|1:2,0:0:0:0:
349,192,217494,1,10,0:2:0:0:
512,74,217664,1,0,1:2:0:0:
495,42,217749,1,0,1:2:0:0:
461,24,217835,1,10,0:2:0:0:
349,192,218005,1,0,1:2:0:0:
287,83,218175,1,2,1:2:0:0:
216,180,218346,1,0,1:0:0:0:
155,77,218516,6,0,P|121:102|84:103,1,74.7500014257431,6|0,1:2|1:2,0:0:0:0:
216,180,218857,2,0,P|249:240|231:338,1,149.500002851486,10|2,0:2|1:2,0:0:0:0:
157,358,219369,2,0,L|81:352,2,74.7500014257431,2|10|0,1:2|0:2|0:2,0:0:0:0:
357,278,219880,6,0,B|411:329|411:329|488:288,1,149.500002851486,2|10,1:2|0:2,0:0:0:0:
436,85,220562,1,2,1:2:0:0:
476,164,220732,2,0,P|439:194|429:222,2,74.7500014257431,2|10|0,0:2|0:2|0:2,0:0:0:0:
300,115,221244,6,0,P|327:140|365:149,1,74.7500014257431,2|0,1:2|1:2,0:0:0:0:
247,37,221585,2,0,P|195:45|147:135,1,149.500002851486,10|2,0:2|1:2,0:0:0:0:
183,219,222096,2,0,L|102:214,2,74.7500014257431,2|10|0,1:2|0:2|0:2,0:0:0:0:
250,370,222607,6,0,P|261:334|251:291,1,74.7500014257431,2|0,1:2|1:2,0:0:0:0:
183,219,222948,2,0,P|147:208|101:219,1,77.999997619629,10|0,0:2|0:2,0:0:0:0:
140,295,223289,1,2,1:2:0:0:
290,200,223460,2,0,P|301:167|286:115,2,74.7500014257431,2|10|2,0:2|0:2|0:2,0:0:0:0:
250,56,223971,6,0,P|283:43|326:50,1,74.7500014257431,2|0,1:2|1:2,0:0:0:0:
451,31,224312,2,0,P|410:62|387:168,1,149.500002851486,10|2,0:2|1:2,0:0:0:0:
498,219,224823,2,0,B|420:218|450:278|363:282,1,149.500002851486,2|0,1:2|0:2,0:0:0:0:
289,353,225335,6,0,P|277:312|241:277,1,74.7500014257431,2|0,1:2|1:2,0:0:0:0:
70,204,225675,2,0,B|138:239|138:239|207:202,1,149.500002851486,10|2,0:2|1:2,0:0:0:0:
150,8,226187,2,0,P|118:63|142:145,1,149.500002851486,2|0,0:2|0:2,0:0:0:0:
205,80,226698,6,0,L|296:88,1,74.7500014257431,6|0,1:2|1:2,0:0:0:0:
375,29,227039,2,0,L|449:22,1,74.7500014257431,10|0,0:2|0:2,0:0:0:0:
377,139,227380,1,2,1:2:0:0:
455,243,227550,2,0,P|485:149|460:98,1,149.500002851486,2|2,0:2|0:2,0:0:0:0:
327,242,228062,5,6,1:2:0:0:
395,340,228232,1,2,3:2:0:0:
377,139,228403,1,10,0:2:0:0:
218,263,228573,1,0,3:2:0:0:
218,263,228658,1,0,3:2:0:0:
218,263,228744,5,2,3:2:0:0:
285,335,228914,1,2,3:2:0:0:
240,160,229085,1,2,3:2:0:0:
110,290,229255,1,2,3:2:0:0:
10,170,229425,6,0,P|47:183|73:225,1,74.7500014257431,6|0,1:2|1:2,0:0:0:0:
110,290,229766,2,0,P|110:227|141:146,1,149.500002851486,10|2,0:2|1:2,0:0:0:0:
127,53,230278,2,0,L|207:64,2,74.7500014257431,2|10|0,1:2|0:2|0:2,0:0:0:0:
240,160,230789,6,0,P|279:159|321:135,1,74.7500014257431,2|0,1:2|1:2,0:0:0:0:
425,120,231130,2,0,P|406:154|406:202,1,74.7500014257431,10|0,0:2|0:2,0:0:0:0:
490,180,231471,1,2,1:2:0:0:
370,300,231641,2,0,P|349:266|307:242,2,74.7500014257431,2|10|0,0:2|0:2|0:2,0:0:0:0:
240,160,232153,6,0,P|206:181|182:223,1,74.7500014257431,2|0,1:2|1:2,0:0:0:0:
197,327,232494,2,0,P|177:272|82:236,1,149.500002851486,10|2,0:2|1:2,0:0:0:0:
100,332,233005,1,2,1:2:0:0:
0,285,233175,1,10,0:2:0:0:
10,175,233346,1,0,0:2:0:0:
110,130,233516,6,0,L|208:139,1,74.7500014257431,2|0,1:2|1:2,0:0:0:0:
333,11,233857,2,0,L|247:24,1,74.7500014257431,10|0,0:2|0:2,0:0:0:0:
338,208,234198,2,0,P|341:168|326:132,1,74.7500014257431,2|2,1:2|0:2,0:0:0:0:
209,295,234539,1,10,0:2:0:0:
209,295,234710,1,2,0:2:0:0:
350,368,234880,6,0,P|398:365|426:346,1,74.7500014257431,2|0,1:2|1:2,0:0:0:0:
508,374,235221,2,0,P|456:341|433:256,1,149.500002851486,10|2,0:2|1:2,0:0:0:0:
432,259,235732,1,2,1:2:0:0:
493,153,235903,2,0,L|410:148,1,74.7500014257431,10|0,0:2|0:2,0:0:0:0:
315,56,236244,5,2,1:2:0:0:
281,186,236414,1,0,1:2:0:0:
185,90,236585,2,0,P|150:77|113:82,1,74.7500014257431,10|0,0:2|0:2,0:0:0:0:
50,243,236925,1,2,1:2:0:0:
119,308,237096,2,0,P|153:242|142:169,1,149.500002851486,2|0,0:2|0:2,0:0:0:0:
114,83,237607,6,0,L|39:93,1,74.7500014257431,6|8,1:2|1:2,0:0:0:0:
188,2,237948,2,0,B|240:48|240:48|222:131,1,149.500002851486,10|2,0:2|1:2,0:0:0:0:
143,169,238460,2,0,B|180:149|216:169|216:169|248:188|285:170,1,149.500002851486,2|2,0:2|0:2,0:0:0:0:
351,92,238971,5,2,1:2:0:0:
381,188,239141,1,2,3:2:0:0:
270,263,239312,1,10,0:2:0:0:
375,321,239482,5,0,3:2:0:0:
375,321,239567,1,0,3:0:0:0:
375,321,239653,1,2,3:2:0:0:
285,169,239823,1,2,3:2:0:0:
136,301,239994,1,2,3:2:0:0:
171,155,240164,1,2,3:2:0:0:
74,164,240335,6,0,L|180:155,1,97.50000371933,2|2,0:2|0:2,0:0:0:0:
158,68,240846,1,2,0:2:0:0:
241,97,241016,2,0,P|277:123|288:182,1,97.50000371933,2|2,0:2|0:2,0:0:0:0:
315,257,241528,2,0,L|259:261,1,48.750001859665,2|0,0:2|0:0,0:0:0:0:
181,282,241869,1,2,0:2:0:0:
190,371,242039,5,2,0:2:0:0:
289,172,242380,1,2,0:2:0:0:
310,355,242721,1,2,0:2:0:0:
190,371,243062,6,0,B|202:262|90:287|56:211|95:136|179:130|212:199|212:199|243:132|333:138|368:206|337:288|202:262|229:360,1,675.999969055177,2|0,0:0|0:0,0:0:0:0:
