osu file format v14

[General]
AudioFilename: audio.mp3
AudioLeadIn: 0
PreviewTime: 218516
Countdown: 0
SampleSet: Soft
StackLeniency: 0.6
Mode: 0
LetterboxInBreaks: 0
WidescreenStoryboard: 0

[Editor]
DistanceSpacing: 1.5
BeatDivisor: 4
GridSize: 32
TimelineZoom: 5.400002

[Metadata]
Title:Dionysus
TitleUnicode:Dionysus
Artist:BTS
ArtistUnicode:방탄소년단
Creator:DeRandom Otaku
Version:Hard
Source:
Tags:map of the soul persona album 起 承 轉 her tear wonder beyond the scene bangtan boys sonyeondan bangtansonyeondan bulletproof boy scouts 슈가 진 제이홉 지민 뷔 정국 jungkook rm j-hope jimin v suga jin hot yoongi k-pop kpop korean pop ren KittyAdventure -_frontier_- frontier gokugohan12468
BeatmapID:2086064
BeatmapSetID:971842

[Difficulty]
HPDrainRate:4
CircleSize:3.3
OverallDifficulty:6
ApproachRate:8
SliderMultiplier:1.2
SliderTickRate:1

[Events]
//Background and Video events
0,0,"dionysus.jpg",0,0
//Break Periods
2,185988,193221
//Storyboard Layer 0 (Background)
//Storyboard Layer 1 (Fail)
//Storyboard Layer 2 (Pass)
//Storyboard Layer 3 (Foreground)
//Storyboard Sound Samples

[TimingPoints]
335,340.909090909091,4,2,0,40,1,0
335,-100,4,2,0,40,0,0
11244,-100,4,2,0,50,0,0
16698,-100,4,2,0,55,0,0
17550,-100,4,2,0,55,0,0
19425,-108.695652173913,4,2,0,55,0,0
20789,-100,4,2,0,60,0,0
22153,-90.9090909090909,4,2,0,70,0,0
43971,-108.695652173913,4,2,0,55,0,0
54880,-121.951219512195,4,2,0,55,0,0
65789,-81.9672131147541,4,2,0,80,0,1
86925,-81.9672131147541,4,2,0,80,0,0
87607,-81.9672131147541,4,2,0,80,0,1
98516,-98.0392156862745,4,2,0,60,0,0
120335,-108.695652173913,4,2,0,55,0,0
131244,-121.951219512195,4,2,0,55,0,0
142153,-81.9672131147541,4,2,0,80,0,1
163971,-98.0392156862745,4,2,0,60,0,0
191244,-121.951219512195,4,2,0,50,0,0
195335,-89.2857142857142,4,2,0,65,0,0
196698,-81.9672131147541,4,2,0,88,0,1
217835,-81.9672131147541,4,2,0,88,0,0
218516,-81.9672131147541,4,2,0,90,0,1
228744,-81.9672131147541,4,2,0,90,0,0
229425,-81.9672131147541,4,2,0,90,0,1
240335,-108.695652173913,4,2,0,55,0,0
243062,-312.5,4,2,0,55,0,0
243147,-312.5,4,2,0,5,0,0

[Colours]
Combo1 : 128,128,255
Combo2 : 255,128,128
Combo3 : 237,193,63
Combo4 : 173,90,90

[HitObjects]
50,25,9880,6,0,L|58:106,1,60,10|10,0:2|0:2,0:0:0:0:
119,148,10221,2,0,L|111:229,1,60,0|0,1:2|1:2,0:0:0:0:
72,288,10562,2,0,P|127:254|201:262,1,120,2|2,1:2|1:2,0:0:0:0:
239,323,11073,1,2,1:2:0:0:
300,223,11244,6,0,L|298:98,2,120,6|2|2,1:2|0:2|0:2,0:0:0:0:
335,305,12096,2,0,P|381:281|458:282,1,120,2|0,0:2|0:2,0:0:0:0:
508,346,12607,2,0,P|499:294|502:222,2,120,2|2|2,0:2|0:2|0:2,0:0:0:0:
420,370,13460,2,0,P|375:351|289:344,1,120,2|0,0:2|0:2,0:0:0:0:
218,370,13971,6,0,P|211:320|211:233,2,120,6|2|2,1:2|0:2|0:2,0:0:0:0:
304,342,14823,2,0,P|311:292|311:205,1,120,2|0,0:2|0:2,0:0:0:0:
251,154,15335,2,0,P|301:129|366:146,2,120,2|2|2,0:2|0:2|0:2,0:0:0:0:
201,229,16187,2,0,P|151:254|86:237,1,120,2|2,0:2|0:2,0:0:0:0:
13,193,16698,6,0,P|22:159|31:55,2,120,6|2|2,1:2|0:2|0:2,0:0:0:0:
49,275,17550,2,0,P|118:233|167:227,1,120,2|0,0:2|0:2,0:0:0:0:
219,291,18062,2,0,L|357:278,2,120,2|2|10,0:2|0:2|0:2,0:0:0:0:
154,354,18914,1,10,0:2:0:0:
154,354,19085,2,0,L|90:353,1,60,10|0,0:2|1:2,0:0:0:0:
19,317,19425,6,0,P|5:268|6:194,2,110.399996293945,6|2|2,1:2|3:2|3:2,0:0:0:0:
94,353,20278,1,0,0:2:0:0:
127,277,20448,1,0,3:2:0:0:
182,339,20619,1,2,3:2:0:0:
241,272,20789,2,0,L|280:276,3,30,2|0|0|2,3:2|0:0|3:2|3:2,0:0:0:0:
309,294,21130,2,0,L|338:292,3,30,0|0|2|0,3:2|3:2|3:2|3:2,0:0:0:0:
379,275,21471,2,0,L|418:282,3,30,2|0|2|2,3:2|3:2|3:2|3:2,0:0:0:0:
447,298,21812,1,2,3:2:0:0:
495,222,21982,1,2,3:2:0:0:
423,152,22153,6,0,P|421:104|479:33,2,132.00000402832,6|2|10,1:2|0:2|0:2,0:0:0:0:
423,152,23175,2,0,P|380:137|345:136,1,66.0000020141602,2|2,0:2|0:2,0:0:0:0:
289,205,23516,2,0,P|246:220|211:221,1,66.0000020141602,2|2,1:2|0:2,0:0:0:0:
144,164,23857,1,2,0:2:0:0:
144,164,24028,2,0,B|64:171|103:208|1:215,1,132.00000402832,2|2,0:2|0:2,0:0:0:0:
20,113,24539,2,0,P|25:68|25:27,1,66.0000020141602,0|2,0:0|0:2,0:0:0:0:
119,15,24880,6,0,L|264:28,2,132.00000402832,2|2|10,1:2|0:2|0:2,0:0:0:0:
25,47,25732,1,2,0:2:0:0:
103,107,25903,2,0,P|109:147|114:198,1,66.0000020141602,2|2,0:2|0:2,0:0:0:0:
66,260,26244,2,0,P|120:218|180:254,1,132.00000402832,2|2,1:2|0:2,0:0:0:0:
214,331,26755,2,0,P|264:329|298:245,1,132.00000402832,2|10,0:2|0:2,0:0:0:0:
261,173,27266,1,10,0:2:0:0:
359,186,27437,1,10,0:2:0:0:
326,92,27607,6,0,L|338:12,1,66.0000020141602,2|0,1:2|0:2,0:0:0:0:
433,46,27948,2,0,L|423:111,1,66.0000020141602,2|0,0:2|0:2,0:0:0:0:
359,186,28289,2,0,L|494:208,1,132.00000402832,10|2,0:2|0:2,0:0:0:0:
466,304,28800,2,0,L|335:282,1,132.00000402832,2|2,0:2|0:2,0:0:0:0:
258,219,29312,2,0,P|219:222|183:244,1,66.0000020141602,2|2,0:2|0:2,0:0:0:0:
118,296,29653,2,0,P|103:244|103:155,2,132.00000402832,10|2|0,0:2|0:2|1:2,0:0:0:0:
210,330,30505,5,2,1:2:0:0:
195,233,30675,2,0,P|225:220|258:219,1,66.0000020141602,2|2,0:2|0:2,0:0:0:0:
328,289,31016,2,0,P|357:302|390:303,1,66.0000020141602,10|2,0:2|0:2,0:0:0:0:
477,254,31357,1,2,1:2:0:0:
477,254,31528,1,2,1:2:0:0:
410,181,31698,2,0,L|414:99,1,66.0000020141602,14|2,1:2|0:2,0:0:0:0:
322,73,32039,2,0,L|318:138,1,66.0000020141602,10|2,0:2|0:2,0:0:0:0:
258,219,32380,1,10,0:2:0:0:
199,139,32550,2,0,L|201:94,2,33.0000010070801,8|8|10,0:2|0:2|0:2,0:0:0:0:
140,219,32891,2,0,L|145:293,1,66.0000020141602,8|0,0:2|1:2,0:0:0:0:
205,362,33232,5,2,0:2:0:0:
205,362,33403,2,0,P|242:351|288:352,1,66.0000020141602,2|2,0:2|0:2,0:0:0:0:
366,369,33744,1,10,0:2:0:0:
366,369,33914,2,0,P|398:366|430:356,1,66.0000020141602,2|2,0:2|0:2,0:0:0:0:
501,287,34255,1,2,0:2:0:0:
501,287,34425,2,0,P|493:250|492:208,1,66.0000020141602,2|2,1:2|0:2,0:0:0:0:
510,124,34766,2,0,P|477:108|434:108,1,66.0000020141602,2|2,0:2|0:2,0:0:0:0:
366,162,35107,2,0,P|314:186|222:168,2,132.00000402832,10|2|0,0:2|0:2|1:2,0:0:0:0:
294,92,35960,5,2,0:2:0:0:
197,110,36130,2,0,L|117:124,1,66.0000020141602,2|2,0:2|0:2,0:0:0:0:
96,214,36471,2,0,L|30:225,1,66.0000020141602,10|2,0:2|0:2,0:0:0:0:
39,324,36812,2,0,L|104:312,1,66.0000020141602,2|2,0:2|0:2,0:0:0:0:
184,255,37153,1,2,1:2:0:0:
227,343,37323,1,2,0:2:0:0:
286,263,37494,2,0,L|351:274,1,66.0000020141602,2|2,0:2|0:2,0:0:0:0:
411,353,37835,2,0,B|394:289|394:289|422:216,1,132.00000402832,10|10,0:2|0:2,0:0:0:0:
458,137,38346,1,8,0:2:0:0:
381,74,38516,6,0,P|321:49|243:49,1,132.00000402832,2|2,1:2|0:2,0:0:0:0:
165,91,39028,2,0,L|171:179,1,66.0000020141602,2|8,0:2|0:2,0:0:0:0:
251,212,39369,1,2,0:2:0:0:
251,212,39539,2,0,L|245:300,1,66.0000020141602,2|2,0:2|0:2,0:0:0:0:
169,340,39880,2,0,P|134:327|89:325,2,66.0000020141602,2|2|2,1:2|0:2|0:2,0:0:0:0:
258,382,40391,2,0,P|290:377|321:365,1,66.0000020141602,2|8,0:2|0:2,0:0:0:0:
413,327,40732,1,2,0:2:0:0:
413,327,40903,2,0,P|416:279|421:233,1,66.0000020141602,2|2,0:2|0:2,0:0:0:0:
443,165,41244,5,6,1:2:0:0:
443,165,41414,2,0,P|401:148|349:149,1,66.0000020141602,2|2,1:2|0:2,0:0:0:0:
312,217,41755,2,0,P|270:234|218:233,1,66.0000020141602,2|8,1:2|0:2,0:0:0:0:
170,176,42096,1,2,0:2:0:0:
112,255,42266,1,2,1:2:0:0:
48,178,42437,1,2,1:2:0:0:
17,271,42607,6,0,L|23:355,1,66.0000020141602,10|2,0:2|0:2,0:0:0:0:
116,321,42948,2,0,L|111:255,1,66.0000020141602,10|2,0:2|0:2,0:0:0:0:
170,176,43289,1,8,0:2:0:0:
249,236,43460,2,0,L|246:287,2,33.0000010070801,8|8|10,0:2|0:2|0:2,0:0:0:0:
257,137,43800,1,8,0:2:0:0:
346,202,43971,6,0,B|418:199|381:169|465:172,2,110.399996293945,2|2|2,0:2|0:2|0:2,0:0:0:0:
170,176,44994,1,2,0:2:0:0:
305,289,45335,2,0,P|318:209|310:105,1,165.599994440918,2|2,0:2|0:2,0:0:0:0:
291,39,46016,1,2,0:2:0:0:
291,39,46698,6,0,B|217:29|253:63|169:52,2,110.399996293945,2|2|2,0:2|0:2|0:2,0:0:0:0:
456,103,47721,1,2,0:2:0:0:
274,125,48062,2,0,P|290:237|296:312,1,165.599994440918,2|2,0:2|0:2,0:0:0:0:
294,377,48744,1,2,0:2:0:0:
294,377,49425,6,0,P|266:369|217:368,1,55.1999981469727,2|2,0:2|0:2,0:0:0:0:
66,331,49937,2,0,P|93:328|119:320,1,55.1999981469727,2|2,0:2|0:2,0:0:0:0:
294,285,50448,2,0,P|266:282|240:274,1,55.1999981469727,2|2,0:2|0:2,0:0:0:0:
177,211,50789,2,0,L|187:135,1,55.1999981469727,2|2,0:2|0:2,0:0:0:0:
281,8,51300,2,0,L|288:62,1,55.1999981469727,2|2,0:2|0:2,0:0:0:0:
385,211,51812,2,0,L|392:156,1,55.1999981469727,2|2,0:2|0:2,0:0:0:0:
410,69,52153,5,2,0:2:0:0:
285,193,52494,1,2,0:2:0:0:
374,345,52835,1,2,0:2:0:0:
197,345,53175,1,2,0:2:0:0:
285,193,53516,2,0,P|246:177|214:177,1,55.1999981469727,10|10,0:2|0:2,0:0:0:0:
170,238,53857,2,0,P|131:254|99:254,1,55.1999981469727,10|8,1:2|1:2,0:0:0:0:
55,192,54198,2,0,P|66:144|66:59,1,110.399996293945,2|2,1:2|1:2,0:0:0:0:
14,11,54710,1,2,1:2:0:0:
161,50,54880,6,0,B|287:4|234:90|362:44,1,196.80000300293,2|0,1:2|1:2,0:0:0:0:
478,336,56244,2,0,B|352:382|405:296|277:342,1,196.80000300293,2|2,1:2|1:2,0:0:0:0:
21,170,57607,6,0,P|80:118|191:144,1,196.80000300293,2|2,1:2|1:2,0:0:0:0:
455,309,58971,2,0,P|396:361|285:335,1,196.80000300293,2|2,1:2|1:2,0:0:0:0:
366,32,60335,6,0,L|359:237,1,196.80000300293,2|0,1:2|1:2,0:0:0:0:
67,347,61698,2,0,L|73:150,1,196.80000300293,2|2,1:2|1:2,0:0:0:0:
366,32,63062,6,0,P|414:23|475:45,1,98.4000015014649,6|2,3:2|3:2,0:0:0:0:
506,100,63573,2,0,L|504:131,2,24.6000003753662,0|0|2,0:2|3:2|3:2,0:0:0:0:
373,232,64085,2,0,P|332:229|306:215,1,49.2000007507324,2|0,3:2|0:2,0:0:0:0:
283,205,64340,1,0,3:2:0:0:
283,205,64425,2,0,L|238:211,3,24.6000003753662,2|2|0|0,3:2|3:2|3:2|3:2,0:0:0:0:
225,241,64766,2,0,L|180:247,3,24.6000003753662,2|2|0|0,3:2|3:2|3:2|3:2,0:0:0:0:
167,277,65107,2,0,L|122:283,3,24.6000003753662,2|0|0|0,3:2|3:2|3:2|3:2,0:0:0:0:
109,313,65448,2,0,L|64:319,3,24.6000003753662,2|0|0|0,3:2|3:2|3:2|3:2,0:0:0:0:
17,364,65789,5,6,1:2:0:0:
21,254,65960,1,2,0:2:0:0:
90,169,66130,2,0,B|169:173,1,73.199996984253,2|2,0:2|0:2,0:0:0:0:
255,232,66471,2,0,B|334:236,1,73.199996984253,10|2,0:2|0:2,0:0:0:0:
409,163,66812,2,0,B|488:167,1,73.199996984253,2|2,0:2|0:2,0:0:0:0:
497,57,67153,2,0,B|423:53,1,73.199996984253,2|2,1:2|0:2,0:0:0:0:
324,99,67494,1,2,0:2:0:0:
324,99,67664,1,2,0:2:0:0:
237,31,67835,2,0,B|145:19|177:62|87:53,2,146.399993968506,10|2|2,0:2|0:2|1:2,0:0:0:0:
323,99,68687,5,2,0:2:0:0:
216,122,68857,2,0,L|225:205,1,73.199996984253,2|2,0:2|0:2,0:0:0:0:
301,272,69198,2,0,L|310:355,1,73.199996984253,10|2,0:2|0:2,0:0:0:0:
416,368,69539,2,0,L|408:295,1,73.199996984253,2|2,0:2|0:2,0:0:0:0:
392,186,69880,1,2,1:2:0:0:
392,186,70050,1,2,0:2:0:0:
492,231,70221,1,2,0:2:0:0:
492,231,70391,1,2,0:2:0:0:
408,295,70562,2,0,B|339:317|339:317|266:285,2,146.399993968506,10|10|6,0:2|0:2|1:2,0:0:0:0:
352,81,71585,5,2,0:2:0:0:
140,24,71925,2,0,P|124:77|117:171,1,146.399993968506,10|2,0:2|0:2,0:0:0:0:
255,338,72607,1,2,1:2:0:0:
51,254,72948,1,2,0:2:0:0:
261,191,73289,2,0,L|431:209,1,146.399993968506,10|2,0:2|0:2,0:0:0:0:
296,15,73971,6,0,L|215:25,1,73.199996984253,6|0,1:2|1:2,0:0:0:0:
137,92,74312,2,0,B|44:93|94:51|-4:51,2,146.399993968506,2|10|2,0:2|0:2|1:2,0:0:0:0:
223,23,75164,1,2,1:2:0:0:
264,124,75335,2,0,L|258:209,1,73.199996984253,10|2,0:2|0:2,0:0:0:0:
251,306,75675,2,0,P|312:279|410:282,1,146.399993968506,10|10,0:2|0:2,0:0:0:0:
499,299,76187,2,0,L|490:354,2,36.5999984921265,8|8|10,0:2|0:2|0:2,0:0:0:0:
461,195,76528,1,8,0:2:0:0:
390,277,76698,5,6,1:2:0:0:
499,299,76869,1,2,0:2:0:0:
461,195,77039,2,0,P|423:171|373:169,1,73.199996984253,2|2,0:2|0:2,0:0:0:0:
303,226,77380,2,0,P|267:218|237:197,1,73.199996984253,10|2,0:2|0:2,0:0:0:0:
147,134,77721,2,0,P|111:141|81:162,1,73.199996984253,2|2,0:2|0:2,0:0:0:0:
18,252,78062,2,0,P|25:287|46:317,1,73.199996984253,2|2,1:2|0:2,0:0:0:0:
142,370,78403,1,2,0:2:0:0:
142,370,78573,1,2,0:2:0:0:
198,275,78744,2,0,B|288:255|255:309|351:293,2,146.399993968506,10|2|0,0:2|0:2|1:2,0:0:0:0:
142,370,79596,5,2,0:2:0:0:
46,317,79766,2,0,P|25:287|18:252,1,73.199996984253,2|2,0:2|0:2,0:0:0:0:
81,162,80107,2,0,P|111:141|147:134,1,73.199996984253,10|2,0:2|0:2,0:0:0:0:
237,197,80448,2,0,P|267:218|303:226,1,73.199996984253,2|2,0:2|0:2,0:0:0:0:
395,166,80789,1,2,1:2:0:0:
395,166,80960,1,2,0:2:0:0:
303,105,81130,1,2,0:2:0:0:
303,105,81300,1,2,0:2:0:0:
390,37,81471,2,0,B|465:22|465:22|519:75,2,146.399993968506,10|10|6,0:2|0:2|1:2,0:0:0:0:
489,233,82494,5,2,0:2:0:0:
303,105,82835,2,0,L|150:124,1,146.399993968506,10|2,0:2|0:2,0:0:0:0:
2,278,83516,1,2,1:2:0:0:
65,67,83857,1,2,0:2:0:0:
168,260,84198,2,0,L|313:241,1,146.399993968506,10|2,0:2|0:2,0:0:0:0:
492,369,84880,6,0,P|500:315|499:219,1,146.399993968506,12|2,0:2|1:2,0:0:0:0:
459,120,85391,1,8,0:2:0:0:
459,120,85562,2,0,P|415:93|314:93,1,146.399993968506,8|10,0:2|0:2,0:0:0:0:
237,160,86073,1,2,0:2:0:0:
146,97,86244,2,0,L|155:9,1,73.199996984253,2|10,1:2|0:2,0:0:0:0:
44,9,86585,2,0,L|36:81,1,73.199996984253,2|0,0:2|1:2,0:0:0:0:
73,184,86925,2,0,L|65:240,3,36.5999984921265,2|0|0|0,3:2|3:2|3:2|3:2,0:0:0:0:
106,259,87266,2,0,L|98:315,3,36.5999984921265,2|0|0|0,3:2|3:2|3:2|3:2,0:0:0:0:
127,343,87607,6,0,P|172:320|227:318,1,73.199996984253,6|0,1:2|0:2,0:0:0:0:
293,363,87948,2,0,P|328:354|359:336,1,73.199996984253,2|0,0:2|0:2,0:0:0:0:
442,263,88289,1,10,0:2:0:0:
334,238,88460,2,0,B|347:144|294:195|315:84,1,146.399993968506,2|0,0:2|0:2,0:0:0:0:
385,15,88971,2,0,L|474:26,1,73.199996984253,2|0,1:2|0:2,0:0:0:0:
465,133,89312,2,0,L|392:124,1,73.199996984253,2|0,0:2|0:2,0:0:0:0:
299,64,89653,1,10,0:2:0:0:
232,151,89823,2,0,P|170:151|130:62,1,146.399993968506,2|0,0:2|0:2,0:0:0:0:
43,12,90335,6,0,P|29:64|28:113,1,73.199996984253,2|0,1:2|0:2,0:0:0:0:
71,183,90675,2,0,P|85:235|86:284,1,73.199996984253,2|0,0:2|0:2,0:0:0:0:
35,351,91016,1,10,0:2:0:0:
141,323,91187,2,0,B|235:302|183:369|299:343,1,146.399993968506,2|0,0:2|0:2,0:0:0:0:
388,335,91698,2,0,P|385:298|395:263,1,73.199996984253,2|0,1:2|0:2,0:0:0:0:
473,185,92039,2,0,P|475:148|465:113,1,73.199996984253,2|0,0:2|0:2,0:0:0:0:
394,29,92380,1,10,0:2:0:0:
394,29,92550,1,8,0:2:0:0:
336,122,92721,1,10,0:2:0:0:
287,23,92891,1,10,0:2:0:0:
230,117,93062,6,0,P|192:134|150:138,1,73.199996984253,6|0,1:2|0:2,0:0:0:0:
52,119,93403,2,0,P|69:157|73:199,1,73.199996984253,2|0,0:2|0:2,0:0:0:0:
37,292,93744,1,10,0:2:0:0:
125,356,93914,2,0,B|228:365|168:318|266:325,1,146.399993968506,2|0,0:2|0:2,0:0:0:0:
364,365,94425,2,0,P|379:326|379:284,1,73.199996984253,2|0,1:2|0:2,0:0:0:0:
302,217,94766,2,0,P|287:178|287:136,1,73.199996984253,2|0,0:2|0:2,0:0:0:0:
354,61,95107,1,10,0:2:0:0:
408,156,95278,2,0,P|461:155|494:65,1,146.399993968506,2|0,0:2|0:2,0:0:0:0:
415,6,95789,6,0,P|371:23|338:29,1,73.199996984253,2|0,1:2|1:2,0:0:0:0:
236,13,96130,1,2,0:2:0:0:
236,13,96300,1,0,0:2:0:0:
165,97,96471,1,10,0:2:0:0:
85,21,96641,2,0,P|77:96|72:185,1,146.399993968506,2|2,0:2|1:2,0:0:0:0:
98,274,97153,1,14,0:2:0:0:
181,203,97323,2,0,P|246:194|337:195,1,146.399993968506,2|2,0:2|0:2,0:0:0:0:
432,227,97835,1,10,0:2:0:0:
350,299,98005,2,0,L|358:347,2,36.5999984921265,10|8|10,0:2|0:2|0:2,0:0:0:0:
326,194,98346,1,10,0:2:0:0:
432,227,98516,6,0,P|441:182|446:94,2,122.40000074707,6|2|10,0:2|0:2|0:2,0:0:0:0:
366,372,99539,2,0,P|336:353|303:348,1,61.2000003735352,2|0,0:2|0:2,0:0:0:0:
232,358,99880,2,0,B|203:189|265:285|237:110,1,244.800001494141,2|10,0:2|0:2,0:0:0:0:
111,19,100903,1,2,0:2:0:0:
17,147,101244,6,0,B|102:126|63:164|150:149,2,122.40000074707,2|2|10,0:2|0:2|0:2,0:0:0:0:
111,19,102266,1,2,0:2:0:0:
238,117,102607,2,8,B|400:121|303:57|476:58,1,244.800001494141,2|10,0:2|0:2,0:0:0:0:
504,130,103460,1,8,0:2:0:0:
504,130,103630,2,0,P|499:167|498:212,1,61.2000003735352,10|8,0:2|0:2,0:0:0:0:
504,270,103971,5,2,0:2:0:0:
504,270,104141,1,2,0:2:0:0:
442,321,104312,2,0,L|312:329,1,122.40000074707,2|10,0:2|0:2,0:0:0:0:
263,272,104823,1,2,0:2:0:0:
263,272,104994,2,0,L|194:266,1,61.2000003735352,2|2,0:2|0:2,0:0:0:0:
137,313,105335,2,0,P|155:260|136:193,2,122.40000074707,2|2|10,0:2|0:2|0:2,0:0:0:0:
238,190,106357,1,2,0:2:0:0:
123,79,106698,6,0,B|177:42|177:42|259:53,2,122.40000074707,2|2|10,1:2|0:2|0:2,0:0:0:0:
19,200,107721,2,0,P|30:233|34:269,1,61.2000003735352,2|2,1:2|0:2,0:0:0:0:
6,334,108062,2,0,P|51:304|129:307,1,122.40000074707,10|10,0:2|0:2,0:0:0:0:
267,359,108744,1,10,0:2:0:0:
311,292,108914,2,0,L|301:249,2,30.6000001867676,8|8|10,0:2|0:2|0:2,0:0:0:0:
371,347,109255,1,8,0:2:0:0:
371,347,109425,6,0,P|405:324|492:321,1,122.40000074707,6|2,1:2|0:2,0:0:0:0:
506,234,109937,1,2,0:2:0:0:
506,234,110107,2,0,P|494:202|490:153,1,61.2000003735352,10|0,0:2|0:0,0:0:0:0:
498,89,110448,2,0,P|469:77|439:72,1,61.2000003735352,2|0,0:2|0:2,0:0:0:0:
373,128,110789,2,0,L|245:115,2,122.40000074707,2|2|10,1:2|0:2|0:2,0:0:0:0:
506,234,111812,1,2,0:2:0:0:
371,347,112153,6,0,P|322:347|268:279,1,122.40000074707,2|2,1:2|0:2,0:0:0:0:
230,222,112664,1,2,0:2:0:0:
177,289,112835,2,0,L|108:286,1,61.2000003735352,10|0,0:2|0:0,0:0:0:0:
84,206,113175,2,0,L|153:203,1,61.2000003735352,2|0,0:2|0:2,0:0:0:0:
230,222,113516,2,0,P|234:163|236:78,2,122.40000074707,2|2|10,1:2|0:2|0:2,0:0:0:0:
177,289,114369,1,8,0:2:0:0:
218,363,114539,2,0,L|297:358,1,61.2000003735352,10|8,0:2|0:2,0:0:0:0:
365,360,114880,6,0,P|354:306|361:228,1,122.40000074707,2|2,1:2|0:2,0:0:0:0:
378,155,115391,1,2,0:2:0:0:
378,155,115562,2,0,P|339:137|300:137,1,61.2000003735352,10|2,0:2|0:2,0:0:0:0:
260,195,115903,2,0,P|221:213|182:213,1,61.2000003735352,2|2,0:2|0:2,0:0:0:0:
145,156,116244,2,0,P|158:221|161:289,2,122.40000074707,2|2|10,1:2|0:2|0:2,0:0:0:0:
68,2,117266,1,2,0:2:0:0:
220,79,117607,6,0,B|285:97|285:97|346:67,1,122.40000074707,2|2,1:2|0:2,0:0:0:0:
406,25,118119,1,2,1:2:0:0:
466,84,118289,2,0,L|459:213,1,122.40000074707,10|2,0:2|1:2,0:0:0:0:
382,359,118971,2,0,L|375:236,1,122.40000074707,10|8,0:2|0:2,0:0:0:0:
334,72,119653,1,10,0:2:0:0:
282,140,119823,2,0,L|285:191,2,30.6000001867676,8|8|8,0:2|0:2|0:2,0:0:0:0:
224,76,120164,1,8,0:2:0:0:
172,148,120335,6,0,B|100:145|137:115|53:118,2,110.399996293945,2|2|2,0:2|0:2|0:2,0:0:0:0:
334,72,121358,1,2,0:2:0:0:
479,172,121699,2,0,P|483:254|470:336,1,165.599994440918,2|2,0:2|0:2,0:0:0:0:
383,351,122380,1,2,0:2:0:0:
383,351,123062,6,0,B|309:341|345:375|261:364,2,110.399996293945,2|2|2,0:2|0:2|0:2,0:0:0:0:
217,288,124085,1,2,0:2:0:0:
391,258,124426,2,0,P|382:175|370:93,1,165.599994440918,2|2,0:2|0:2,0:0:0:0:
341,9,125108,1,2,0:2:0:0:
341,9,125789,6,0,P|313:11|287:19,1,55.1999981469727,2|2,0:2|0:2,0:0:0:0:
319,193,126300,2,0,P|346:190|372:182,1,55.1999981469727,2|2,0:2|0:2,0:0:0:0:
220,91,126812,2,0,P|192:93|166:101,1,55.1999981469727,2|2,0:2|0:2,0:0:0:0:
80,124,127153,2,0,L|90:48,1,55.1999981469727,2|2,0:2|0:2,0:0:0:0:
214,191,127664,2,0,L|206:245,1,55.1999981469727,2|2,0:2|0:2,0:0:0:0:
49,328,128176,2,0,L|56:273,1,55.1999981469727,2|2,0:2|0:2,0:0:0:0:
20,192,128517,5,2,0:2:0:0:
144,67,128858,1,2,0:2:0:0:
268,191,129199,1,2,0:2:0:0:
143,315,129539,1,2,0:2:0:0:
20,192,129880,2,0,P|24:164|37:140,1,55.1999981469727,10|10,0:2|0:2,0:0:0:0:
93,71,130221,2,0,P|117:58|144:53,1,55.1999981469727,10|8,1:2|1:2,0:0:0:0:
231,37,130562,2,0,P|232:92|244:145,1,110.399996293945,2|2,1:2|1:2,0:0:0:0:
278,228,131074,1,2,1:2:0:0:
322,86,131244,6,0,B|448:40|395:126|523:80,1,196.80000300293,2|0,1:2|1:2,0:0:0:0:
242,248,132607,2,0,B|116:202|169:288|41:242,1,196.80000300293,2|2,1:2|1:2,0:0:0:0:
322,86,133971,6,0,P|381:34|492:60,1,196.80000300293,2|2,1:2|1:2,0:0:0:0:
242,248,135335,2,0,P|183:300|72:274,1,196.80000300293,2|2,1:2|1:2,0:0:0:0:
371,169,136699,6,0,L|364:374,1,196.80000300293,2|0,1:2|1:2,0:0:0:0:
75,276,138062,2,0,L|81:79,1,196.80000300293,2|2,1:2|1:2,0:0:0:0:
391,24,139426,6,0,P|403:64|412:126,1,98.4000015014649,6|2,3:2|3:2,0:0:0:0:
395,197,139937,2,0,L|393:228,2,24.6000003753662,0|0|2,0:2|3:2|3:2,0:0:0:0:
309,64,140449,2,0,P|268:67|242:81,1,49.2000007507324,2|0,3:2|0:2,0:0:0:0:
228,91,140704,1,0,3:2:0:0:
228,91,140789,2,0,L|183:97,3,24.6000003753662,2|2|0|0,3:2|3:2|3:2|3:2,0:0:0:0:
175,122,141130,2,0,L|130:128,3,24.6000003753662,2|2|0|0,3:2|3:2|3:2|3:2,0:0:0:0:
122,153,141471,2,0,L|77:159,3,24.6000003753662,2|0|0|0,3:2|3:2|3:2|3:2,0:0:0:0:
69,184,141812,2,0,L|24:190,3,24.6000003753662,2|0|0|0,3:2|3:2|3:2|3:2,0:0:0:0:
11,265,142153,5,6,1:2:0:0:
62,362,142324,1,2,0:2:0:0:
124,273,142494,2,0,P|160:271|203:289,1,73.199996984253,2|2,0:2|0:2,0:0:0:0:
270,358,142835,2,0,P|306:360|347:344,1,73.199996984253,10|2,0:2|0:2,0:0:0:0:
420,272,143176,2,0,B|499:276,1,73.199996984253,2|2,0:2|0:2,0:0:0:0:
498,174,143517,2,0,B|424:170,1,73.199996984253,2|2,1:2|0:2,0:0:0:0:
326,213,143858,1,2,0:2:0:0:
326,213,144028,1,2,0:2:0:0:
270,118,144199,2,0,B|180:111|210:158|123:156,2,146.399993968506,10|2|2,0:2|0:2|1:2,0:0:0:0:
326,213,145051,5,2,0:2:0:0:
270,118,145221,2,0,L|277:45,1,73.199996984253,2|2,0:2|0:2,0:0:0:0:
170,22,145562,2,0,L|162:94,1,73.199996984253,10|2,0:2|0:2,0:0:0:0:
199,198,145903,2,0,L|191:270,1,73.199996984253,2|2,0:2|0:2,0:0:0:0:
251,362,146244,1,2,1:2:0:0:
251,362,146414,1,2,0:2:0:0:
340,297,146585,1,2,0:2:0:0:
340,297,146755,1,2,0:2:0:0:
430,360,146926,2,0,B|452:291|452:291|420:218,2,146.399993968506,10|10|6,0:2|0:2|1:2,0:0:0:0:
277,210,147949,5,2,0:2:0:0:
121,363,148289,2,0,B|99:294|99:294|131:221,1,146.399993968506,10|2,0:2|0:2,0:0:0:0:
267,54,148971,1,2,1:2:0:0:
415,219,149312,1,2,0:2:0:0:
210,138,149653,2,0,L|64:122,1,146.399993968506,10|2,0:2|0:2,0:0:0:0:
193,301,150335,6,0,L|265:292,1,73.199996984253,6|0,1:2|1:2,0:0:0:0:
354,227,150676,2,0,B|353:320|395:270|395:368,2,146.399993968506,2|10|2,0:2|0:2|1:2,0:0:0:0:
424,142,151528,1,2,1:2:0:0:
325,94,151699,2,0,L|251:99,1,73.199996984253,10|2,0:2|0:2,0:0:0:0:
174,21,152039,2,0,P|201:82|198:180,1,146.399993968506,10|10,0:2|0:2,0:0:0:0:
146,256,152551,2,0,L|155:311,2,36.5999984921265,8|8|10,0:2|0:2|0:2,0:0:0:0:
94,158,152892,1,8,0:2:0:0:
36,251,153062,5,6,1:2:0:0:
146,256,153233,1,2,0:2:0:0:
202,160,153403,2,0,P|237:167|267:188,1,73.199996984253,2|2,0:2|0:2,0:0:0:0:
334,275,153744,2,0,P|370:267|400:246,1,73.199996984253,10|2,0:2|0:2,0:0:0:0:
481,172,154085,2,0,L|467:81,1,73.199996984253,2|2,0:2|0:2,0:0:0:0:
396,18,154425,2,0,L|384:90,1,73.199996984253,2|2,1:2|0:2,0:0:0:0:
341,192,154767,1,2,0:2:0:0:
341,192,154937,1,2,0:2:0:0:
263,114,155108,2,0,B|173:94|206:148|110:132,2,146.399993968506,10|2|0,0:2|0:2|1:2,0:0:0:0:
341,192,155960,5,2,0:2:0:0:
384,90,156130,2,0,L|396:18,1,73.199996984253,2|2,0:2|0:2,0:0:0:0:
469,99,156470,2,0,L|481:172,1,73.199996984253,10|2,0:2|0:2,0:0:0:0:
402,250,156812,2,0,L|390:322,1,73.199996984253,2|2,0:2|0:2,0:0:0:0:
299,383,157153,1,2,1:2:0:0:
299,383,157324,1,2,0:2:0:0:
237,292,157494,1,2,0:2:0:0:
237,292,157664,1,2,0:2:0:0:
270,187,157835,2,0,B|195:172|195:172|141:225,2,146.399993968506,10|10|6,0:2|0:2|1:2,0:0:0:0:
411,356,158858,5,2,0:2:0:0:
497,154,159199,2,0,L|478:8,1,146.399993968506,10|2,0:2|0:2,0:0:0:0:
409,217,159880,1,2,1:2:0:0:
289,33,160221,1,2,0:2:0:0:
240,247,160562,2,0,L|95:266,1,146.399993968506,10|2,0:2|0:2,0:0:0:0:
143,52,161244,6,0,L|288:33,1,146.399993968506,12|2,0:2|1:2,0:0:0:0:
397,49,161755,1,8,0:2:0:0:
397,49,161925,2,0,L|378:194,1,146.399993968506,8|10,0:2|0:2,0:0:0:0:
338,297,162437,1,2,0:2:0:0:
240,247,162608,2,0,L|167:254,1,73.199996984253,2|10,1:2|0:2,0:0:0:0:
157,145,162948,2,0,L|229:137,1,73.199996984253,2|0,0:2|1:2,0:0:0:0:
339,151,163289,2,0,L|331:207,3,36.5999984921265,2|0|0|0,3:2|3:2|3:2|3:2,0:0:0:0:
372,226,163630,2,0,L|364:282,3,36.5999984921265,2|0|0|0,3:2|3:2|3:2|3:2,0:0:0:0:
405,301,163971,6,0,P|444:288|501:284,2,91.8000005603027,6|2|2,1:2|0:2|0:2,0:0:0:0:
332,357,164653,2,0,P|293:370|236:374,2,91.8000005603027,10|2|2,0:2|0:2|0:2,0:0:0:0:
405,301,165335,2,0,L|388:198,1,91.8000005603027,2|2,0:2|0:2,0:0:0:0:
360,75,165846,1,2,1:2:0:0:
360,75,166016,2,0,P|327:84|290:84,1,61.2000003735352,10|2,0:2|0:2,0:0:0:0:
210,62,166357,1,2,0:2:0:0:
66,176,166698,6,0,P|74:122|72:60,2,91.8000005603027,2|2|2,1:2|0:2|0:2,0:0:0:0:
51,266,167380,2,0,P|96:273|142:274,2,91.8000005603027,10|2|2,0:2|0:2|0:2,0:0:0:0:
66,176,168062,2,0,P|111:168|157:167,1,91.8000005603027,2|2,0:2|0:2,0:0:0:0:
291,197,168573,1,2,1:2:0:0:
291,197,168744,2,0,P|302:151|306:109,1,61.2000003735352,10|0,0:2|0:2,0:0:0:0:
298,45,169085,1,2,0:2:0:0:
435,165,169425,6,0,L|430:278,2,91.8000005603027,2|2|2,1:2|0:2|0:2,0:0:0:0:
444,73,170107,1,10,0:2:0:0:
444,73,170278,1,2,0:2:0:0:
361,111,170448,2,0,L|283:105,1,61.2000003735352,2|0,0:2|0:0,0:0:0:0:
220,60,170789,2,0,P|175:45|112:44,2,91.8000005603027,2|2|2,0:2|0:2|1:2,0:0:0:0:
299,106,171471,1,10,0:2:0:0:
220,153,171641,1,2,0:2:0:0:
297,203,171812,2,0,L|292:267,1,61.2000003735352,2|2,0:2|0:2,0:0:0:0:
270,304,172067,1,2,0:2:0:0:
270,304,172153,6,0,P|317:295|377:298,2,91.8000005603027,2|2|2,1:2|0:2|0:2,0:0:0:0:
188,347,172835,2,0,P|141:356|81:353,2,91.8000005603027,10|2|2,0:2|0:2|0:2,0:0:0:0:
270,304,173516,2,0,L|265:213,2,91.8000005603027,2|0|0,0:2|0:0|1:0,0:0:0:0:
328,375,174198,1,8,0:2:0:0:
379,298,174369,1,0,3:2:0:0:
449,363,174539,2,0,P|472:313|447:230,1,122.40000074707,2|4,0:2|1:2,0:0:0:0:
413,169,175050,5,2,0:2:0:0:
413,169,175221,2,0,L|415:88,1,61.2000003735352,2|2,0:2|0:2,0:0:0:0:
322,107,175562,2,0,L|320:168,1,61.2000003735352,10|2,0:2|0:2,0:0:0:0:
266,242,175903,2,0,P|233:220|194:217,1,61.2000003735352,2|2,0:2|0:2,0:0:0:0:
139,272,176244,2,0,P|81:296|1:298,1,122.40000074707,2|2,0:2|0:2,0:0:0:0:
11,209,176755,1,2,1:2:0:0:
11,209,176925,2,0,P|16:171|17:119,1,61.2000003735352,10|0,0:2|0:0,0:0:0:0:
14,56,177266,1,2,0:2:0:0:
14,56,177437,2,0,P|57:47|88:47,1,61.2000003735352,0|0,0:2|1:2,0:0:0:0:
145,104,177778,5,2,0:2:0:0:
205,35,177948,2,0,L|292:40,1,61.2000003735352,2|2,0:2|0:2,0:0:0:0:
329,105,178289,2,0,L|390:101,1,61.2000003735352,10|2,0:2|0:2,0:0:0:0:
478,75,178630,2,0,P|487:119|490:156,1,61.2000003735352,2|2,0:2|0:2,0:0:0:0:
488,227,178971,2,0,P|436:202|353:202,1,122.40000074707,2|2,0:2|0:2,0:0:0:0:
295,249,179482,1,2,1:2:0:0:
295,249,179653,2,0,L|223:243,1,61.2000003735352,10|0,0:2|0:0,0:0:0:0:
162,301,179994,2,0,P|115:302|88:222,1,122.40000074707,0|0,0:2|1:2,0:0:0:0:
126,161,180505,5,2,0:2:0:0:
126,161,180675,2,0,L|119:79,1,61.2000003735352,2|2,0:2|0:2,0:0:0:0:
170,22,181016,2,0,P|217:16|244:15,1,61.2000003735352,10|2,0:2|0:2,0:0:0:0:
295,80,181357,2,0,P|342:86|369:87,1,61.2000003735352,2|2,0:2|0:2,0:0:0:0:
424,25,181698,2,0,P|466:28|508:104,1,122.40000074707,2|2,0:2|0:2,0:0:0:0:
490,180,182210,1,0,1:2:0:0:
490,180,182380,2,0,P|486:251|482:324,1,122.40000074707,10|2,0:2|0:2,0:0:0:0:
410,358,182891,2,0,P|375:343|343:339,1,61.2000003735352,2|0,0:2|1:2,0:0:0:0:
262,359,183232,6,0,P|218:351|173:285,1,122.40000074707,2|0,0:2|0:2,0:0:0:0:
162,199,183744,1,10,0:2:0:0:
162,199,183914,1,2,0:2:0:0:
246,235,184085,2,0,P|289:228|324:208,1,61.2000003735352,2|0,0:2|0:0,0:0:0:0:
359,147,184425,2,0,P|418:124|491:144,2,122.40000074707,2|2|10,0:2|0:2|0:2,0:0:0:0:
304,220,185278,1,0,3:2:0:0:
304,220,185448,2,0,P|314:251|321:296,2,61.2000003735352,0|0|0,3:2|3:2|3:2,0:0:0:0:
256,192,193971,12,8,194994,0:2:0:0:
87,86,195335,6,0,L|91:174,1,67.2000008203125,12|0,0:2|1:2,0:0:0:0:
129,245,195675,1,12,0:2:0:0:
191,165,195846,1,0,1:2:0:0:
191,165,195931,1,0,1:2:0:0:
191,165,196016,2,0,L|272:172,1,67.2000008203125,12|0,0:2|1:2,0:0:0:0:
329,242,196357,2,0,L|395:236,1,67.2000008203125,8|0,0:2|1:2,0:0:0:0:
479,153,196698,5,6,1:2:0:0:
497,269,196869,1,2,1:2:0:0:
392,309,197039,2,0,B|396:230,1,73.199996984253,10|2,0:2|0:2,0:0:0:0:
312,152,197380,2,0,B|316:73,1,73.199996984253,2|2,1:2|1:2,0:0:0:0:
198,78,197721,2,0,B|194:151,1,73.199996984253,10|2,0:2|0:2,0:0:0:0:
111,234,198062,2,0,B|107:307,1,73.199996984253,2|2,1:2|1:2,0:0:0:0:
205,371,198403,1,10,0:2:0:0:
205,371,198573,1,2,0:2:0:0:
288,287,198744,2,0,B|385:251|346:319|446:289,2,146.399993968506,2|10|2,1:2|0:2|1:2,0:0:0:0:
205,371,199596,5,2,1:2:0:0:
107,307,199766,2,0,B|111:234,1,73.199996984253,10|2,0:2|0:2,0:0:0:0:
194,150,200107,2,0,B|197:76,1,73.199996984253,2|2,1:2|1:2,0:0:0:0:
315,78,200448,2,0,B|311:151,1,73.199996984253,10|2,0:2|0:2,0:0:0:0:
272,262,200789,1,2,1:2:0:0:
272,262,200959,1,2,1:2:0:0:
382,223,201130,1,10,0:2:0:0:
382,223,201300,1,2,0:2:0:0:
472,298,201471,2,0,B|499:231|499:231|479:160,2,146.399993968506,2|10|0,1:2|0:2|1:2,0:0:0:0:
382,223,202323,1,0,1:2:0:0:
346,334,202494,5,10,0:2:0:0:
325,100,202835,2,0,P|283:89|232:90,1,73.199996984253,2|0,1:2|1:2,0:0:0:0:
143,125,203175,1,10,0:2:0:0:
349,236,203516,2,0,P|307:247|256:246,1,73.199996984253,2|0,1:2|1:2,0:0:0:0:
167,211,203856,1,10,0:2:0:0:
360,77,204198,2,0,L|530:95,1,146.399993968506,2|10,1:2|0:2,0:0:0:0:
281,20,204880,6,0,L|200:30,1,73.199996984253,6|0,1:2|1:2,0:0:0:0:
154,133,205221,2,0,B|61:134|111:92|13:92,2,146.399993968506,10|2|10,0:2|1:2|0:2,0:0:0:0:
208,28,206073,1,2,0:2:0:0:
272,126,206244,1,14,0:2:0:0:
154,133,206414,1,2,1:2:0:0:
222,227,206584,2,0,P|283:254|381:251,1,146.399993968506,10|10,0:2|0:2,0:0:0:0:
478,240,207096,2,0,L|469:295,2,36.5999984921265,0|0|2,1:2|3:0|1:2,0:0:0:0:
408,145,207437,1,0,1:0:0:0:
361,255,207607,5,6,1:2:0:0:
478,240,207778,1,2,1:2:0:0:
408,145,207948,2,0,P|370:121|320:119,1,73.199996984253,10|2,0:2|0:2,0:0:0:0:
259,199,208289,2,0,P|223:191|193:170,1,73.199996984253,2|2,1:2|1:2,0:0:0:0:
92,110,208630,2,0,L|94:197,1,73.199996984253,10|2,0:2|0:2,0:0:0:0:
10,266,208971,2,0,L|12:353,1,73.199996984253,2|2,1:2|1:2,0:0:0:0:
117,288,209312,1,10,0:2:0:0:
117,288,209482,1,2,0:2:0:0:
212,356,209653,2,0,B|302:376|269:322|365:338,2,146.399993968506,2|10|2,1:2|0:2|1:2,0:0:0:0:
117,288,210505,5,2,1:2:0:0:
181,190,210675,2,0,P|221:174|268:169,1,73.199996984253,10|2,0:2|0:2,0:0:0:0:
341,243,211016,2,0,P|381:259|428:264,1,73.199996984253,2|2,1:2|1:2,0:0:0:0:
435,148,211357,2,0,P|395:132|348:127,1,73.199996984253,10|2,0:2|0:2,0:0:0:0:
250,169,211698,1,2,1:2:0:0:
250,169,211869,1,2,1:2:0:0:
294,60,212039,1,10,0:2:0:0:
294,60,212209,1,2,0:2:0:0:
183,101,212380,2,0,B|108:116|108:116|54:63,2,146.399993968506,2|10|0,1:2|0:2|1:2,0:0:0:0:
294,60,213232,1,0,1:2:0:0:
250,169,213403,5,10,0:2:0:0:
58,67,213744,2,0,L|64:162,1,73.199996984253,2|0,1:2|1:2,0:0:0:0:
18,248,214085,1,10,0:2:0:0:
203,105,214425,2,0,L|197:200,1,73.199996984253,2|0,1:2|1:2,0:0:0:0:
243,286,214766,1,10,0:2:0:0:
319,64,215107,2,0,L|328:216,1,146.399993968506,2|10,1:2|0:2,0:0:0:0:
491,372,215789,6,0,P|499:318|500:264,1,73.199996984253,6|0,1:2|1:2,0:0:0:0:
433,202,216130,2,0,P|425:148|424:94,1,73.199996984253,10|0,0:2|0:2,0:0:0:0:
509,48,216471,2,0,P|465:75|364:75,1,146.399993968506,2|10,1:2|0:2,0:0:0:0:
270,19,216982,1,2,0:2:0:0:
186,102,217153,2,0,L|178:174,1,73.199996984253,14|2,0:2|1:2,0:0:0:0:
95,91,217494,2,0,L|87:163,1,73.199996984253,10|0,0:2|1:2,0:0:0:0:
22,261,217835,1,10,0:2:0:0:
22,261,218005,1,0,1:2:0:0:
67,368,218175,1,2,1:2:0:0:
67,368,218346,1,0,1:0:0:0:
156,293,218516,6,0,L|252:300,1,73.199996984253,6|0,1:2|1:2,0:0:0:0:
330,357,218857,2,0,L|426:350,1,73.199996984253,10|0,0:2|0:2,0:0:0:0:
503,291,219198,1,2,1:2:0:0:
404,226,219369,2,0,P|389:166|394:53,1,146.399993968506,2|0,1:2|0:2,0:0:0:0:
293,13,219880,2,0,L|289:102,1,73.199996984253,2|0,1:2|1:2,0:0:0:0:
193,19,220221,2,0,L|189:108,1,73.199996984253,10|0,0:2|0:2,0:0:0:0:
113,181,220562,1,2,1:2:0:0:
19,111,220732,2,0,L|23:284,1,146.399993968506,2|0,0:2|0:2,0:0:0:0:
89,354,221244,6,0,P|131:333|188:328,1,73.199996984253,2|0,1:2|1:2,0:0:0:0:
265,371,221585,2,0,P|300:362|332:344,1,73.199996984253,10|0,0:2|0:2,0:0:0:0:
410,257,221925,1,2,1:2:0:0:
489,343,222096,2,0,P|499:272|494:172,1,146.399993968506,2|0,1:2|0:2,0:0:0:0:
483,80,222607,2,0,P|447:65|403:64,1,73.199996984253,2|0,1:2|1:2,0:0:0:0:
330,145,222948,2,0,P|294:160|250:161,1,73.199996984253,10|0,0:2|0:2,0:0:0:0:
188,69,223289,1,2,1:2:0:0:
127,169,223460,1,2,0:2:0:0:
47,83,223630,1,10,0:2:0:0:
47,83,223800,1,2,0:2:0:0:
2,191,223971,6,0,P|13:242|17:288,1,73.199996984253,2|0,1:2|1:2,0:0:0:0:
85,357,224312,2,0,P|90:320|98:285,1,73.199996984253,10|0,0:2|0:2,0:0:0:0:
199,224,224653,1,2,1:2:0:0:
250,328,224823,2,0,B|336:303|302:363|400:341,1,146.399993968506,2|0,1:2|0:2,0:0:0:0:
502,306,225335,2,0,P|488:257|490:204,1,73.199996984253,2|0,1:2|1:2,0:0:0:0:
504,119,225675,2,0,P|500:82|488:48,1,73.199996984253,10|0,0:2|0:2,0:0:0:0:
378,8,226016,1,2,1:2:0:0:
358,123,226187,2,0,P|285:123|251:55,1,146.399993968506,2|0,0:2|0:2,0:0:0:0:
145,14,226698,6,0,P|151:60|155:115,1,73.199996984253,6|0,1:2|1:2,0:0:0:0:
52,26,227039,2,0,P|58:72|62:127,1,73.199996984253,10|0,0:2|0:2,0:0:0:0:
19,209,227380,1,2,1:2:0:0:
100,292,227550,2,0,B|186:289|147:248|241:250,1,146.399993968506,2|2,0:2|0:2,0:0:0:0:
320,333,228062,1,6,1:2:0:0:
402,250,228232,2,0,P|418:204|416:98,1,146.399993968506,2|0,3:2|3:2,0:0:0:0:
399,68,228658,1,0,3:2:0:0:
399,68,228744,2,0,B|313:49|347:109|233:100,1,146.399993968506,2|2,3:2|3:2,0:0:0:0:
160,23,229255,1,2,3:2:0:0:
90,116,229425,6,0,P|103:166|106:217,1,73.199996984253,6|0,1:2|1:2,0:0:0:0:
185,273,229766,2,0,P|190:236|200:201,1,73.199996984253,10|0,0:2|0:2,0:0:0:0:
261,100,230107,1,2,1:2:0:0:
317,202,230278,2,0,P|369:194|392:104,1,146.399993968506,2|0,1:2|0:2,0:0:0:0:
477,28,230789,2,0,L|493:113,1,73.199996984253,2|0,1:2|1:2,0:0:0:0:
487,217,231130,2,0,L|471:302,1,73.199996984253,10|0,0:2|0:2,0:0:0:0:
387,369,231471,1,2,1:2:0:0:
296,294,231641,2,0,B|200:296|260:346|148:358,1,146.399993968506,2|0,0:2|0:2,0:0:0:0:
67,294,232153,6,0,P|57:246|61:205,1,73.199996984253,2|0,1:2|1:2,0:0:0:0:
168,183,232494,2,0,P|178:135|174:94,1,73.199996984253,10|0,0:2|0:2,0:0:0:0:
117,9,232835,1,2,1:2:0:0:
231,32,233005,2,0,P|306:36|385:39,1,146.399993968506,2|0,1:2|0:2,0:0:0:0:
492,17,233516,2,0,P|483:49|475:120,1,73.199996984253,2|0,1:2|1:2,0:0:0:0:
369,137,233857,2,0,P|378:169|386:240,1,73.199996984253,10|0,0:2|0:2,0:0:0:0:
394,325,234198,1,2,1:2:0:0:
394,325,234369,1,2,0:2:0:0:
492,261,234539,1,10,0:2:0:0:
384,209,234710,1,2,0:2:0:0:
394,325,234880,6,0,P|345:322|291:312,1,73.199996984253,2|0,1:2|1:2,0:0:0:0:
228,246,235221,2,0,P|179:249|125:259,1,73.199996984253,10|0,0:2|0:2,0:0:0:0:
60,321,235562,1,2,1:2:0:0:
37,206,235732,2,0,B|54:113|3:161|28:44,1,146.399993968506,2|0,1:2|0:2,0:0:0:0:
128,7,236244,2,0,L|214:14,1,73.199996984253,2|0,1:2|1:2,0:0:0:0:
267,110,236585,2,0,L|339:104,1,73.199996984253,10|0,0:2|0:2,0:0:0:0:
429,29,236925,1,2,1:2:0:0:
499,122,237096,2,0,L|492:282,1,146.399993968506,2|0,0:2|0:2,0:0:0:0:
410,351,237607,6,0,L|399:266,1,73.199996984253,6|8,1:2|1:2,0:0:0:0:
379,244,237863,1,8,0:2:0:0:
379,244,237948,2,0,P|334:225|286:226,1,73.199996984253,10|0,0:2|0:2,0:0:0:0:
227,306,238289,1,2,1:2:0:0:
143,222,238460,2,0,P|122:161|157:72,1,146.399993968506,2|2,0:2|0:2,0:0:0:0:
227,2,238971,1,2,1:2:0:0:
307,86,239141,2,0,P|330:154|309:222,1,146.399993968506,2|0,3:2|3:2,0:0:0:0:
294,258,239567,1,0,3:2:0:0:
294,258,239653,2,0,P|341:257|390:258,1,73.199996984253,2|2,3:2|3:2,0:0:0:0:
370,374,239994,2,0,P|323:375|274:374,1,73.199996984253,2|2,3:2|3:2,0:0:0:0:
197,313,240335,6,0,P|192:274|195:192,1,110.399996293945,2|2,0:2|0:2,0:0:0:0:
199,120,240846,1,2,0:2:0:0:
199,120,241016,2,0,P|143:108|84:110,1,110.399996293945,2|2,0:2|0:2,0:0:0:0:
84,192,241528,2,0,P|140:204|199:202,1,110.399996293945,2|2,0:2|0:2,0:0:0:0:
268,168,242039,2,0,P|324:156|383:158,2,110.399996293945,2|2|2,0:2|0:2|0:2,0:0:0:0:
113,291,243062,1,2,0:2:0:0:
256,192,243147,12,0,245789,0:2:0:0:
