osu file format v14

[General]
AudioFilename: audio.mp3
AudioLeadIn: 0
PreviewTime: 218516
Countdown: 0
SampleSet: Soft
StackLeniency: 0.6
Mode: 0
LetterboxInBreaks: 0
WidescreenStoryboard: 1

[Editor]
DistanceSpacing: 1.5
BeatDivisor: 3
GridSize: 32
TimelineZoom: 4.399998

[Metadata]
Title:Dionysus
TitleUnicode:Dionysus
Artist:BTS
ArtistUnicode:방탄소년단
Creator:DeRandom Otaku
Version:Frontier's Expert
Source:
Tags:map of the soul persona album 起 承 轉 her tear wonder beyond the scene bangtan boys sonyeondan bangtansonyeondan bulletproof boy scouts 슈가 진 제이홉 지민 뷔 정국 jungkook rm j-hope jimin v suga jin hot yoongi k-pop kpop korean pop ren KittyAdventure -_frontier_- frontier gokugohan12468
BeatmapID:2086063
BeatmapSetID:971842

[Difficulty]
HPDrainRate:6
CircleSize:3.8
OverallDifficulty:8.2
ApproachRate:9
SliderMultiplier:1.5
SliderTickRate:1

[Events]
//Background and Video events
0,0,"dionysus.jpg",0,0
//Break Periods
2,188005,190524
//Storyboard Layer 0 (Background)
//Storyboard Layer 1 (Fail)
//Storyboard Layer 2 (Pass)
//Storyboard Layer 3 (Foreground)
//Storyboard Sound Samples

[TimingPoints]
335,340.909090909091,4,2,0,40,1,0
335,-200,4,2,0,40,0,0
11244,-200,4,2,0,50,0,0
16698,-133.333333333333,4,2,0,55,0,0
17550,-133.333333333333,4,2,0,55,0,0
17891,-133.333333333333,4,2,0,55,0,0
19425,-100,4,2,0,55,0,0
20789,-100,4,2,0,60,0,0
22153,-83.3333333333333,4,2,0,70,0,0
43971,-100,4,2,0,55,0,0
54880,-133.333333333333,4,2,0,55,0,0
64425,-100,4,2,0,80,0,0
65789,-74.0740740740741,4,2,0,80,0,1
86925,-74.0740740740741,4,2,0,80,0,0
87607,-74.0740740740741,4,2,0,80,0,1
98516,-100,4,2,0,60,0,0
103971,-83.3333333333333,4,2,0,60,0,0
120335,-100,4,2,0,55,0,0
131244,-133.333333333333,4,2,0,55,0,0
140789,-100,4,2,0,80,0,0
142153,-74.0740740740741,4,2,0,80,0,1
163971,-83.3333333333333,4,2,0,60,0,0
191244,-83.3333333333333,4,2,0,40,0,0
191925,-83.3333333333333,4,2,0,45,0,0
192607,-83.3333333333333,4,2,0,50,0,0
193289,-83.3333333333333,4,2,0,55,0,0
193971,-83.3333333333333,4,2,0,60,0,0
194653,-83.3333333333333,4,2,0,65,0,0
195164,-83.3333333333333,4,2,0,5,0,0
195335,-83.3333333333333,4,2,0,65,0,0
196698,-74.0740740740741,4,2,0,85,0,1
217153,-74.0740740740741,4,2,0,85,0,0
218516,-74.0740740740741,4,2,0,90,0,1
240335,-133.333333333333,4,2,0,60,0,0
245789,-133.333333333333,4,2,0,5,0,0

[Colours]
Combo1 : 128,128,255
Combo2 : 255,128,128
Combo3 : 237,193,63
Combo4 : 173,90,90

[HitObjects]
73,317,335,6,0,B|147:344|211:284|206:222|206:222|195:260|163:281,1,262.5,2|2,0:2|0:2,0:0:0:0:
64,236,1698,2,0,L|44:389,1,150,2|0,0:2|0:2,0:0:0:0:
12,97,2891,5,2,0:2:0:0:
12,97,3062,2,0,B|158:118|104:2|260:22,1,262.5,2|2,0:2|0:2,0:0:0:0:
325,86,4425,2,0,P|289:96|255:110,1,75,2|2,0:2|0:2,0:0:0:0:
432,34,5107,1,0,0:2:0:0:
432,34,5278,2,0,P|466:48|502:58,1,75,2|2,0:2|0:2,0:0:0:0:
406,127,5789,6,0,B|361:155|338:230|391:318|504:281|494:195|451:180|428:187,1,262.5,2|2,0:2|0:2,0:0:0:0:
344,214,7153,2,0,B|265:201|289:250|196:235,1,150,2|0,0:2|0:2,0:0:0:0:
53,23,8345,5,2,0:2:0:0:
65,34,8516,2,0,L|50:119,1,75,2|2,0:2|0:2,0:0:0:0:
199,235,9369,2,0,L|184:320,1,75,2|0,0:2|0:2,0:0:0:0:
134,363,9880,5,10,0:2:0:0:
399,191,10050,1,10,0:2:0:0:
139,78,10221,5,0,1:2:0:0:
266,276,10391,1,0,1:2:0:0:
352,83,10562,5,2,1:2:0:0:
202,178,10732,1,0,1:2:0:0:
349,243,10903,5,2,1:2:0:0:
277,130,11073,1,2,1:2:0:0:
266,276,11244,6,0,B|103:293|208:144|0:173,1,300,6|2,1:2|0:2,0:0:0:0:
491,27,13971,6,0,B|426:45|381:60|381:60|408:173|424:258,1,300,6|2,1:2|0:2,0:0:0:0:
170,131,16698,6,0,P|198:177|221:73,1,225.000008583069,6|2,1:2|0:2,0:0:0:0:
72,35,17721,5,0,0:0:0:0:
72,35,17891,2,0,P|65:93|57:161,1,112.500004291535,0|0,0:2|0:2,0:0:0:0:
42,137,18403,2,0,P|49:195|57:263,1,112.500004291535,2|10,0:2|0:2,0:0:0:0:
68,318,18914,5,10,0:2:0:0:
294,212,19085,1,10,0:2:0:0:
128,152,19255,1,0,1:2:0:0:
234,378,19425,6,0,P|321:353|389:348,1,150,6|2,1:2|3:2,0:0:0:0:
454,313,19880,2,0,P|485:321|520:345,1,50,0|0,3:2|3:2,0:0:0:0:
386,228,20107,6,0,P|312:220|276:149,1,150,2|0,3:2|3:2,0:0:0:0:
369,102,20562,2,0,P|360:126|357:151,1,50,0|0,0:0|0:0,0:0:0:0:
131,18,20789,6,0,P|145:40|156:82,3,37.5,2|0|0|2,3:2|0:0|3:2|3:2,0:0:0:0:
251,57,21130,2,0,P|240:72|232:89,3,37.5,0|0|2|0,3:2|3:2|3:2|3:2,3:3:0:0:
101,187,21471,5,2,3:2:0:0:
101,187,21556,1,0,3:0:0:0:
101,187,21641,2,0,L|37:175,1,37.5,2|0,3:2|3:0,0:0:0:0:
236,258,21812,6,0,L|300:246,3,37.5,2|0|2|0,3:2|3:2|3:2|3:2,0:0:0:0:
146,348,22153,6,0,B|36:333|113:269|-31:258,1,179.999994506836,6|2,1:2|0:2,0:0:0:0:
192,160,22664,1,0,0:2:0:0:
237,383,22835,2,0,P|288:376|324:345,1,89.9999972534181,10|0,0:2|0:0,0:0:0:0:
173,134,23175,5,2,0:2:0:0:
142,265,23346,1,2,0:2:0:0:
304,165,23516,6,0,P|354:145|401:157,1,89.9999972534181,2|2,1:2|0:2,0:0:0:0:
273,296,23857,1,2,0:2:0:0:
227,68,24028,2,0,P|177:48|130:60,1,89.9999972534181,2|8,0:2|0:2,0:0:0:0:
255,315,24369,5,2,0:2:0:0:
337,60,24539,1,0,0:0:0:0:
160,164,24710,1,2,0:2:0:0:
360,230,24880,6,0,P|402:215|461:210,1,89.9999972534181,2|0,1:2|0:2,0:0:0:0:
255,315,25221,2,0,P|210:309|168:294,1,89.9999972534181,2|0,0:2|0:2,0:0:0:0:
271,140,25562,5,10,0:2:0:0:
389,355,25732,1,2,0:2:0:0:
347,87,25903,5,2,0:2:0:0:
198,384,26073,1,2,0:2:0:0:
96,91,26244,6,0,B|199:101|158:39|265:48,1,179.999994506836,2|2,1:2|0:2,0:0:0:0:
148,213,26755,2,0,P|111:196|57:192,1,89.9999972534181,2|8,0:2|0:2,0:0:0:0:
241,131,27096,1,10,0:2:0:0:
255,315,27266,1,10,0:2:0:0:
211,115,27437,1,10,0:2:0:0:
363,230,27607,6,0,P|408:232|446:209,1,89.9999972534181,2|0,1:2|0:2,0:0:0:0:
235,34,27948,2,0,P|190:32|152:55,1,89.9999972534181,2|0,0:2|0:2,0:0:0:0:
387,149,28289,2,0,L|398:40,1,89.9999972534181,10|0,0:2|0:2,0:0:0:0:
229,293,28630,1,2,0:2:0:0:
211,115,28800,2,0,L|220:204,1,89.9999972534181,2|0,0:2|1:2,0:0:0:0:
307,67,29141,5,2,0:2:0:0:
128,134,29312,1,2,0:2:0:0:
363,230,29482,1,2,0:2:0:0:
184,297,29653,6,0,P|137:290|105:261,1,89.9999972534181,10|0,0:2|0:0,0:0:0:0:
297,183,29994,2,0,P|330:154|374:148,1,89.9999972534181,2|0,0:2|0:0,0:0:0:0:
240,376,30335,5,0,1:2:0:0:
240,376,30505,2,0,P|229:316|209:187,1,179.999994506836,2|2,1:2|0:2,0:0:0:0:
322,97,31016,2,0,P|304:141|296:191,1,89.9999972534181,10|2,0:2|0:2,0:0:0:0:
137,67,31357,1,2,1:2:0:0:
210,198,31528,1,2,1:2:0:0:
96,160,31698,6,0,P|55:142|9:139,1,89.9999972534181,14|2,1:2|0:2,0:0:0:0:
187,298,32039,2,0,P|231:295|272:277,1,89.9999972534181,10|2,0:2|0:2,0:0:0:0:
154,78,32380,1,10,0:2:0:0:
32,288,32550,1,8,0:2:0:0:
32,288,32636,1,8,0:2:0:0:
32,288,32721,1,10,0:2:0:0:
256,192,32891,1,8,0:2:0:0:
32,96,33062,5,0,1:2:0:0:
192,320,33232,2,0,P|246:307|287:308,1,89.9999972534181,2|2,0:2|0:2,0:0:0:0:
154,78,33573,5,2,0:2:0:0:
88,239,33744,2,0,P|43:237|0:226,1,89.9999972534181,10|2,0:2|0:2,0:0:0:0:
98,17,34085,5,2,0:2:0:0:
192,224,34255,1,2,0:2:0:0:
288,0,34425,5,2,1:2:0:0:
102,148,34596,1,2,0:2:0:0:
342,189,34766,5,2,0:2:0:0:
154,78,34937,1,2,0:2:0:0:
139,279,35107,6,0,P|130:324|140:370,1,89.9999972534181,10|0,0:2|0:2,0:0:0:0:
355,202,35448,2,0,B|307:212|271:180|271:180|235:148|188:158,1,179.999994506836,2|0,0:2|1:2,0:0:0:0:
318,369,35960,5,2,0:2:0:0:
318,369,36045,1,2,0:2:0:0:
318,369,36130,2,0,L|328:278,1,89.9999972534181,2|2,0:2|0:2,0:0:0:0:
352,64,36471,1,10,0:2:0:0:
212,239,36641,1,2,0:2:0:0:
232,26,36812,5,2,0:2:0:0:
327,279,36982,1,2,0:2:0:0:
188,157,37153,6,0,P|146:141|101:142,1,89.9999972534181,2|2,1:2|0:2,0:0:0:0:
297,365,37494,2,0,P|341:366|383:350,1,89.9999972534181,2|2,0:2|0:2,0:0:0:0:
271,102,37835,5,10,0:2:0:0:
180,334,38005,1,8,0:2:0:0:
254,80,38175,5,10,0:2:0:0:
297,365,38346,1,8,0:2:0:0:
187,156,38516,6,0,P|146:141|101:142,1,89.9999972534181,2|0,1:2|0:2,0:0:0:0:
311,377,38857,1,2,0:2:0:0:
324,156,39028,2,0,P|365:141|410:142,1,89.9999972534181,2|8,0:2|0:2,0:0:0:0:
201,377,39369,5,2,0:2:0:0:
136,218,39539,1,2,0:2:0:0:
327,279,39710,1,2,0:2:0:0:
96,320,39880,5,2,1:2:0:0:
313,178,40050,1,2,0:2:0:0:
90,124,40221,1,2,0:2:0:0:
243,296,40391,2,0,P|287:298|327:278,1,89.9999972534181,2|8,0:2|0:2,0:0:0:0:
176,68,40732,5,2,0:2:0:0:
96,320,40903,1,2,0:2:0:0:
271,213,41073,1,2,0:2:0:0:
90,124,41244,6,0,P|72:82|73:38,1,89.9999972534181,6|2,1:2|1:2,0:0:0:0:
185,230,41585,1,2,0:2:0:0:
299,140,41755,2,0,P|317:98|316:54,1,89.9999972534181,2|8,1:2|0:2,0:0:0:0:
173,251,42096,5,2,0:2:0:0:
224,77,42266,1,2,1:2:0:0:
311,276,42437,1,2,1:2:0:0:
146,154,42607,6,0,P|103:145|50:140,1,89.9999972534181,10|2,0:2|0:2,0:0:0:0:
265,369,42948,2,0,P|309:364|353:355,1,89.9999972534181,10|2,0:2|0:2,0:0:0:0:
230,64,43289,5,8,0:2:0:0:
120,356,43460,1,8,0:2:0:0:
120,356,43545,1,8,0:2:0:0:
120,356,43630,1,10,0:2:0:0:
320,192,43800,1,8,0:2:0:0:
58,139,43971,6,0,P|47:178|45:219,1,75,2|2,0:2|0:2,0:0:0:0:
136,194,44312,2,0,P|138:231|149:267,1,75,2|2,0:2|0:2,0:0:0:0:
216,326,44653,2,0,P|247:311|293:309,1,75,2|2,0:2|0:2,0:0:0:0:
330,239,44994,2,0,P|362:258|408:260,1,75,2|2,0:2|0:2,0:0:0:0:
491,151,45335,6,0,B|449:168|417:184|417:184|433:259|441:334,1,225,2|2,0:2|0:2,0:0:0:0:
512,373,46016,2,0,P|524:298|537:224,1,150,2|2,0:2|0:2,0:0:0:0:
424,47,46698,6,0,P|385:48|351:63,1,75,2|2,0:2|0:2,0:0:0:0:
292,111,47039,2,0,P|254:110|220:95,1,75,2|2,0:2|0:2,0:0:0:0:
135,123,47380,2,0,P|128:77|128:32,1,75,2|2,0:2|0:2,0:0:0:0:
56,128,47721,2,0,P|63:174|63:219,1,75,2|2,0:2|0:2,0:0:0:0:
13,293,48062,6,0,B|152:263|93:372|233:342,1,225,2|2,0:2|0:2,0:0:0:0:
322,267,48744,2,0,B|295:282|266:297|266:297|278:347|286:381,1,150,2|2,0:2|0:2,0:0:0:0:
448,128,49425,5,2,0:2:0:0:
448,128,49596,2,0,P|433:200|418:300,1,150,2|2,0:2|0:2,0:0:0:0:
321,31,50107,2,0,P|336:103|351:203,1,150,2|2,0:2|0:2,0:0:0:0:
255,126,50619,1,2,0:2:0:0:
229,280,50789,5,2,0:2:0:0:
229,280,50960,2,0,P|176:238|93:231,1,150,2|2,0:2|0:2,0:0:0:0:
286,384,51471,2,0,P|359:378|418:334,1,150,2|2,0:2|0:2,0:0:0:0:
343,268,51982,1,2,0:2:0:0:
488,383,52153,6,0,P|504:299|515:217,1,150,2|2,0:2|0:2,0:0:0:0:
318,120,52835,2,0,P|328:194|343:268,1,150,2|2,0:2|0:2,0:0:0:0:
354,282,53516,5,10,0:2:0:0:
44,347,53686,1,10,0:2:0:0:
148,85,53857,5,10,1:2:0:0:
199,313,54027,1,8,1:2:0:0:
1,238,54198,5,2,1:2:0:0:
175,199,54368,1,0,1:2:0:0:
117,349,54539,5,2,1:2:0:0:
88,218,54709,1,2,1:2:0:0:
199,313,54880,6,0,P|287:323|377:225,1,225.000008583069,2|0,1:2|1:2,0:0:0:0:
377,226,55903,2,0,P|371:261|371:290,1,56.2500021457673,2|2,0:2|0:2,0:0:0:0:
491,195,56244,2,0,B|424:184|464:156|385:147,1,112.500004291535,2|2,1:2|0:2,0:0:0:0:
236,57,56925,2,0,P|297:49|353:7,1,112.500004291535,2|2,1:2|0:2,0:0:0:0:
198,193,57607,6,0,B|198:125|131:94|70:105|70:105|83:173,1,225.000008583069,2|2,1:2|1:2,0:0:0:0:
85,159,58630,2,0,P|80:188|76:225,1,56.2500021457673,2|2,0:2|0:2,0:0:0:0:
29,294,58971,2,0,B|101:281|79:321|156:310,1,112.500004291535,2|2,1:2|0:2,0:0:0:0:
318,338,59653,2,0,P|274:333|224:380,1,112.500004291535,2|2,1:2|0:2,0:0:0:0:
392,381,60164,1,2,0:2:0:0:
392,381,60335,6,0,P|351:318|329:148,1,225.000008583069,2|0,1:2|1:2,0:0:0:0:
315,176,61357,2,0,P|321:149|334:125,1,56.2500021457673,2|2,0:2|0:2,0:0:0:0:
397,81,61698,2,0,P|342:73|286:67,1,112.500004291535,2|2,1:2|0:2,0:0:0:0:
109,185,62380,2,0,P|142:144|202:139,1,112.500004291535,2|2,1:2|0:2,0:0:0:0:
384,288,63062,5,6,3:2:0:0:
198,137,63403,2,0,P|210:176|215:213,1,56.2500021457673,2|0,3:2|0:0,0:0:0:0:
216,228,63658,1,0,3:2:0:0:
216,228,63744,1,2,3:2:0:0:
298,376,64085,6,0,P|263:376|236:367,1,56.2500021457673,0|0,3:2|3:2,3:2:0:0:
216,345,64340,1,0,3:2:0:0:
216,345,64425,2,0,P|190:333|151:328,3,37.5,2|2|0|0,3:2|3:2|3:2|3:2,0:0:0:0:
256,272,64766,2,0,P|273:266|290:257,3,37.5,2|2|0|0,3:2|3:2|3:2|3:2,0:0:0:0:
102,368,65107,5,2,3:2:0:0:
102,368,65192,1,0,3:2:0:0:
102,368,65278,2,0,L|93:311,1,37.5,0|0,3:2|3:2,0:0:0:0:
243,193,65448,5,2,3:2:0:0:
243,193,65533,1,0,3:0:0:0:
243,193,65619,2,0,L|252:136,1,37.5,0|0,3:0|3:0,0:0:0:0:
140,71,65789,6,0,P|184:65|238:22,1,101.250000386238,6|2,1:2|0:2,0:0:0:0:
384,128,66130,1,2,0:2:0:0:
384,128,66300,1,2,0:2:0:0:
243,193,66471,5,10,0:2:0:0:
243,193,66641,1,2,0:2:0:0:
320,0,66812,5,2,0:2:0:0:
320,0,66982,1,2,0:2:0:0:
336,214,67153,5,2,1:2:0:0:
336,214,67323,1,2,0:2:0:0:
140,71,67494,5,2,0:2:0:0:
140,71,67664,1,2,0:2:0:0:
151,240,67835,2,0,P|101:242|56:215,1,101.250000386238,10|0,0:2|0:2,0:0:0:0:
255,147,68175,6,0,B|247:247|323:219|294:362,1,202.500000772476,2|2,0:2|1:2,0:0:0:0:
352,167,68687,1,2,0:2:0:0:
206,304,68857,5,2,0:2:0:0:
206,304,69027,1,2,0:2:0:0:
247,130,69198,5,10,0:2:0:0:
247,130,69368,1,2,0:2:0:0:
308,361,69539,5,2,0:2:0:0:
308,361,69709,1,2,0:2:0:0:
367,152,69879,5,2,1:2:0:0:
367,152,70049,1,2,0:2:0:0:
190,323,70220,5,2,0:2:0:0:
190,323,70390,1,2,0:2:0:0:
337,272,70561,5,10,0:2:0:0:
266,117,70732,1,8,0:2:0:0:
263,297,70902,5,10,0:2:0:0:
367,152,71073,1,8,0:2:0:0:
310,356,71244,1,6,1:2:0:0:
321,360,71585,6,0,P|372:355|420:306,1,101.250000386238,2|0,0:2|0:0,0:0:0:0:
246,171,71925,2,0,P|206:140|157:135,1,101.250000386238,10|0,0:2|0:0,0:0:0:0:
358,262,72266,2,0,B|368:237|362:212|362:212|386:176|386:176|372:148|369:107,1,151.875000579357,2|0,0:2|0:0,0:0:0:0:
461,92,72607,2,0,B|386:102|394:39|386:102|313:73,1,151.875000579357,2|0,1:2|0:0,0:0:0:0:
238,28,72948,6,0,P|188:28|150:60,1,101.250000386238,2|0,0:2|0:0,0:0:0:0:
299,207,73289,2,0,P|348:206|386:174,1,101.250000386238,10|0,0:2|0:0,0:0:0:0:
184,178,73630,2,0,P|177:236|158:357,1,151.875000579357,2|0,0:2|0:0,0:0:0:0:
163,328,73971,1,6,1:2:0:0:
299,207,74141,6,0,P|350:213|384:246,1,101.250000386238,0|2,1:2|0:2,0:0:0:0:
245,384,74482,1,0,1:2:0:0:
164,161,74653,2,0,P|113:167|79:200,1,101.250000386238,10|0,0:2|0:2,0:0:0:0:
253,367,74994,1,2,1:2:0:0:
312,107,75164,1,2,1:2:0:0:
152,243,75335,6,0,P|160:296|163:351,1,101.250000386238,10|2,0:2|0:2,0:0:0:0:
349,191,75675,2,0,P|341:244|338:299,1,101.250000386238,10|0,0:2|0:2,0:0:0:0:
177,141,76016,1,10,0:2:0:0:
384,64,76187,1,8,0:2:0:0:
384,64,76272,1,8,0:2:0:0:
384,64,76357,1,10,0:2:0:0:
239,257,76528,6,0,P|256:203|262:153,1,101.250000386238,8|6,0:2|1:2,0:0:0:0:
192,0,76869,1,2,0:2:0:0:
352,160,77039,5,2,0:2:0:0:
352,160,77209,1,2,0:2:0:0:
128,74,77379,5,10,0:2:0:0:
128,74,77549,1,2,0:2:0:0:
295,25,77720,5,2,0:2:0:0:
295,25,77890,1,2,0:2:0:0:
410,79,78061,5,2,1:2:0:0:
410,79,78231,1,2,0:2:0:0:
282,210,78403,5,2,0:2:0:0:
282,210,78573,1,2,0:2:0:0:
449,254,78744,2,0,P|448:306|429:357,1,101.250000386238,10|0,0:2|0:2,0:0:0:0:
282,210,79085,6,0,B|336:221|377:184|377:184|419:147|473:158,1,202.500000772476,2|0,0:2|1:2,0:0:0:0:
308,112,79596,1,2,0:2:0:0:
449,254,79766,5,2,0:2:0:0:
449,254,79936,1,2,0:2:0:0:
266,224,80107,5,10,0:2:0:0:
266,224,80277,1,2,0:2:0:0:
488,153,80448,5,2,0:2:0:0:
488,153,80618,1,2,0:2:0:0:
288,96,80789,5,2,1:2:0:0:
288,96,80959,1,2,0:2:0:0:
464,277,81129,5,2,0:2:0:0:
464,277,81299,1,2,0:2:0:0:
240,203,81470,5,10,0:2:0:0:
437,177,81640,1,8,0:2:0:0:
206,131,81811,5,10,0:2:0:0:
416,96,81982,1,8,0:2:0:0:
308,264,82153,1,6,1:2:0:0:
308,264,82494,6,0,P|305:320|321:369,1,101.250000386238,2|0,0:2|0:0,0:0:0:0:
503,289,82835,2,0,P|516:240|512:190,1,101.250000386238,10|0,0:2|0:0,0:0:0:0:
325,127,83175,2,0,B|284:133|248:113|248:113|241:148|209:189,1,151.875000579357,2|0,0:2|0:0,0:0:0:0:
297,219,83516,2,0,B|230:175|222:245|151:236,1,151.875000579357,2|0,1:2|0:0,0:0:0:0:
91,193,83857,6,0,P|106:242|112:311,1,101.250000386238,2|0,0:2|0:0,0:0:0:0:
170,106,84198,2,0,P|176:55|191:7,1,101.250000386238,10|0,0:2|0:0,0:0:0:0:
37,122,84539,2,0,P|0:174|24:259,1,151.875000579357,2|0,0:2|0:0,0:0:0:0:
19,254,84880,5,12,0:2:0:0:
268,128,85050,2,0,P|217:122|168:105,1,101.250000386238,0|2,3:2|1:2,0:0:0:0:
138,374,85391,5,8,0:2:0:0:
296,293,85562,2,0,P|245:299|196:316,1,101.250000386238,8|0,0:2|1:2,0:0:0:0:
412,190,85903,1,10,0:2:0:0:
355,356,86073,1,2,0:2:0:0:
229,215,86244,6,0,P|204:171|209:122,1,101.250000386238,2|10,1:2|0:2,0:0:0:0:
374,263,86585,2,0,P|379:312|354:355,1,101.250000386238,2|0,0:2|1:2,0:0:0:0:
296,153,86925,1,2,3:2:0:0:
296,153,87011,1,0,3:2:0:0:
296,153,87096,2,0,L|353:143,1,50.6250001931191,0|0,3:2|3:2,0:0:0:0:
197,315,87266,1,2,3:2:0:0:
218,103,87437,1,0,3:2:0:0:
374,263,87607,6,0,P|423:259|462:228,1,101.250000386238,6|0,1:2|0:2,0:0:0:0:
219,186,87948,2,0,P|179:155|130:151,1,101.250000386238,2|0,0:2|0:2,0:0:0:0:
339,370,88289,1,10,0:2:0:0:
339,370,88460,2,0,B|339:331|320:297|320:297|348:252|348:252|330:218|330:180,1,202.500000772476,2|0,0:2|0:2,0:0:0:0:
255,350,88971,6,0,P|207:332|157:327,1,101.250000386238,2|0,1:2|0:2,0:0:0:0:
415,200,89312,2,0,P|465:194|512:177,1,101.250000386238,2|0,0:2|0:2,0:0:0:0:
295,63,89653,1,10,0:2:0:0:
295,63,89823,2,0,P|283:123|266:267,1,202.500000772476,2|0,0:2|0:2,0:0:0:0:
138,78,90335,6,0,P|155:133|163:189,1,101.250000386238,2|0,1:2|0:2,0:0:0:0:
242,361,90675,2,0,P|250:311|265:262,1,101.250000386238,2|0,0:2|0:2,0:0:0:0:
0,209,91016,1,10,0:2:0:0:
0,209,91187,2,0,B|123:193|93:285|200:265,1,202.500000772476,2|0,0:2|0:2,0:0:0:0:
326,148,91698,6,0,P|287:116|237:113,1,101.250000386238,2|0,1:2|0:2,0:0:0:0:
375,318,92039,2,0,P|424:314|463:283,1,101.250000386238,2|0,0:2|0:2,0:0:0:0:
260,192,92380,1,10,0:2:0:0:
260,192,92550,2,0,B|242:250|242:250|263:302|263:302|239:386,1,202.500000772476,8|10,0:2|0:2,0:0:0:0:
379,133,93062,6,0,P|381:184|393:243,1,101.250000386238,6|0,1:2|0:2,0:0:0:0:
465,378,93403,2,0,P|474:328|476:277,1,101.250000386238,2|0,0:2|0:2,0:0:0:0:
442,33,93744,1,10,0:2:0:0:
442,33,93914,2,0,P|381:90|249:64,1,202.500000772476,2|0,0:2|0:2,0:0:0:0:
97,107,94425,6,0,P|144:111|188:158,1,101.250000386238,2|0,1:2|0:2,0:0:0:0:
390,232,94766,2,0,P|353:266|303:271,1,101.250000386238,2|0,0:2|0:2,0:0:0:0:
24,280,95107,1,10,0:2:0:0:
24,280,95278,2,0,B|128:232|128:344|224:344,1,202.500000772476,2|0,0:2|0:2,0:0:0:0:
249,146,95789,6,0,P|229:192|219:242,1,101.250000386238,2|0,1:2|1:2,0:0:0:0:
378,100,96130,1,2,0:2:0:0:
404,254,96300,1,0,0:2:0:0:
270,67,96471,5,10,0:2:0:0:
270,67,96641,2,0,B|168:40|201:140|75:131,1,202.500000772476,2|2,0:2|1:2,0:0:0:0:
219,242,97153,6,0,P|270:225|321:217,1,101.250000386238,14|2,0:2|0:2,0:0:0:0:
108,39,97494,2,0,P|58:30|10:14,1,101.250000386238,8|2,0:2|0:2,0:0:0:0:
88,272,97835,5,10,0:2:0:0:
210,63,98005,1,10,0:2:0:0:
210,63,98090,1,8,0:2:0:0:
210,63,98175,1,10,0:2:0:0:
61,133,98346,1,10,0:2:0:0:
316,217,98516,6,0,P|299:263|295:328,1,100,6|0,0:2|0:2,0:0:0:0:
247,361,98857,2,0,P|242:311|225:264,1,100,2|0,0:2|0:2,0:0:0:0:
166,216,99198,2,0,B|123:217|81:235,1,75,10|0,0:2|0:2,0:0:0:0:
22,303,99539,2,0,P|36:351|43:406,1,75,2|0,0:2|0:2,0:0:0:0:
0,176,99880,1,2,0:2:0:0:
0,176,100562,2,0,P|8:113|10:4,1,150,10|2,0:2|0:2,0:0:0:0:
195,147,101130,1,2,0:0:0:0:
195,147,101244,6,0,P|240:125|301:112,1,100,2|0,0:2|0:2,0:0:0:0:
265,42,101585,2,0,P|310:64|371:77,1,100,2|0,0:2|0:2,0:0:0:0:
422,38,101925,2,0,P|408:97|406:168,1,100,10|0,0:2|0:2,0:0:0:0:
369,204,102266,2,0,L|386:299,1,75,2|0,0:2|0:2,0:0:0:0:
429,367,102607,1,2,0:2:0:0:
429,367,103289,2,8,P|397:319|284:320,1,150,10|10,0:2|0:2,0:0:0:0:
245,351,103800,1,8,0:2:0:0:
150,243,103971,6,0,P|106:249|41:266,1,89.9999972534181,2|2,0:2|0:2,0:0:0:0:
311,136,104312,2,0,P|354:146|399:152,1,89.9999972534181,2|0,0:2|0:2,0:0:0:0:
160,64,104653,5,10,0:2:0:0:
290,236,104823,1,2,0:2:0:0:
291,30,104994,5,2,0:2:0:0:
169,222,105164,1,2,0:2:0:0:
87,117,105335,6,0,P|70:73|81:19,1,89.9999972534181,2|0,0:2|0:2,0:0:0:0:
311,136,105675,2,0,P|315:180|299:221,1,89.9999972534181,2|0,0:2|0:2,0:0:0:0:
161,323,106016,1,10,0:2:0:0:
161,323,106357,2,0,P|91:333|49:344,1,89.9999972534181,2|0,0:2|0:2,0:0:0:0:
290,236,106698,5,2,1:2:0:0:
290,236,106869,1,0,1:2:0:0:
121,203,107039,1,2,0:2:0:0:
266,134,107209,1,0,1:2:0:0:
394,350,107380,2,0,B|408:307|408:307|387:235,1,119.999996337891,10|2,0:2|0:0,0:0:0:0:
366,164,107721,5,2,1:2:0:0:
255,337,107891,1,2,0:2:0:0:
160,154,108062,2,0,P|120:132|76:130,1,89.9999972534181,10|0,0:2|0:0,0:0:0:0:
350,289,108403,2,0,P|394:286|433:265,1,89.9999972534181,10|0,0:2|0:2,0:0:0:0:
256,64,108744,5,10,0:2:0:0:
171,384,108914,1,8,0:2:0:0:
171,384,108999,1,8,0:2:0:0:
171,384,109085,1,10,0:2:0:0:
331,135,109255,1,8,0:2:0:0:
412,373,109425,6,0,P|440:269|437:184,1,179.999994506836,6|2,1:2|0:2,0:0:0:0:
377,39,109937,1,2,0:2:0:0:
280,224,110107,1,10,0:2:0:0:
280,224,110448,2,0,P|232:222|188:196,1,89.9999972534181,2|0,0:2|0:2,0:0:0:0:
133,85,110789,5,2,1:2:0:0:
438,197,111130,1,2,0:2:0:0:
96,352,111471,1,10,0:2:0:0:
244,52,111812,2,0,P|250:103|258:156,1,89.9999972534181,2|0,0:2|0:2,0:0:0:0:
284,382,112153,6,0,B|292:332|309:266|309:266|257:234,1,179.999994506836,2|2,1:2|0:2,0:0:0:0:
140,158,112664,1,2,0:2:0:0:
96,352,112835,1,10,0:2:0:0:
96,352,113175,2,0,P|142:328|195:321,1,89.9999972534181,2|0,0:2|0:2,0:0:0:0:
441,251,113516,5,2,1:2:0:0:
140,158,113857,1,2,0:2:0:0:
288,381,114198,1,10,0:2:0:0:
256,233,114369,2,0,P|268:189|273:145,1,89.9999972534181,8|10,0:2|0:2,0:0:0:0:
267,363,114710,1,8,0:2:0:0:
362,118,114880,6,0,P|318:65|207:79,1,179.999994506836,2|2,1:2|0:2,0:0:0:0:
127,174,115391,1,2,0:2:0:0:
273,144,115562,1,10,0:2:0:0:
97,28,115732,1,2,0:2:0:0:
111,191,115903,2,0,P|130:247|140:298,1,89.9999972534181,2|2,0:2|0:2,0:0:0:0:
314,378,116244,6,0,P|358:375|395:351,1,89.9999972534181,2|0,1:2|0:0,0:0:0:0:
171,137,116585,2,0,P|133:112|89:110,1,89.9999972534181,2|0,0:2|0:0,0:0:0:0:
160,384,116925,1,10,0:2:0:0:
160,384,117266,2,0,P|171:328|163:267,1,89.9999972534181,2|0,0:2|0:2,0:0:0:0:
76,98,117607,5,2,1:2:0:0:
233,209,117778,2,0,P|275:207|311:178,1,89.9999972534181,0|2,1:2|0:2,0:0:0:0:
191,20,118119,5,2,1:2:0:0:
93,210,118289,2,0,P|37:193|-10:188,1,89.9999972534181,10|0,0:2|0:0,0:0:0:0:
243,118,118630,2,0,P|287:110|330:96,1,89.9999972534181,2|0,1:2|1:2,0:0:0:0:
183,208,118971,6,0,P|165:287|164:402,2,179.999994506836,10|8|10,0:2|0:2|0:2,0:0:0:0:
276,25,119823,1,8,0:2:0:0:
276,25,119908,1,8,0:2:0:0:
276,25,119994,1,8,0:2:0:0:
320,256,120164,1,8,0:2:0:0:
186,125,120335,6,0,P|149:128|117:146,1,75,2|2,0:2|0:2,0:0:0:0:
65,206,120675,2,0,P|97:224|135:228,1,75,2|2,0:2|0:2,0:0:0:0:
196,298,121016,2,0,P|191:343|183:388,1,75,2|2,0:2|0:2,0:0:0:0:
272,244,121357,2,0,P|277:289|285:334,1,75,2|2,0:2|0:2,0:0:0:0:
338,373,121698,6,0,B|457:352|382:266|512:247,1,225,2|2,0:2|0:2,0:0:0:0:
502,325,122380,2,0,P|457:303|445:208,1,150,2|2,0:2|0:2,0:0:0:0:
436,19,123062,6,0,P|421:54|412:92,1,75,2|2,0:2|0:2,0:0:0:0:
320,74,123403,2,0,P|335:109|344:147,1,75,2|2,0:2|0:2,0:0:0:0:
282,203,123744,2,0,P|230:185|189:179,1,75,2|2,0:2|0:2,0:0:0:0:
187,109,124085,2,0,P|135:127|94:133,1,75,2|2,0:2|0:2,0:0:0:0:
21,54,124425,6,0,B|57:73|92:85|92:85|78:148|62:232,1,225,2|2,0:2|0:2,0:0:0:0:
75,326,125107,2,0,P|49:362|66:313,1,150,2|2,0:2|0:2,0:0:0:0:
187,231,125789,5,2,0:2:0:0:
187,231,125960,2,0,B|266:247|238:303|326:324,1,150,2|2,0:2|0:2,0:0:0:0:
309,187,126471,2,0,B|388:171|360:115|448:94,1,150,2|2,0:2|0:2,0:0:0:0:
493,150,126982,1,2,0:2:0:0:
312,22,127153,5,2,0:2:0:0:
312,22,127323,2,0,P|256:16|191:92,1,150,2|2,0:2|0:2,0:0:0:0:
36,101,127835,2,0,P|82:157|154:156,1,150,2|2,0:2|0:2,0:0:0:0:
273,95,128346,1,2,0:2:0:0:
239,168,128516,6,0,P|221:257|221:336,1,150,2|2,0:2|0:2,0:0:0:0:
391,192,129198,2,0,P|388:118|372:45,1,150,2|2,0:2|0:2,0:0:0:0:
365,36,129880,5,10,0:2:0:0:
57,108,130050,1,10,0:2:0:0:
261,301,130221,5,10,1:2:0:0:
211,73,130391,1,8,1:2:0:0:
63,225,130562,5,2,1:2:0:0:
237,186,130732,1,0,1:2:0:0:
121,75,130903,5,2,1:2:0:0:
150,206,131073,1,2,1:2:0:0:
211,73,131244,6,0,B|313:21|313:124|415:124,1,225.000008583069,2|0,1:2|1:2,0:0:0:0:
426,116,132266,2,0,P|418:152|418:191,1,56.2500021457673,2|2,0:2|0:2,0:0:0:0:
388,250,132607,2,0,P|441:221|506:212,1,112.500004291535,2|2,1:2|0:2,0:0:0:0:
335,364,133289,2,0,B|267:351|294:313|224:303,1,112.500004291535,2|2,1:2|0:2,0:0:0:0:
49,284,133971,6,0,P|115:287|186:156,1,225.000008583069,2|2,1:2|1:2,0:0:0:0:
198,170,134994,2,0,P|189:139|190:107,1,56.2500021457673,2|2,0:2|0:2,0:0:0:0:
127,72,135335,2,0,P|182:67|226:33,1,112.500004291535,2|2,1:2|0:2,0:0:0:0:
387,163,136016,2,0,B|362:159|340:132|340:132|313:153|288:150,1,112.500004291535,2|2,1:2|0:2,0:0:0:0:
338,238,136528,1,2,0:2:0:0:
338,238,136698,6,0,B|456:213|381:129|510:108,1,225.000008583069,2|0,1:2|1:2,0:0:0:0:
512,114,137721,2,0,P|508:83|508:51,1,56.2500021457673,2|2,0:2|0:2,0:0:0:0:
434,16,138062,2,0,P|366:12|309:-3,1,112.500004291535,2|2,1:2|0:2,0:0:0:0:
232,153,138744,2,0,B|202:119|235:90|279:99|270:142,1,112.500004291535,2|2,1:2|0:2,0:0:0:0:
384,352,139425,5,6,3:2:0:0:
502,171,139766,2,0,P|474:144|453:135,1,56.2500021457673,0|0,3:2|0:0,0:0:0:0:
425,127,140022,1,0,3:2:0:0:
425,127,140107,1,2,3:2:0:0:
349,235,140448,6,0,P|324:221|305:200,1,56.2500021457673,0|0,3:2|0:0,0:0:0:0:
284,174,140704,1,0,3:2:0:0:
284,174,140789,2,0,P|274:152|266:116,3,37.5,2|2|0|0,3:2|3:2|3:2|3:2,0:0:0:0:
212,225,141130,2,0,P|206:242|198:259,3,37.5,2|2|0|0,3:2|3:2|3:2|3:2,0:0:0:0:
150,148,141471,5,2,3:2:0:0:
150,148,141556,1,0,3:2:0:0:
150,148,141641,2,0,L|81:130,1,37.5,0|0,3:2|3:2,0:0:0:0:
301,265,141812,5,0,3:0:0:0:
301,265,141897,1,0,3:0:0:0:
301,265,141982,2,0,L|370:247,1,37.5,0|0,3:0|3:0,0:0:0:0:
225,355,142153,6,0,P|217:305|197:258,1,101.250000386238,6|2,1:2|0:2,0:0:0:0:
256,64,142494,5,2,0:2:0:0:
256,64,142664,1,2,0:2:0:0:
186,244,142835,5,10,0:2:0:0:
186,244,143005,1,2,0:2:0:0:
331,137,143175,5,2,0:2:0:0:
331,137,143345,1,2,0:2:0:0:
171,111,143516,5,2,1:2:0:0:
171,111,143686,1,2,0:2:0:0:
352,224,143857,5,2,0:2:0:0:
352,224,144027,1,2,0:2:0:0:
171,111,144198,2,0,P|129:83|66:80,1,101.250000386238,10|0,0:2|0:2,0:0:0:0:
0,249,144539,6,0,B|65:232|111:200|111:200|156:215|145:270,1,202.500000772476,2|2,0:2|1:2,0:0:0:0:
113,363,145050,1,2,0:2:0:0:
105,161,145221,5,2,0:2:0:0:
105,161,145392,1,2,0:2:0:0:
224,384,145562,5,10,0:2:0:0:
224,384,145733,1,2,0:2:0:0:
257,176,145903,5,2,0:2:0:0:
257,176,146074,1,2,0:2:0:0:
320,384,146244,5,2,1:2:0:0:
320,384,146415,1,2,0:2:0:0:
384,224,146585,5,2,0:2:0:0:
384,224,146756,1,2,0:2:0:0:
192,288,146926,5,10,0:2:0:0:
284,88,147097,1,8,0:2:0:0:
283,266,147267,5,10,0:2:0:0:
205,42,147437,1,8,0:2:0:0:
32,114,147607,1,6,1:2:0:0:
32,114,147948,6,0,P|81:108|139:88,1,101.250000386238,2|0,0:2|0:0,0:0:0:0:
228,257,148289,2,0,P|179:241|129:235,1,101.250000386238,10|0,0:2|0:0,0:0:0:0:
331,56,148630,2,0,B|319:203|325:56|313:203|319:56|307:203,1,151.875000579357,2|0,0:2|0:0,0:0:0:0:
350,278,148971,2,0,B|289:244|289:244|292:235|292:235|289:244|289:244|217:259,1,151.875000579357,2|0,1:2|0:0,0:0:0:0:
152,217,149312,6,0,P|175:263|186:312,1,101.250000386238,2|0,0:2|0:0,0:0:0:0:
234,131,149653,2,0,P|244:81|267:36,1,101.250000386238,10|0,0:2|0:0,0:0:0:0:
309,214,149994,2,0,P|386:240|460:216,1,151.875000579357,2|0,0:2|0:0,0:0:0:0:
508,166,150335,5,6,1:2:0:0:
441,356,150505,2,0,P|386:327|330:316,1,101.250000386238,0|2,1:2|0:2,0:0:0:0:
495,144,150846,5,0,1:2:0:0:
309,214,151016,2,0,P|254:243|198:254,1,101.250000386238,10|0,0:2|0:2,0:0:0:0:
465,255,151357,1,2,1:2:0:0:
339,103,151528,1,2,1:2:0:0:
345,285,151698,6,0,P|360:350|360:392,1,101.250000386238,10|2,0:2|0:2,0:0:0:0:
450,133,152039,2,0,P|452:82|465:33,1,101.250000386238,10|0,0:2|0:2,0:0:0:0:
236,160,152380,5,10,0:2:0:0:
473,262,152550,1,8,0:2:0:0:
473,262,152636,1,8,0:2:0:0:
473,262,152721,1,10,0:2:0:0:
339,103,152891,5,8,0:2:0:0:
238,325,153062,2,0,P|181:320|147:293,1,101.250000386238,6|2,1:2|0:2,0:0:0:0:
128,64,153403,5,2,0:2:0:0:
128,64,153573,1,2,0:2:0:0:
217,241,153744,5,10,0:2:0:0:
217,241,153914,1,2,0:2:0:0:
32,160,154085,5,2,0:2:0:0:
32,160,154255,1,2,0:2:0:0:
256,96,154425,5,2,1:2:0:0:
256,96,154595,1,2,0:2:0:0:
112,278,154766,5,2,0:2:0:0:
112,278,154936,1,2,0:2:0:0:
153,99,155107,2,0,P|144:42|161:-5,1,101.250000386238,10|0,0:2|0:2,0:0:0:0:
366,183,155448,6,0,B|255:156|283:254|166:227,1,202.500000772476,2|0,0:2|1:2,0:0:0:0:
335,277,155960,5,2,0:2:0:0:
212,136,156130,5,2,0:2:0:0:
212,136,156300,1,2,0:2:0:0:
384,192,156471,5,10,0:2:0:0:
384,192,156641,1,2,0:2:0:0:
160,224,156812,5,2,0:2:0:0:
160,224,156982,1,2,0:2:0:0:
352,288,157153,5,2,1:2:0:0:
352,288,157323,1,2,0:2:0:0:
192,128,157494,5,2,0:2:0:0:
192,128,157664,1,2,0:2:0:0:
406,212,157835,5,10,0:2:0:0:
204,308,158005,1,8,0:2:0:0:
386,295,158176,5,10,0:2:0:0:
135,233,158346,1,8,0:2:0:0:
392,136,158516,1,6,1:2:0:0:
392,136,158857,6,0,P|432:105|481:96,1,101.250000386238,2|0,0:2|0:0,0:0:0:0:
352,304,159198,2,0,P|302:294|262:264,1,101.250000386238,10|0,0:2|0:0,0:0:0:0:
213,62,159539,2,0,B|246:80|266:90|266:90|253:139|241:182,1,151.875000579357,2|0,0:2|0:0,0:0:0:0:
262,264,159880,2,0,B|246:199|189:166|135:190|149:220|176:224|202:209,1,151.875000579357,2|0,1:2|0:0,0:0:0:0:
137,181,160221,6,0,P|152:233|152:296,1,101.250000386238,2|0,0:2|0:0,0:0:0:0:
275,284,160562,2,0,P|260:336|260:399,1,101.250000386238,10|0,0:2|0:0,0:0:0:0:
152,94,160903,2,0,B|199:118|199:118|266:100|312:89,1,151.875000579357,2|0,0:2|0:0,0:0:0:0:
368,60,161244,5,12,0:2:0:0:
411,269,161414,2,0,P|355:246|283:242,1,101.250000386238,0|2,3:2|1:2,0:0:0:0:
384,41,161755,5,8,0:2:0:0:
481,200,161925,2,0,P|462:152|433:111,1,101.250000386238,8|0,0:2|1:2,0:0:0:0:
411,269,162266,1,10,0:2:0:0:
511,71,162437,1,2,0:2:0:0:
346,117,162607,6,0,P|295:118|245:88,1,101.250000386238,2|10,1:2|0:2,0:0:0:0:
415,287,162948,2,0,P|459:263|509:264,1,101.250000386238,2|0,0:2|1:2,0:0:0:0:
287,229,163289,2,0,P|278:285|271:340,1,101.250000386238,2|0,3:2|3:2,0:0:0:0:
363,107,163630,1,2,3:2:0:0:
415,287,163800,1,0,3:2:0:0:
219,179,163971,6,0,P|174:172|129:168,1,89.9999972534181,6|2,1:2|0:2,0:0:0:0:
127,145,164227,2,0,P|82:151|37:155,1,89.9999972534181,2|2,0:2|0:2,0:0:0:0:
24,175,164482,1,2,0:2:0:0:
207,74,164653,6,0,B|227:115|227:115|213:159,1,89.9999972534181,10|2,0:2|0:2,0:0:0:0:
219,179,164908,2,0,B|199:220|199:220|213:264,1,89.9999972534181,2|2,0:2|0:2,0:0:0:0:
198,284,165164,1,2,0:2:0:0:
290,359,165335,6,0,P|336:345|397:343,1,89.9999972534181,2|10,0:2|0:2,0:0:0:0:
388,313,165590,2,0,P|430:335|474:377,1,89.9999972534181,2|0,0:2|0:0,0:0:0:0:
477,347,165846,1,2,1:2:0:0:
434,149,166016,2,0,P|421:194|436:245,1,89.9999972534181,10|2,0:2|0:2,0:0:0:0:
510,67,166357,1,2,0:2:0:0:
510,67,166698,6,0,P|450:57|401:44,1,89.9999972534181,2|0,1:2|0:0,0:0:0:0:
423,70,166954,2,0,P|363:80|314:93,1,89.9999972534181,2|2,0:2|0:2,0:0:0:0:
316,73,167210,1,2,0:2:0:0:
176,30,167380,6,0,P|201:68|195:113,1,89.9999972534181,10|0,0:2|0:0,0:0:0:0:
210,123,167636,2,0,P|185:161|191:206,1,89.9999972534181,2|2,0:2|0:2,0:0:0:0:
176,219,167891,1,2,0:2:0:0:
119,347,168062,6,0,P|162:333|211:322,1,89.9999972534181,2|8,0:2|0:2,0:0:0:0:
223,306,168317,2,0,P|266:320|315:331,1,89.9999972534181,2|0,0:2|0:2,0:0:0:0:
322,348,168573,1,2,1:2:0:0:
437,278,168744,2,0,P|452:232|440:188,1,89.9999972534181,10|0,0:2|0:2,0:0:0:0:
370,117,169085,1,2,0:2:0:0:
370,117,169425,6,0,P|378:69|386:25,1,89.9999972534181,2|0,1:2|0:2,0:0:0:0:
371,34,169681,2,0,P|326:25|282:18,1,89.9999972534181,2|0,0:2|0:2,0:0:0:0:
288,33,169937,1,2,0:2:0:0:
197,96,170107,2,0,P|143:90|108:56,1,89.9999972534181,10|2,0:2|0:2,0:0:0:0:
30,149,170448,1,2,0:2:0:0:
30,149,170789,6,0,B|41:180|41:180|27:244,1,89.9999972534181,2|8,0:2|0:2,0:0:0:0:
36,250,171045,2,0,B|25:281|25:281|39:345,1,89.9999972534181,2|0,0:2|0:2,0:0:0:0:
28,350,171300,1,2,1:2:0:0:
127,283,171471,2,0,P|178:292|230:309,1,89.9999972534181,10|2,0:2|0:2,0:0:0:0:
344,368,171812,1,2,0:2:0:0:
458,282,171982,5,2,0:2:0:0:
458,282,172067,1,2,0:2:0:0:
458,282,172153,2,0,B|473:235|473:235|456:187,1,89.9999972534181,2|0,1:2|0:0,0:0:0:0:
449,177,172408,2,0,P|456:133|463:87,1,89.9999972534181,2|0,0:2|0:0,0:0:0:0:
455,68,172664,1,2,0:2:0:0:
320,21,172835,6,0,B|305:68|305:68|322:116,1,89.9999972534181,10|0,0:2|0:0,0:0:0:0:
329,126,173090,2,0,P|322:170|315:216,1,89.9999972534181,2|0,0:2|0:0,0:0:0:0:
323,235,173346,1,2,0:2:0:0:
247,314,173516,6,0,P|216:280|165:271,1,89.9999972534181,2|10,0:2|0:2,0:0:0:0:
59,281,173857,2,0,L|68:221,2,59.9999981689454,2|2|2,1:2|0:0|0:0,0:0:0:0:
13,173,174198,6,0,B|54:176|54:176|96:152,1,89.9999972534181,8|0,0:2|3:2,0:0:0:0:
199,91,174539,2,0,P|164:41|90:42,1,134.999995880127,2|0,0:2|0:0,0:0:0:0:
78,64,174880,6,0,P|93:116|95:165,1,89.9999972534181,4|2,1:2|0:2,0:0:0:0:
219,79,175221,1,2,0:2:0:0:
182,253,175391,1,2,0:2:0:0:
296,162,175562,6,0,P|343:162|385:187,1,89.9999972534181,10|2,0:2|0:2,0:0:0:0:
197,268,175903,1,2,0:2:0:0:
193,73,176073,1,2,0:2:0:0:
323,246,176244,6,0,P|339:290|340:338,1,89.9999972534181,2|8,0:2|0:2,0:0:0:0:
173,64,176585,1,2,0:2:0:0:
168,254,176755,1,2,1:2:0:0:
168,254,176925,2,0,B|66:249|141:187|5:188,1,179.999994506836,10|2,0:2|0:2,0:0:0:0:
161,79,177437,2,0,P|166:123|175:168,1,89.9999972534181,0|0,0:2|1:2,0:0:0:0:
37,270,177778,5,2,0:2:0:0:
63,9,177948,2,0,P|58:53|49:97,1,89.9999972534181,2|2,0:2|0:2,0:0:0:0:
180,74,178289,5,10,0:2:0:0:
201,183,178460,1,2,0:2:0:0:
321,111,178630,2,0,P|366:109|406:137,1,89.9999972534181,2|2,0:2|0:2,0:0:0:0:
190,211,178971,6,0,P|145:213|105:185,1,89.9999972534181,2|8,0:2|0:2,0:0:0:0:
344,193,179312,1,2,0:2:0:0:
248,305,179482,1,2,1:2:0:0:
248,305,179653,2,0,P|226:214|226:109,1,179.999994506836,10|0,0:2|0:2,0:0:0:0:
345,22,180164,2,0,P|334:67|330:114,1,89.9999972534181,0|0,0:2|1:2,0:0:0:0:
202,3,180505,5,2,0:2:0:0:
145,177,180675,2,0,P|96:175|56:148,1,89.9999972534181,2|2,0:2|0:2,0:0:0:0:
222,24,181016,1,10,0:2:0:0:
251,238,181187,1,2,0:2:0:0:
121,90,181357,1,2,0:2:0:0:
87,285,181528,1,2,0:2:0:0:
294,117,181698,6,0,P|346:114|401:147,1,89.9999972534181,2|8,0:2|0:2,0:0:0:0:
401,153,181954,2,0,P|436:152|467:143,1,44.999998626709,0|2,0:0|0:2,0:0:0:0:
304,28,182210,1,0,1:2:0:0:
251,238,182380,2,0,B|149:237|216:175|91:174,1,179.999994506836,10|2,0:2|0:2,0:0:0:0:
326,47,182891,1,2,0:2:0:0:
410,204,183062,1,0,1:2:0:0:
250,153,183232,6,0,B|224:138|197:122|197:122|203:67|214:-26,1,179.999994506836,2|0,0:2|0:2,0:0:0:0:
342,66,183744,1,10,0:2:0:0:
263,256,183914,1,2,0:2:0:0:
423,221,184085,2,0,P|415:269|414:324,1,89.9999972534181,2|0,0:2|0:0,0:0:0:0:
235,148,184425,6,0,P|243:196|244:251,1,89.9999972534181,2|8,0:2|0:0,0:0:0:0:
263,256,184681,2,0,L|253:323,1,44.999998626709,2|2,0:0|0:2,0:0:0:0:
296,89,184937,1,2,1:2:0:0:
154,188,185107,2,0,P|101:186|66:158,1,89.9999972534181,10|0,0:2|3:2,0:0:0:0:
234,31,185448,2,0,P|271:7|316:8,1,89.9999972534181,0|0,3:2|3:2,0:0:0:0:
131,108,185789,5,0,3:2:0:0:
256,192,191244,12,0,195164,0:2:0:0:
160,256,195335,5,12,0:2:0:0:
348,167,195505,1,0,1:2:0:0:
142,100,195675,5,12,0:2:0:0:
284,280,195846,1,0,1:2:0:0:
284,280,195931,1,0,1:2:0:0:
284,280,196016,1,12,0:2:0:0:
245,47,196187,5,0,1:2:0:0:
148,280,196357,1,8,0:2:0:0:
363,185,196528,1,0,1:2:0:0:
133,85,196698,6,0,P|83:86|44:117,1,101.250000386238,6|2,1:2|1:2,0:0:0:0:
274,217,197039,2,0,P|323:215|362:184,1,101.250000386238,10|2,0:2|0:2,0:0:0:0:
113,171,197380,1,2,1:2:0:0:
82,322,197550,1,2,1:2:0:0:
264,202,197721,2,0,P|263:148|253:96,1,101.250000386238,10|2,0:2|0:2,0:0:0:0:
233,353,198062,5,2,1:2:0:0:
51,243,198232,1,2,1:2:0:0:
264,202,198403,2,0,P|318:209|355:245,1,101.250000386238,10|2,0:2|0:2,0:0:0:0:
119,370,198744,2,0,P|65:363|28:327,1,101.250000386238,2|0,1:2|0:2,0:0:0:0:
155,137,199085,2,0,B|246:132|212:84|297:82,1,151.875000579357,10|0,0:2|0:0,0:0:0:0:
316,65,199425,6,0,P|356:88|416:101,1,101.250000386238,2|2,1:2|1:2,0:0:0:0:
289,222,199766,2,0,P|239:233|195:257,1,101.250000386238,10|2,0:2|0:2,0:0:0:0:
424,117,200107,1,2,1:2:0:0:
442,312,200278,1,2,1:2:0:0:
229,133,200448,2,0,B|209:86|209:86|225:36,1,101.250000386238,10|2,0:2|0:2,0:0:0:0:
430,135,200789,5,2,1:2:0:0:
247,328,200960,1,2,1:2:0:0:
436,374,201130,2,0,P|451:318|478:261,1,101.250000386238,10|2,0:2|0:2,0:0:0:0:
214,147,201471,2,0,P|233:193|246:242,1,101.250000386238,2|0,1:2|0:2,0:0:0:0:
430,135,201812,2,0,P|367:135|305:59,1,151.875000579357,10|0,0:2|0:0,0:0:0:0:
300,42,202153,6,0,P|350:48|401:42,1,101.250000386238,0|0,1:2|1:2,0:0:0:0:
214,147,202494,2,0,P|163:140|113:146,1,101.250000386238,10|0,0:2|0:0,0:0:0:0:
83,311,202835,5,2,1:2:0:0:
246,242,203005,1,0,1:2:0:0:
35,138,203175,2,0,B|23:184|23:184|54:283,1,151.875000579357,10|0,0:2|0:0,0:0:0:0:
83,311,203516,2,0,B|187:318|148:264|246:273,1,151.875000579357,2|0,1:2|0:0,0:0:0:0:
246,242,203857,6,0,P|279:278|328:288,1,101.250000386238,10|0,0:2|0:0,0:0:0:0:
458,141,204198,2,0,P|384:142|329:192,1,151.875000579357,2|0,1:2|0:2,0:0:0:0:
329,192,204539,2,0,P|349:147|351:96,1,101.250000386238,10|0,0:2|0:2,0:0:0:0:
423,260,204880,5,6,1:2:0:0:
256,123,205050,1,0,1:2:0:0:
475,38,205221,2,0,P|459:91|454:138,1,101.250000386238,10|0,0:2|0:2,0:0:0:0:
241,109,205562,2,0,P|257:162|262:209,1,101.250000386238,2|0,1:2|0:2,0:0:0:0:
326,16,205903,1,10,0:2:0:0:
148,122,206073,1,2,0:2:0:0:
326,265,206244,6,0,B|349:221|349:221|339:164,1,101.250000386238,14|2,0:2|1:2,0:0:0:0:
160,320,206585,1,10,0:2:0:0:
376,374,206755,1,0,1:2:0:0:
376,374,206840,1,0,1:2:0:0:
376,374,206925,1,10,0:2:0:0:
260,206,207096,1,0,1:2:0:0:
156,350,207266,1,2,1:2:0:0:
349,274,207437,1,0,1:0:0:0:
138,141,207607,6,0,P|115:90|118:36,1,101.250000386238,6|2,1:2|1:2,0:0:0:0:
275,221,207948,2,0,P|274:271|252:316,1,101.250000386238,10|2,0:2|0:2,0:0:0:0:
198,73,208289,1,2,1:2:0:0:
180,249,208460,1,2,1:2:0:0:
374,91,208630,2,0,P|427:97|471:134,1,101.250000386238,10|2,0:2|0:2,0:0:0:0:
356,267,208971,5,2,1:2:0:0:
166,156,209141,1,2,1:2:0:0:
349,60,209312,2,0,P|335:118|326:173,1,101.250000386238,10|2,0:2|0:2,0:0:0:0:
201,346,209653,2,0,P|192:296|179:247,1,101.250000386238,2|0,1:2|0:2,0:0:0:0:
153,20,209994,2,0,B|183:36|205:50|205:50|195:94|181:146,1,151.875000579357,10|0,0:2|0:0,0:0:0:0:
166,156,210335,6,0,P|117:158|71:118,1,101.250000386238,2|2,1:2|1:2,0:0:0:0:
283,50,210675,2,0,P|322:20|372:21,1,101.250000386238,10|2,0:2|0:2,0:0:0:0:
326,125,211016,1,2,1:2:0:0:
153,20,211187,1,2,1:2:0:0:
352,104,211357,2,0,P|344:162|336:211,1,101.250000386238,10|2,0:2|0:2,0:0:0:0:
182,357,211698,6,0,P|157:313|161:254,1,101.250000386238,2|2,1:2|1:2,0:0:0:0:
423,184,212039,2,0,P|423:234|398:277,1,101.250000386238,10|2,0:2|0:2,0:0:0:0:
242,289,212380,1,2,1:2:0:0:
337,204,212550,1,0,0:2:0:0:
188,89,212721,2,0,P|185:158|166:262,1,151.875000579357,10|0,0:2|0:0,0:0:0:0:
157,263,213062,6,0,P|101:262|58:225,1,101.250000386238,0|0,1:2|1:2,0:0:0:0:
126,36,213403,2,0,P|167:8|217:9,1,101.250000386238,10|0,0:2|0:0,0:0:0:0:
284,219,213744,1,2,1:2:0:0:
188,89,213914,1,0,1:2:0:0:
348,70,214085,6,0,B|384:106|384:106|376:155|366:227,1,151.875000579357,10|0,0:2|0:0,0:0:0:0:
400,279,214425,2,0,P|356:219|283:218,1,151.875000579357,2|0,1:2|0:0,0:0:0:0:
252,249,214766,6,0,P|196:252|130:232,1,101.250000386238,10|0,0:2|0:0,0:0:0:0:
248,77,215107,2,0,P|297:66|347:69,1,101.250000386238,2|0,1:2|0:0,0:0:0:0:
114,307,215448,2,0,B|106:253|106:253|118:215|118:215|105:141,1,151.875000579357,10|0,0:2|0:0,0:0:0:0:
84,82,215789,5,6,1:2:0:0:
208,267,215960,1,0,1:2:0:0:
18,200,216130,2,0,P|-3:148|1:84,1,101.250000386238,10|0,0:2|0:2,0:0:0:0:
218,287,216471,2,0,P|216:337|196:383,1,101.250000386238,2|0,1:2|0:2,0:0:0:0:
108,158,216812,1,10,0:2:0:0:
114,307,216982,1,2,0:2:0:0:
243,97,217153,5,14,0:2:0:0:
8,211,217323,1,2,1:2:0:0:
282,283,217494,5,10,0:2:0:0:
86,139,217664,1,0,1:2:0:0:
86,139,217749,1,0,1:2:0:0:
86,139,217835,2,0,P|71:80|79:27,1,101.250000386238,10|0,0:2|1:2,0:0:0:0:
138,285,218175,1,2,1:2:0:0:
170,76,218346,1,0,1:0:0:0:
282,283,218516,5,6,1:2:0:0:
73,168,218687,1,0,1:2:0:0:
330,98,218857,2,0,P|386:108|419:145,1,101.250000386238,10|0,0:2|0:2,0:0:0:0:
270,308,219198,1,2,1:2:0:0:
193,193,219369,2,0,B|175:80|248:116|219:-7,1,202.500000772476,2|0,1:2|0:2,0:0:0:0:
290,161,219880,5,2,1:2:0:0:
124,42,220050,1,0,1:2:0:0:
179,213,220221,2,0,P|198:258|216:332,1,101.250000386238,10|0,0:2|0:2,0:0:0:0:
337,76,220562,1,2,1:2:0:0:
383,166,220732,2,0,B|371:222|371:222|389:270|389:270|371:364,1,202.500000772476,2|0,0:2|0:2,0:0:0:0:
473,216,221244,5,2,1:2:0:0:
288,284,221414,1,0,1:2:0:0:
321,101,221585,2,0,P|370:77|431:87,1,101.250000386238,10|0,0:2|0:2,0:0:0:0:
273,304,221925,1,2,1:2:0:0:
196,201,222096,2,0,B|95:175|119:268|1:239,1,202.500000772476,2|0,1:2|0:2,0:0:0:0:
170,299,222607,5,2,1:2:0:0:
40,145,222778,1,0,1:2:0:0:
227,218,222948,2,0,P|279:212|317:179,1,101.250000386238,10|0,0:2|0:2,0:0:0:0:
127,37,223289,1,2,1:2:0:0:
56,124,223460,2,0,L|78:332,1,202.500000772476,2|2,0:2|0:2,0:0:0:0:
245,118,223971,6,0,P|232:179|225:243,1,101.250000386238,2|0,1:2|1:2,0:0:0:0:
361,257,224312,2,0,P|372:306|379:356,1,101.250000386238,10|0,0:2|0:2,0:0:0:0:
356,34,224653,1,2,1:2:0:0:
356,34,224823,2,0,P|286:89|159:69,1,202.500000772476,2|0,1:2|0:2,0:0:0:0:
51,22,225335,5,2,1:2:0:0:
226,217,225505,1,0,1:2:0:0:
1,183,225675,2,0,P|56:158|117:156,1,101.250000386238,10|0,0:2|0:2,0:0:0:0:
298,265,226016,1,2,1:2:0:0:
298,265,226187,2,0,B|184:239|215:323|68:306,1,202.500000772476,2|0,0:2|0:2,0:0:0:0:
260,362,226698,6,0,P|311:363|358:381,1,101.250000386238,6|0,1:2|1:2,0:0:0:0:
126,207,227039,2,0,P|78:225|28:226,1,101.250000386238,10|0,0:2|0:2,0:0:0:0:
302,71,227380,1,2,1:2:0:0:
302,71,227550,2,0,B|286:144|286:144|311:192|311:192|292:292,1,202.500000772476,2|2,0:2|0:2,0:0:0:0:
283,293,227977,5,0,0:0:0:0:
283,293,228062,1,6,1:2:0:0:
419,122,228232,2,0,P|425:173|448:245,1,101.250000386238,2|10,3:2|0:2,0:0:0:0:
226,37,228573,5,0,3:2:0:0:
226,37,228658,1,0,3:2:0:0:
226,37,228744,1,2,3:2:0:0:
141,211,228914,1,2,3:2:0:0:
46,128,229085,2,0,P|89:97|143:97,1,101.250000386238,2|2,3:2|3:2,0:0:0:0:
283,293,229425,5,6,1:2:0:0:
121,191,229596,1,0,1:2:0:0:
320,141,229766,2,0,P|376:136|423:119,1,101.250000386238,10|0,0:2|0:2,0:0:0:0:
186,338,230107,1,2,1:2:0:0:
186,338,230278,2,0,P|173:269|181:122,1,202.500000772476,2|0,1:2|0:2,0:0:0:0:
321,44,230789,6,0,B|336:92|336:92|319:140,1,101.250000386238,2|0,1:2|1:2,0:0:0:0:
95,188,231130,2,0,B|79:140|79:140|94:92,1,101.250000386238,10|0,0:2|0:2,0:0:0:0:
343,241,231471,1,2,1:2:0:0:
343,241,231641,2,0,B|220:216|297:163|170:135,1,202.500000772476,2|0,0:2|0:2,0:0:0:0:
431,97,232153,6,0,P|436:148|444:208,1,101.250000386238,2|0,1:2|1:2,0:0:0:0:
233,283,232494,2,0,P|228:333|222:384,1,101.250000386238,10|0,0:2|0:2,0:0:0:0:
346,74,232835,1,2,1:2:0:0:
346,74,233005,2,0,P|262:63|172:155,1,202.500000772476,2|0,1:2|0:2,0:0:0:0:
330,329,233516,6,0,P|386:310|448:308,1,101.250000386238,2|0,1:2|1:2,0:0:0:0:
141,211,233857,2,0,P|90:205|43:188,1,101.250000386238,10|0,0:2|0:2,0:0:0:0:
286,174,234198,1,2,1:2:0:0:
228,317,234369,2,0,P|152:301|58:403,1,202.500000772476,2|2,0:2|0:2,0:0:0:0:
294,194,234880,6,0,P|313:135|316:81,1,101.250000386238,2|0,1:2|1:2,0:0:0:0:
141,211,235221,2,0,P|122:152|119:98,1,101.250000386238,10|0,0:2|0:2,0:0:0:0:
247,331,235562,1,2,1:2:0:0:
385,216,235732,2,0,B|414:237|442:255|442:255|424:318|409:394,1,202.500000772476,2|0,1:2|0:2,0:0:0:0:
228,317,236244,6,0,P|284:310|350:296,1,101.250000386238,2|0,1:2|1:2,0:0:0:0:
432,119,236585,2,0,P|382:109|332:103,1,101.250000386238,10|0,0:2|0:2,0:0:0:0:
163,142,236925,1,2,1:2:0:0:
235,40,237096,2,0,P|283:93|255:222,1,202.500000772476,2|0,0:2|0:2,0:0:0:0:
124,335,237607,5,6,1:2:0:0:
351,246,237778,1,8,1:2:0:0:
163,142,237948,2,0,P|173:203|184:258,1,101.250000386238,10|0,0:2|0:2,0:0:0:0:
315,375,238289,5,2,1:2:0:0:
450,183,238460,2,0,B|363:121|338:236|229:209,1,202.500000772476,2|2,0:2|0:2,0:0:0:0:
247,193,238886,1,0,0:0:0:0:
247,193,238971,1,2,1:2:0:0:
345,22,239141,2,0,P|401:27|447:57,1,101.250000386238,2|10,3:2|0:2,0:0:0:0:
244,305,239482,5,0,3:2:0:0:
244,305,239567,1,0,3:2:0:0:
244,305,239653,1,2,3:2:0:0:
163,52,239823,1,2,3:2:0:0:
369,123,239994,2,0,P|355:188|353:251,1,101.250000386238,2|2,3:2|3:2,0:0:0:0:
177,370,240335,6,0,P|159:331|75:314,1,112.500004291535,2|2,0:2|0:2,0:0:0:0:
15,287,240846,1,2,0:2:0:0:
15,287,241016,2,0,P|67:272|95:224,1,112.500004291535,2|2,0:2|0:2,0:0:0:0:
170,252,241528,2,0,P|228:261|284:270,1,112.500004291535,2|2,0:2|0:2,0:0:0:0:
349,377,242039,2,0,L|339:302,1,56.2500021457673,2|0,0:2|0:0,0:0:0:0:
418,261,242380,2,0,L|425:316,1,56.2500021457673,2|0,0:2|0:0,0:0:0:0:
425,317,242721,2,0,B|491:338|454:362|512:384,1,112.500004291535,2|2,0:2|0:0,0:0:0:0:
256,192,243147,12,0,245789,0:0:0:0:
