osu file format v14

[General]
AudioFilename: audio.mp3
AudioLeadIn: 0
PreviewTime: -1
Countdown: 1
SampleSet: None
StackLeniency: 0.7
Mode: 0
LetterboxInBreaks: 0
WidescreenStoryboard: 0

[Editor]
DistanceSpacing: 0.5
BeatDivisor: 4
GridSize: 32
TimelineZoom: 1.4

[Metadata]
Title:DOPE
TitleUnicode:쩔어
Artist:BTS
ArtistUnicode:BTS (방탄소년단)
Creator:kjasony
Version:
Source:
Tags:
BeatmapID:1447699
BeatmapSetID:684067

[Difficulty]
HPDrainRate:6
CircleSize:4
OverallDifficulty:6
ApproachRate:9
SliderMultiplier:1.4
SliderTickRate:1

[Events]
//Background and Video events
//Break Periods
//Storyboard Layer 0 (Background)
//Storyboard Layer 1 (Fail)
//Storyboard Layer 2 (Pass)
//Storyboard Layer 3 (Foreground)
//Storyboard Sound Samples

[TimingPoints]
8402,389.61038961039,4,1,0,60,1,0
21259,-50,4,1,0,60,0,0
21648,-100,4,1,0,60,0,0
27882,-100,4,1,0,80,0,0
31096,-50,4,1,0,80,0,0

[HitObjects]
256,192,4505,12,0,7622,0:0:0:0:
64,224,8596,6,0,L|96:256,2,35
160,320,8986,1,0,0:0:0:0:
256,224,9181,1,0,0:0:0:0:
98,68,9570,6,0,B|81:108|81:108|110:156,1,70
325,82,9960,2,0,B|342:119|342:119|323:169,1,70
160,224,10350,2,0,B|177:260|177:260|224:288,1,70
288,320,10739,1,0,0:0:0:0:
412,305,10934,2,0,B|508:241|508:177|476:81|412:49,1,280
293,23,11908,1,0,0:0:0:0:
162,82,12103,1,0,0:0:0:0:
24,63,12492,6,0,B|1:101|1:101|24:150,1,70
242,135,12882,2,0,B|239:177|239:177|212:218,1,70
34,238,13272,2,0,B|43:262|43:262|98:302,1,70
195,314,13661,2,0,B|226:328|226:328|329:290,1,140
404,227,14245,1,0,0:0:0:0:
444,116,14439,1,0,0:0:0:0:
314,69,14634,1,0,0:0:0:0:
146,138,14830,5,0,0:0:0:0:
146,138,15025,2,0,B|157:170|157:170|188:206,1,70
256,64,15414,6,0,B|242:90|242:90|256:128,1,70
480,96,15804,2,0,B|488:135|488:135|473:183,1,70
248,173,16193,2,0,B|257:213|257:213|294:246,1,70
448,252,16583,2,0,B|443:287|443:287|401:313,1,70
277,326,16973,1,0,0:0:0:0:
142,328,17168,2,0,B|61:263|61:263|30:162,1,210
90,86,17947,1,0,0:0:0:0:
198,28,18142,1,0,0:0:0:0:
312,64,18337,1,0,0:0:0:0:
448,64,18531,6,0,B|448:108|448:108|418:166,1,105
339,226,18921,2,0,L|214:294,1,140
73,109,19505,2,0,B|75:139|75:139|105:173,1,70
335,119,19895,2,0,B|331:154|331:154|312:194,1,70
98,249,20285,2,0,B|127:280|127:280|156:285,1,70
263,300,20674,1,0,0:0:0:0:
378,275,20869,1,0,0:0:0:0:
410,167,21064,1,0,0:0:0:0:
313,73,21259,2,2,B|288:130|233:84|197:141,2,140
131,33,21843,6,0,B|98:54|98:54|67:97,1,70,0|8,0:0|0:0,0:0:0:0:
256,128,22233,2,8,B|243:170|243:170|224:192,1,70,0|8,0:0|0:0,0:0:0:0:
0,192,22622,2,0,B|5:233|5:233|32:288,1,70,0|8,0:0|0:0,0:0:0:0:
128,288,23012,2,0,B|148:303|148:303|224:320,1,70,0|8,0:0|0:0,0:0:0:0:
303,311,23402,1,0,0:0:0:0:
410,276,23596,2,0,B|430:224|430:224|422:131,1,140,8|8,0:0|0:0,0:0:0:0:
392,51,24181,1,8,0:0:0:0:
259,18,24376,1,0,0:0:0:0:
144,85,24570,1,8,0:0:0:0:
22,61,24765,6,0,B|16:103|16:103|32:142,1,70,0|8,0:0|0:0,0:0:0:0:
237,106,25154,2,0,B|228:152|228:152|206:193,1,70,0|8,0:0|0:0,0:0:0:0:
23,211,25544,2,0,B|30:253|30:253|67:302,1,70,0|8,0:0|0:0,0:0:0:0:
163,301,25934,2,0,B|188:319|188:319|241:320,1,70,0|8,0:0|0:0,0:0:0:0:
336,304,26324,1,8,0:0:0:0:
418,256,26518,2,0,P|439:173|430:86,1,140,0|8,0:0|0:0,0:0:0:0:
375,48,27103,1,8,0:0:0:0:
189,92,27298,1,0,0:0:0:0:
345,127,27492,1,8,0:0:0:0:
222,32,27687,1,0,0:0:0:0:
96,64,27882,5,8,0:0:0:0:
64,224,28077,1,8,0:0:0:0:
192,288,28272,1,8,0:0:0:0:
192,160,28466,1,8,0:0:0:0:
288,256,28661,1,8,0:0:0:0:
416,224,28856,1,8,0:0:0:0:
320,128,29051,1,8,0:0:0:0:
224,224,29246,1,8,0:0:0:0:
128,160,29440,1,8,0:0:0:0:
256,96,29635,1,8,0:0:0:0:
172,190,29830,1,8,0:0:0:0:
192,65,30025,1,8,0:0:0:0:
320,128,30220,2,8,B|336:162|336:162|320:224,1,70
254,296,30609,1,8,0:0:0:0:
129,274,30804,1,8,0:0:0:0:
173,135,30999,5,10,0:0:0:0:
277,87,31194,2,2,P|332:42|403:98,1,140,2|10,0:0|0:0,0:0:0:0:
464,86,31583,2,2,P|394:74|344:119,1,140,2|10,0:0|0:0,0:0:0:0:
417,141,31973,2,2,P|405:216|341:241,1,140,2|10,0:0|0:0,0:0:0:0:
351,169,32363,2,2,P|302:197|278:278,1,140,2|10,0:0|0:0,0:0:0:0:
207,139,32752,2,2,L|117:314,1,140,2|14,0:0|0:0,0:0:0:0:
141,47,33726,6,2,B|138:238,1,140
239,195,34116,2,0,L|341:304,1,140
402,126,34505,2,0,L|396:272,1,140
174,177,34895,6,0,P|208:192|239:230,1,70
241,127,35090,2,0,P|272:138|308:170,1,70
330,81,35285,2,0,P|364:96|413:150,1,70
452,49,35479,2,0,P|474:83|482:148,1,70
481,203,35674,1,0,0:0:0:0:
398,265,35869,2,0,B|347:255|312:336|246:288,2,140
195,131,36453,2,0,L|34:235,2,140
371,54,37038,6,0,L|369:201,1,140
177,82,37427,1,0,0:0:0:0:
150,105,37525,1,0,0:0:0:0:
133,135,37622,1,0,0:0:0:0:
306,228,37817,1,0,0:0:0:0:
287,257,37914,1,0,0:0:0:0:
256,274,38012,1,0,0:0:0:0:
315,46,38207,1,0,0:0:0:0:
395,81,38402,2,0,P|384:104|324:152,1,70
396,256,38597,2,0,P|351:272|299:266,1,70
431,168,38791,2,0,P|400:190|330:200,1,70
301,340,38986,2,0,P|254:327|201:286,1,70
17,182,39181,2,0,P|54:192|121:239,1,70
78,116,39376,2,0,P|114:131|144:159,1,70
201,83,39570,2,0,P|226:117|231:155,1,70
253,210,39765,2,0,L|221:296,1,70
166,261,40155,6,0,L|79:283,1,70
56,183,40350,2,0,L|-3:242,1,70
148,46,40739,6,0,L|10:163,1,140
351,79,41129,1,0,0:0:0:0:
377,101,41226,1,0,0:0:0:0:
391,132,41324,1,0,0:0:0:0:
166,207,41518,1,0,0:0:0:0:
178,239,41616,1,0,0:0:0:0:
204,262,41713,1,0,0:0:0:0:
386,282,41908,1,0,0:0:0:0:
305,180,42103,2,0,L|221:196,1,70
222,119,42298,2,0,L|163:178,1,70
132,85,42493,2,0,L|94:156,1,70
17,164,42687,2,0,L|73:236,1,70
123,190,42882,2,0,L|190:288,1,70
253,206,43077,2,0,L|251:300,1,70
123,98,43466,6,0,P|168:60|225:132,2,140
192,192,44051,2,0,P|256:256|320:256,1,140
384,96,44440,2,0,L|448:224,1,140
384,288,44830,2,0,L|224:320,1,140
75,237,45220,2,0,L|170:117,1,140
288,96,45609,2,0,L|352:256,1,140
224,288,45999,1,0,0:0:0:0:
96,256,46194,1,0,0:0:0:0:
