osu file format v14

[General]
AudioFilename: audio.mp3
AudioLeadIn: 0
PreviewTime: -1
Countdown: 1
SampleSet: Normal
StackLeniency: 0.7
Mode: 0
LetterboxInBreaks: 0
WidescreenStoryboard: 0

[Editor]
DistanceSpacing: 1.2
BeatDivisor: 6
GridSize: 4
TimelineZoom: 1.4

[Metadata]
Title:Crystal Snow
TitleUnicode:Crystal Snow (크리스탈 눈)
Artist:BTS
ArtistUnicode:BTS
Creator:JaviWaii
Version:Snowing
Source:
Tags:#BTS #CrystalSnow #LoveYourself #KPop #Ballad
BeatmapID:1494482
BeatmapSetID:706852

[Difficulty]
HPDrainRate:5
CircleSize:4
OverallDifficulty:5
ApproachRate:5
SliderMultiplier:1.4
SliderTickRate:1

[Events]
//Background and Video events
0,0,"beatmap wallpaper.jpg",0,0
//Break Periods
2,101656,109008
2,177536,192677
2,201516,209568
//Storyboard Layer 0 (Background)
//Storyboard Layer 1 (Fail)
//Storyboard Layer 2 (Pass)
//Storyboard Layer 3 (Foreground)
//Storyboard Sound Samples

[TimingPoints]
18967.4057412584,525.900604785695,4,1,0,100,1,0

[Colours]
Combo1 : 0,128,128
Combo2 : 62,165,249
Combo3 : 64,255,159
Combo4 : 0,255,255
Combo5 : 24,188,172
Combo6 : 0,0,255
Combo7 : 0,0,128

[HitObjects]
100,180,8861,5,0,0:0:0:0:
112,288,9386,1,0,0:0:0:0:
240,288,9911,1,0,0:0:0:0:
176,144,10611,1,0,0:0:0:0:
176,144,10786,1,0,0:0:0:0:
176,144,10961,1,0,0:0:0:0:
176,144,11136,1,0,0:0:0:0:
176,144,11311,1,0,0:0:0:0:
176,144,11486,2,0,P|276:120|288:144,1,140
368,128,12274,2,0,L|456:128,2,70
368,216,13062,1,0,0:0:0:0:
308,288,13324,2,0,L|224:288,2,70
368,352,14112,1,0,0:0:0:0:
288,256,14636,5,0,0:0:0:0:
204,148,14899,1,0,0:0:0:0:
152,56,15162,1,0,0:0:0:0:
152,56,15461,2,0,L|64:56,2,70
208,68,16212,1,2,0:0:0:0:
212,72,16475,2,2,L|296:72,1,70,0|0,0:0|0:0,0:0:0:0:
176,208,17525,2,0,L|96:208,1,70
52,148,18090,1,0,0:0:0:0:
112,104,18353,1,0,0:0:0:0:
184,80,18616,2,0,L|268:80,2,70
188,76,19405,1,0,0:0:0:0:
120,216,20151,6,0,P|172:268|200:276,1,93.3333333333333
189,273,20763,1,0,0:0:0:0:
189,273,21026,1,0,0:0:0:0:
196,184,21288,1,0,0:0:0:0:
200,88,21509,2,0,L|280:88,1,70
156,288,25664,1,0,0:0:0:0:
72,192,26014,1,0,0:0:0:0:
132,132,26189,1,0,0:0:0:0:
200,64,26364,1,0,0:0:0:0:
256,112,26540,2,0,L|332:180,2,93.3333333333333
256,112,27502,1,0,0:0:0:0:
264,120,27765,1,0,0:0:0:0:
36,192,28728,5,0,0:0:0:0:
36,192,28903,1,0,0:0:0:0:
128,264,29165,1,0,0:0:0:0:
128,264,29340,1,0,0:0:0:0:
248,320,29690,1,0,0:0:0:0:
304,276,29953,1,0,0:0:0:0:
360,232,30215,1,0,0:0:0:0:
108,196,33541,2,0,L|160:248,1,70
232,284,33979,1,0,0:0:0:0:
256,208,34154,1,0,0:0:0:0:
328,256,34329,1,0,0:0:0:0:
352,168,34504,1,0,0:0:0:0:
416,208,34766,6,0,P|420:188|368:108,1,116.666666666667
260,104,35729,1,0,0:0:0:0:
260,104,35992,1,0,0:0:0:0:
212,112,36254,2,0,L|128:140,2,70
128,216,38005,1,0,0:0:0:0:
128,216,38180,1,0,0:0:0:0:
128,216,38355,2,0,P|196:256|212:264,1,93.3333333333333
300,296,39055,1,0,0:0:0:0:
300,296,39230,1,0,0:0:0:0:
300,296,39405,2,0,P|368:336|384:344,1,93.3333333333333
388,248,39930,5,0,0:0:0:0:
388,140,40105,1,0,0:0:0:0:
384,44,40280,2,0,L|284:44,2,93.3333333333333
384,44,41243,1,0,0:0:0:0:
344,176,41505,1,0,0:0:0:0:
256,244,41768,1,0,0:0:0:0:
148,312,42031,1,0,0:0:0:0:
88,224,42556,1,0,0:0:0:0:
48,152,42906,1,0,0:0:0:0:
132,80,43081,1,0,0:0:0:0:
192,164,43343,1,0,0:0:0:0:
188,160,43606,2,0,L|276:140,2,70
136,236,45006,1,0,0:0:0:0:
160,292,45181,1,0,0:0:0:0:
212,324,45444,2,0,P|300:312|300:312,1,70
184,216,45963,1,0,0:0:0:0:
288,152,46231,1,0,0:0:0:0:
396,88,46494,1,0,0:0:0:0:
300,64,47019,6,0,L|224:64,1,70
156,76,47544,2,0,L|156:148,2,70
228,156,48595,2,0,L|228:232,2,70
224,56,49645,1,0,0:0:0:0:
336,60,49907,1,0,0:0:0:0:
448,60,50170,1,0,0:0:0:0:
448,60,50432,1,0,0:0:0:0:
448,172,51833,2,0,L|448:312,2,140
336,168,53758,2,0,L|216:168,1,116.666666666667
136,168,54458,1,0,0:0:0:0:
136,168,54728,1,0,0:0:0:0:
168,248,54991,2,0,L|256:272,2,70
176,240,58047,5,0,0:0:0:0:
176,240,58222,1,0,0:0:0:0:
104,252,58659,1,0,0:0:0:0:
112,136,58922,1,0,0:0:0:0:
180,72,59184,1,0,0:0:0:0:
284,72,59447,1,0,0:0:0:0:
328,132,59622,2,0,L|348:232,2,93.3333333333333
256,192,60672,12,0,62160,0:0:0:0:
256,192,62773,12,0,64436,0:0:0:0:
56,268,65311,5,0,0:0:0:0:
124,176,65661,2,0,L|228:176,1,93.3333333333333
180,84,66449,1,0,0:0:0:0:
296,88,66799,1,0,0:0:0:0:
412,96,67061,1,0,0:0:0:0:
412,192,67324,1,0,0:0:0:0:
360,240,67586,2,0,L|272:292,1,93.3333333333333
184,236,68724,1,0,0:0:0:0:
120,192,69074,2,0,L|32:216,2,70
196,128,70037,2,0,L|144:32,2,93.3333333333333
280,172,71087,2,0,L|404:116,2,116.666666666667
180,244,73275,5,0,0:0:0:0:
120,164,73538,1,0,0:0:0:0:
188,68,73888,1,0,0:0:0:0:
188,68,74413,1,0,0:0:0:0:
320,40,74850,2,0,L|396:116,1,93.3333333333333
422,190,75463,1,0,0:0:0:0:
368,240,75638,1,0,0:0:0:0:
304,276,75813,2,0,L|184:344,1,116.666666666667
124,328,77213,1,0,0:0:0:0:
68,280,77476,1,0,0:0:0:0:
60,212,77739,2,0,L|96:132,2,70
168,228,78526,1,0,0:0:0:0:
272,252,78876,1,0,0:0:0:0:
384,280,79226,1,0,0:0:0:0:
384,280,79576,2,0,L|396:176,4,93.3333333333333
284,316,82115,5,0,0:0:0:0:
216,264,82377,2,0,L|216:168,2,93.3333333333333
144,260,83340,1,0,0:0:0:0:
88,192,83602,1,0,0:0:0:0:
32,128,83865,1,0,0:0:0:0:
88,192,84127,1,0,0:0:0:0:
144,264,84390,1,0,0:0:0:0:
172,276,84565,2,0,P|300:256|304:252,1,140
320,184,85353,1,0,0:0:0:0:
240,152,85703,1,0,0:0:0:0:
240,152,85790,1,0,0:0:0:0:
240,152,85878,1,0,0:0:0:0:
240,152,85965,1,0,0:0:0:0:
240,152,86053,1,0,0:0:0:0:
240,160,86315,2,0,L|112:160,1,116.666666666667
428,264,87541,5,0,0:0:0:0:
428,264,87628,1,0,0:0:0:0:
428,264,87716,1,0,0:0:0:0:
428,264,87803,1,0,0:0:0:0:
428,264,87891,1,0,0:0:0:0:
428,272,88153,2,0,L|300:272,1,116.666666666667
120,256,89116,2,0,L|36:308,2,93.3333333333333
120,256,90341,1,0,0:0:0:0:
120,256,90954,1,0,0:0:0:0:
200,288,91567,2,0,L|320:288,1,116.666666666667
384,224,92267,1,0,0:0:0:0:
300,144,92529,1,0,0:0:0:0:
224,64,92792,1,0,0:0:0:0:
140,76,93055,2,0,P|80:120|84:136,1,93.3333333333333
100,200,94192,6,0,L|200:248,2,93.3333333333333
96,120,95330,2,0,L|40:36,2,93.3333333333333
96,120,96468,1,0,0:0:0:0:
144,200,96730,1,0,0:0:0:0:
144,200,96905,2,0,P|220:264|236:260,1,116.666666666667
320,264,98656,1,0,0:0:0:0:
264,176,98918,1,0,0:0:0:0:
256,192,99268,12,0,101456,0:0:0:0:
156,276,110208,6,0,L|60:212,1,93.3333333333333
80,224,110821,1,0,0:0:0:0:
40,152,111084,2,0,L|140:104,2,93.3333333333333
40,152,112046,1,0,0:0:0:0:
124,120,112834,2,0,P|208:116|208:120,1,116.666666666667
212,184,113534,2,0,L|124:256,1,93.3333333333333
196,308,114147,2,0,L|268:356,2,70
116,256,115109,1,0,0:0:0:0:
192,200,115547,1,0,0:0:0:0:
264,136,115722,1,0,0:0:0:0:
376,168,115985,1,0,0:0:0:0:
376,168,116160,2,0,P|364:140|327:55,1,116.666666666667
120,72,117210,5,0,0:0:0:0:
120,72,117297,1,0,0:0:0:0:
120,72,117385,1,0,0:0:0:0:
120,72,117472,1,0,0:0:0:0:
120,72,117560,1,0,0:0:0:0:
120,72,117648,1,0,0:0:0:0:
136,84,117823,2,0,P|196:88|204:136,1,116.666666666667
292,128,118698,2,0,L|392:80,1,93.3333333333333
456,52,119310,1,0,0:0:0:0:
452,144,119573,1,0,0:0:0:0:
452,236,119836,1,0,0:0:0:0:
456,328,120098,2,0,L|324:328,1,116.666666666667
156,288,121148,6,0,L|52:288,2,93.3333333333333
80,212,122024,1,0,0:0:0:0:
208,148,122286,1,0,0:0:0:0:
344,68,122549,1,0,0:0:0:0:
328,168,122986,1,0,0:0:0:0:
328,168,123249,2,0,L|328:244,2,70
244,116,124474,2,0,L|244:28,2,70
176,176,125524,2,0,L|176:252,1,70
100,252,126049,2,0,L|100:328,1,70
96,160,126750,1,0,0:0:0:0:
184,104,127100,1,0,0:0:0:0:
276,48,127450,1,0,0:0:0:0:
360,128,127975,2,0,L|360:216,3,70
288,228,129288,1,0,0:0:0:0:
288,228,129638,2,0,P|256:320|196:312,1,163.333333333333
128,280,130688,5,0,0:0:0:0:
56,196,130951,1,0,0:0:0:0:
124,128,131213,1,0,0:0:0:0:
128,132,132001,1,0,0:0:0:0:
124,128,132263,1,0,0:0:0:0:
124,128,132526,2,0,P|120:200|152:216,1,116.666666666667
232,272,133489,1,0,0:0:0:0:
232,272,133751,2,0,L|348:224,1,116.666666666667
388,160,134451,2,0,L|448:204,2,70
260,144,135239,1,0,0:0:0:0:
200,216,135502,1,0,0:0:0:0:
112,260,135852,2,2,L|36:200,1,93.3333333333333
68,116,136377,2,0,L|144:56,2,93.3333333333333
104,212,137952,1,0,0:0:0:0:
192,256,138215,1,0,0:0:0:0:
292,304,138477,1,0,0:0:0:0:
292,304,138740,1,0,0:0:0:0:
292,304,139002,5,0,0:0:0:0:
256,192,139265,12,0,141278,0:0:0:0:
296,288,143116,6,0,L|236:220,2,70
312,224,144779,1,0,0:0:0:0:
324,140,145041,2,0,L|236:104,1,93.3333333333333
132,208,146004,1,0,0:0:0:0:
132,208,146266,2,0,L|76:112,2,93.3333333333333
144,272,147142,2,2,P|276:312|284:304,1,163.333333333333
180,244,148892,1,0,0:0:0:0:
180,244,149067,1,0,0:0:0:0:
120,164,149330,1,0,0:0:0:0:
188,68,149680,1,0,0:0:0:0:
188,68,150205,1,0,0:0:0:0:
320,40,150642,2,0,L|396:116,1,93.3333333333333
422,190,151255,1,0,0:0:0:0:
368,240,151430,1,0,0:0:0:0:
304,276,151605,2,0,L|184:344,1,116.666666666667
124,328,153005,1,0,0:0:0:0:
68,280,153268,1,0,0:0:0:0:
60,212,153531,2,0,L|96:132,2,70
168,228,154318,1,0,0:0:0:0:
272,252,154668,1,0,0:0:0:0:
384,280,155018,1,0,0:0:0:0:
384,280,155368,2,0,L|396:176,4,93.3333333333333
284,316,157907,5,0,0:0:0:0:
216,264,158169,2,0,L|216:168,2,93.3333333333333
144,260,159132,1,0,0:0:0:0:
88,192,159394,1,0,0:0:0:0:
32,128,159657,1,0,0:0:0:0:
88,192,159919,1,0,0:0:0:0:
144,264,160182,1,0,0:0:0:0:
172,276,160357,2,0,P|300:256|304:252,1,140
320,184,161145,1,0,0:0:0:0:
240,152,161495,1,0,0:0:0:0:
240,152,161582,1,0,0:0:0:0:
240,152,161670,1,0,0:0:0:0:
240,152,161757,1,0,0:0:0:0:
240,152,161845,1,0,0:0:0:0:
240,160,162107,2,0,L|112:160,1,116.666666666667
136,284,163333,5,0,0:0:0:0:
136,284,163420,1,0,0:0:0:0:
136,284,163508,1,0,0:0:0:0:
136,284,163595,1,0,0:0:0:0:
136,284,163683,1,0,0:0:0:0:
144,288,163945,2,0,L|264:288,1,116.666666666667
332,248,164908,2,0,L|420:196,2,93.3333333333333
264,172,166133,1,0,0:0:0:0:
128,176,166746,1,0,0:0:0:0:
128,176,167359,2,0,L|248:176,1,116.666666666667
256,100,168059,1,0,0:0:0:0:
376,104,168321,1,0,0:0:0:0:
256,100,168584,1,0,0:0:0:0:
168,112,168847,2,0,P|108:156|112:172,1,93.3333333333333
144,232,169984,2,0,L|144:336,2,93.3333333333333
96,120,171122,2,0,L|40:36,2,93.3333333333333
96,120,172260,1,0,0:0:0:0:
144,200,172522,1,0,0:0:0:0:
144,200,172785,2,0,P|220:264|236:260,1,116.666666666667
320,264,174360,1,0,0:0:0:0:
264,176,174623,1,0,0:0:0:0:
256,192,175148,12,0,177336,0:0:0:0:
176,244,193877,5,0,0:0:0:0:
176,176,194140,2,0,L|264:176,2,70
164,104,195102,2,0,L|80:104,2,70
264,112,195978,1,0,0:0:0:0:
264,112,196328,1,0,0:0:0:0:
312,212,196503,1,0,0:0:0:0:
312,212,196678,1,0,0:0:0:0:
312,212,196853,1,0,0:0:0:0:
312,212,197115,2,0,P|404:204|412:212,2,93.3333333333333
200,272,198253,2,0,L|112:272,2,70
88,240,199303,2,0,P|88:168|124:156,1,116.666666666667
200,160,199916,1,0,0:0:0:0:
276,160,200179,1,0,0:0:0:0:
352,164,200441,1,0,0:0:0:0:
356,248,200791,2,0,L|356:332,2,70
160,276,210768,6,2,L|160:176,1,93.3333333333333
160,92,211644,5,0,0:0:0:0:
160,92,211906,1,0,0:0:0:0:
248,84,212781,2,2,L|344:84,1,93.3333333333333
352,168,213919,1,0,0:0:0:0:
352,168,214182,1,0,0:0:0:0:
340,248,214969,2,0,L|340:348,1,93.3333333333333
212,344,215932,1,0,0:0:0:0:
212,344,216195,1,0,0:0:0:0:
216,224,216720,2,0,L|216:148,2,70
128,256,217770,2,0,L|128:336,2,70
76,180,218908,5,0,0:0:0:0:
76,180,219170,2,0,B|124:144|164:152|168:144,1,93.3333333333333
200,56,220221,1,0,0:0:0:0:
280,104,220483,1,0,0:0:0:0:
184,212,221183,2,0,L|112:296,2,93.3333333333333
160,112,222321,2,0,L|56:76,2,93.3333333333333
76,192,223809,1,0,0:0:0:0:
184,192,224071,1,0,0:0:0:0:
284,196,224334,1,0,0:0:0:0:
384,192,224597,1,0,0:0:0:0:
284,196,224859,1,0,0:0:0:0:
256,192,225384,12,0,227835,0:0:0:0:
180,84,229848,6,0,L|180:156,2,70
180,84,230636,1,0,0:0:0:0:
296,88,230986,1,0,0:0:0:0:
412,96,231248,1,0,0:0:0:0:
412,192,231511,1,0,0:0:0:0:
360,240,231773,2,0,L|272:292,1,93.3333333333333
184,236,232911,1,0,0:0:0:0:
120,192,233261,2,0,L|32:216,2,70
196,128,234224,2,0,L|144:32,2,93.3333333333333
304,116,235274,2,0,L|404:116,2,93.3333333333333
180,244,237462,5,0,0:0:0:0:
120,164,237725,1,0,0:0:0:0:
188,68,238075,1,0,0:0:0:0:
188,68,238600,1,0,0:0:0:0:
320,40,239037,2,0,L|396:116,1,93.3333333333333
422,190,239650,1,0,0:0:0:0:
368,240,239825,1,0,0:0:0:0:
304,276,240088,2,0,L|184:344,1,116.666666666667
124,328,241400,1,0,0:0:0:0:
68,280,241663,1,0,0:0:0:0:
60,212,241926,2,0,L|96:132,2,70
168,228,242713,1,0,0:0:0:0:
272,252,243063,1,0,0:0:0:0:
392,272,243413,1,0,0:0:0:0:
388,264,243763,2,0,L|388:144,2,116.666666666667
388,264,244989,1,0,0:0:0:0:
284,316,246302,5,0,0:0:0:0:
216,264,246564,2,0,L|216:168,2,93.3333333333333
144,260,247527,1,0,0:0:0:0:
88,192,247789,1,0,0:0:0:0:
32,128,248052,1,0,0:0:0:0:
88,192,248314,1,0,0:0:0:0:
144,264,248577,1,0,0:0:0:0:
172,276,248752,2,0,P|300:256|304:252,1,140
320,184,249540,1,0,0:0:0:0:
240,152,249890,1,0,0:0:0:0:
240,152,249977,1,0,0:0:0:0:
240,152,250065,1,0,0:0:0:0:
240,152,250152,1,0,0:0:0:0:
240,152,250240,1,0,0:0:0:0:
240,160,250502,2,0,L|112:160,1,116.666666666667
116,64,251728,5,0,0:0:0:0:
116,64,251815,1,0,0:0:0:0:
116,64,251903,1,0,0:0:0:0:
116,64,251990,1,0,0:0:0:0:
116,64,252078,1,0,0:0:0:0:
116,64,252340,2,0,L|240:64,1,116.666666666667
228,156,253303,2,0,L|144:208,2,93.3333333333333
332,152,254528,1,0,0:0:0:0:
332,152,255141,1,0,0:0:0:0:
344,56,255754,2,0,L|464:56,1,116.666666666667
384,224,256454,1,0,0:0:0:0:
300,144,256716,1,0,0:0:0:0:
224,64,256979,1,0,0:0:0:0:
140,76,257242,2,0,P|80:120|84:136,1,93.3333333333333
100,200,258379,6,0,L|200:248,2,93.3333333333333
96,120,259517,2,0,L|40:36,2,93.3333333333333
96,120,260655,1,0,0:0:0:0:
144,200,261092,2,0,P|220:264|236:260,1,116.666666666667
320,264,262843,1,0,0:0:0:0:
264,176,263105,1,0,0:0:0:0:
256,192,263455,12,0,265643,0:0:0:0:
