osu file format v14

[General]
AudioFilename: audio.mp3
AudioLeadIn: 0
PreviewTime: 18109
Countdown: 0
SampleSet: Soft
StackLeniency: 0.7
Mode: 0
LetterboxInBreaks: 0
WidescreenStoryboard: 1

[Editor]
Bookmarks: 31251
DistanceSpacing: 1.5
BeatDivisor: 4
GridSize: 4
TimelineZoom: 1

[Metadata]
Title:Coconut Chicken
TitleUnicode:꼬꼬넛치킨
Artist:BTS
ArtistUnicode:방탄소년단
Creator:Tae
Version:Basaghae
Source:
Tags:bbqchicken bbq chicken beyond the scene bangtan boys sonyeondan bangtansonyeondan bulletproof boy scouts advertisement commercial advert 랩몬스터 슈가 진 제이홉 지민 뷔 정국 jungkook rap monster j-hope jimin v suga jin hot yoongi k-pop kpop firetruck xiaolin lapis aoki
BeatmapID:1527564
BeatmapSetID:641238

[Difficulty]
HPDrainRate:6
CircleSize:4
OverallDifficulty:7
ApproachRate:8.5
SliderMultiplier:1.7
SliderTickRate:1

[Events]
//Background and Video events
0,0,"bg.jpg",0,0
//Break Periods
//Storyboard Layer 0 (Background)
//Storyboard Layer 1 (Fail)
//Storyboard Layer 2 (Pass)
//Storyboard Layer 3 (Foreground)
//Storyboard Sound Samples

[TimingPoints]
2109,400,4,2,0,60,1,0
16809,-100,4,2,0,5,0,0
16909,-100,4,2,0,60,0,0
18509,-100,4,2,0,70,0,1
24509,-100,4,2,0,70,0,0
24909,-100,4,2,0,70,0,1
29909,-100,4,2,0,60,0,0
32509,-100,4,2,0,5,0,0

[Colours]
Combo1 : 240,194,100
Combo2 : 255,145,172
Combo3 : 125,236,129
Combo4 : 107,184,241

[HitObjects]
64,248,2109,5,2,0:0:0:0:
76,256,2509,2,0,P|124:252|164:264,1,85,2|0,3:2|0:0,0:0:0:0:
256,320,2909,2,0,P|297:330|339:324,1,85,2|0,3:2|0:0,0:0:0:0:
432,264,3309,1,2,0:0:0:0:
332,212,3509,1,0,0:0:0:0:
428,152,3709,5,2,0:0:0:0:
428,152,3909,2,0,L|416:60,1,85,2|0,3:0|0:0,0:0:0:0:
309,54,4309,2,0,P|325:94|324:136,1,85,2|2,0:0|0:0,0:0:0:0:
258,210,4709,1,0,0:0:0:0:
258,210,4909,2,0,P|242:170|246:122,1,85,2|0,3:2|0:0,0:0:0:0:
175,25,5309,6,0,P|131:37|83:29,1,85,2|0,1:2|0:0,0:0:0:0:
52,136,5709,2,0,P|96:124|144:132,1,85,2|0,1:2|0:0,0:0:0:0:
232,180,6109,1,0,1:2:0:0:
152,256,6309,2,0,L|164:352,1,85,0|2,3:2|1:2,0:0:0:0:
256,384,6709,1,0,0:0:0:0:
324,284,6909,6,0,P|368:268|420:276,1,85,0|2,3:2|0:0,0:0:0:0:
508,312,7309,1,2,0:0:0:0:
496,204,7509,2,0,L|484:116,1,85,0|2,0:0|3:2,0:0:0:0:
468,12,7909,1,2,0:0:0:0:
328,38,8109,1,2,0:0:0:0:
483,26,8309,1,0,0:0:0:0:
321,58,8509,6,0,L|228:68,1,85,2|0,3:2|0:0,0:0:0:0:
184,160,8909,2,0,L|277:170,1,85,0|2,1:2|0:0,0:0:0:0:
328,260,9309,2,0,L|243:269,1,85,2|0,3:2|0:0,0:0:0:0:
144,280,9709,1,2,0:0:0:0:
220,364,9909,1,0,0:0:0:0:
82,334,10109,6,0,P|66:298|67:252,2,85,2|0|0,3:2|0:0|1:2,0:0:0:0:
228,376,10709,1,2,0:2:0:0:
448,196,11109,1,2,0:0:0:0:
456,168,11209,1,2,0:0:0:0:
456,139,11309,1,2,0:0:0:0:
492,48,11509,1,2,0:0:0:0:
360,88,11709,6,0,L|276:85,1,85,2|0,3:2|0:0,0:0:0:0:
240,188,12109,2,0,L|324:184,1,85,2|0,1:2|0:0,0:0:0:0:
172,140,12509,1,2,3:2:0:0:
280,264,12709,2,0,L|368:260,1,85,2|2,3:2|3:2,0:0:0:0:
220,320,13109,1,0,0:0:0:0:
344,376,13309,5,2,0:0:0:0:
416,192,13509,1,2,0:0:0:0:
452,328,13709,1,2,0:0:0:0:
328,168,13909,6,0,L|232:160,1,85,0|2,0:0|3:2,0:0:0:0:
136,124,14309,1,2,0:0:0:0:
56,208,14509,1,2,0:0:0:0:
168,232,14709,1,0,0:0:0:0:
48,132,14909,6,0,P|4:152|-16:184,2,85,2|0|2,3:2|0:0|1:2,0:0:0:0:
156,108,15509,1,0,0:0:0:0:
256,152,15709,2,0,P|300:152|344:128,1,85,2|0,3:2|0:0,0:0:0:0:
264,240,16109,2,0,P|220:240|176:264,1,85,2|0,1:2|0:0,0:0:0:0:
132,336,16509,6,0,B|164:360|204:348|204:348|232:340|264:361,1,127.5,2|0,3:2|0:0,0:0:0:0:
272,368,16909,1,2,0:0:0:0:
372,320,17109,1,2,0:0:0:0:
408,76,17509,1,2,0:0:0:0:
384,72,17609,1,0,0:0:0:0:
360,68,17709,1,2,0:0:0:0:
220,52,17909,1,0,0:0:0:0:
264,176,18109,5,0,0:0:0:0:
132,148,18309,1,0,0:0:0:0:
272,196,18509,6,0,L|360:208,1,85,0|0,1:2|0:0,0:0:0:0:
460,292,18909,1,2,0:0:0:0:
324,328,19109,2,0,L|239:339,1,85,0|2,0:0|1:2,0:0:0:0:
92,340,19509,1,0,0:0:0:0:
176,216,19709,5,2,0:0:0:0:
76,352,19909,2,0,L|64:264,1,85,2|2,0:0|1:2,0:0:0:0:
192,200,20309,2,0,L|204:288,1,85,0|2,0:0|3:2,0:0:0:0:
292,372,20709,1,0,0:0:0:0:
408,332,20909,1,2,0:0:0:0:
320,248,21109,1,0,0:0:0:0:
428,132,21309,5,2,0:0:0:0:
496,276,21509,1,2,0:0:0:0:
344,232,21709,5,2,0:0:0:0:
496,196,21909,1,2,0:0:0:0:
332,144,22109,5,2,0:0:0:0:
452,40,22309,1,2,0:0:0:0:
264,88,22509,5,2,0:0:0:0:
369,1,22709,1,2,0:0:0:0:
420,128,22909,1,2,0:0:0:0:
344,320,23309,5,2,0:0:0:0:
344,320,23509,2,0,B|260:364|260:288|180:324,1,170,0|2,0:0|0:0,0:0:0:0:
212,232,24109,2,0,P|254:234|296:248,1,85,2|0,0:0|0:0,0:0:0:0:
148,176,24509,5,2,0:0:0:0:
116,284,24709,1,0,0:0:0:0:
12,224,24909,6,0,P|-4:184|0:140,1,85,2|0,1:2|0:0,0:0:0:0:
56,40,25309,1,2,0:0:0:0:
128,112,25509,1,2,0:0:0:0:
160,16,25709,2,0,L|248:24,1,85,2|0,1:2|0:0,0:0:0:0:
344,36,26109,5,0,0:0:0:0:
280,116,26310,2,0,P|268:160|280:204,1,85,0|2,0:0|3:2,0:0:0:0:
432,152,26709,2,0,L|344:160,1,85,0|2,0:0|3:2,0:0:0:0:
488,92,27109,1,0,0:0:0:0:
400,240,27309,1,2,0:0:0:0:
476,72,27509,1,0,0:0:0:0:
260,144,27709,6,0,L|176:152,1,85,2|0,3:2|0:0,0:0:0:0:
309,79,28109,1,2,0:0:0:0:
286,227,28309,1,0,0:0:0:0:
320,64,28509,2,0,L|404:56,1,85,2|2,3:2|0:0,0:0:0:0:
266,3,28909,1,2,0:0:0:0:
421,154,29109,1,2,0:0:0:0:
408,164,29509,6,0,L|324:156,1,85,2|2,0:0|2:2,0:0:0:0:
233,147,29909,1,2,0:0:0:0:
256,192,30909,12,0,32509,0:0:0:0:
