osu file format v14

[General]
AudioFilename: audio.mp3
AudioLeadIn: 0
PreviewTime: 64260
Countdown: 0
SampleSet: Soft
StackLeniency: 0.7
Mode: 0
LetterboxInBreaks: 0
WidescreenStoryboard: 0

[Editor]
DistanceSpacing: 1.4
BeatDivisor: 4
GridSize: 4
TimelineZoom: 2.1

[Metadata]
Title:Boy With Luv feat. Halsey
TitleUnicode:작은 것들을 위한 시 feat. Halsey
Artist:BTS
ArtistUnicode:방탄소년단
Creator:DeRandom Otaku
Version:Insane
Source:
Tags:map of the soul persona album 起 承 轉 her tear wonder beyond the scene bangtan boys sonyeondan bangtansonyeondan bulletproof boy scouts 슈가 진 제이홉 지민 뷔 정국 jungkook rm j-hope jimin v suga jin hot yoongi k-pop kpop Kittyadventure20 gokugohan12468 ren korean pop
BeatmapID:1995228
BeatmapSetID:955446

[Difficulty]
HPDrainRate:5.5
CircleSize:3.6
OverallDifficulty:7.5
ApproachRate:8
SliderMultiplier:2.2
SliderTickRate:1

[Events]
//Background and Video events
0,0,"bg.jpg",0,0
Video,180,"BTS - Boy With Luv feat. Halsey.avi"
//Break Periods
2,176460,183510
//Storyboard Layer 0 (Background)
//Storyboard Layer 1 (Fail)
//Storyboard Layer 2 (Pass)
//Storyboard Layer 3 (Foreground)
//Storyboard Sound Samples

[TimingPoints]
260,500,4,1,0,100,1,0
16260,-100,4,2,0,50,0,0
48260,-111.111111111111,4,2,0,50,0,0
63760,-57.1428571428571,4,2,0,50,0,0
64260,-100,4,2,0,68,0,1
80260,-90.9090909090909,4,2,0,68,0,1
96260,-54.054054054054,4,2,0,68,0,0
96635,-111.111111111111,4,2,0,50,0,0
128260,-111.111111111111,4,2,0,50,0,0
143760,-55.5555555555556,4,2,0,50,0,0
144260,-100,4,2,0,68,0,1
160260,-90.9090909090909,4,2,0,68,0,1
176260,-111.111111111111,4,2,0,50,0,0
191760,-54.054054054054,4,2,0,50,0,0
192260,-100,4,2,0,68,0,1
208260,-90.9090909090909,4,2,0,68,0,1
224260,-90.9090909090909,4,2,0,50,0,0
224385,-90.9090909090909,4,2,0,20,0,0

[Colours]
Combo1 : 255,113,45
Combo2 : 0,204,204
Combo3 : 255,83,83
Combo4 : 168,81,255

[HitObjects]
410,60,16260,6,0,P|405:111|403:153,2,73.3333333333333,0|0|0,1:0|0:0|0:0,0:0:0:0:
302,206,16760,2,0,P|299:169|295:132,2,73.3333333333333,8|0|0,0:0|0:0|0:0,0:0:0:0:
305,339,17260,1,0,0:0:0:0:
399,214,17510,1,8,0:0:0:0:
221,276,17760,1,8,0:0:0:0:
221,276,17885,2,0,P|165:261|125:214,1,110,0|0,0:0|0:0,0:0:0:0:
106,198,18260,5,0,1:0:0:0:
192,51,18510,1,0,1:0:0:0:
192,51,18635,1,0,0:0:0:0:
192,51,18760,1,8,0:0:0:0:
38,120,19010,2,0,P|31:66|15:3,1,110,0|0,1:0|0:0,0:0:0:0:
187,144,19510,1,0,0:0:0:0:
20,219,19760,1,8,0:0:0:0:
20,219,19885,1,0,0:0:0:0:
20,219,20010,1,0,0:0:0:0:
137,357,20260,6,0,P|145:300|170:240,1,110,0|0,1:0|0:0,0:0:0:0:
201,173,20635,1,0,0:0:0:0:
201,173,20760,1,8,0:0:0:0:
336,321,21010,1,0,1:0:0:0:
137,357,21260,1,0,0:0:0:0:
351,344,21510,1,8,0:0:0:0:
163,251,21760,1,8,0:0:0:0:
163,251,21885,2,0,P|114:237|56:237,1,110,0|0,0:0|0:0,0:0:0:0:
20,250,22260,5,0,1:0:0:0:
198,144,22510,2,0,P|234:152|277:159,1,55,0|0,1:0|0:0,0:0:0:0:
91,111,22760,1,8,0:0:0:0:
252,33,23010,1,0,1:0:0:0:
283,246,23260,2,0,P|278:297|269:357,1,110,0|0,0:0|0:0,0:0:0:0:
425,162,23760,1,8,0:0:0:0:
425,162,23885,1,0,0:0:0:0:
425,162,24010,1,0,0:0:0:0:
427,368,24260,6,0,P|420:327|419:289,2,73.3333333333333,0|0|0,1:0|0:0|0:0,0:0:0:0:
283,246,24760,2,0,P|281:282|274:318,2,73.3333333333333,8|0|0,0:0|0:0|0:0,0:0:0:0:
272,101,25260,1,0,0:0:0:0:
178,265,25510,1,8,0:0:0:0:
178,265,25635,1,0,0:0:0:0:
178,265,25760,2,0,P|176:203|169:161,1,55,8|0,0:0|0:0,0:0:0:0:
160,78,26010,1,0,0:0:0:0:
283,246,26260,5,0,1:0:0:0:
87,153,26510,1,0,1:0:0:0:
87,153,26635,1,0,0:0:0:0:
87,153,26760,1,8,0:0:0:0:
301,275,27010,2,0,P|350:262|406:220,1,110,0|0,1:0|0:0,0:0:0:0:
237,112,27510,1,0,0:0:0:0:
178,294,27760,1,8,0:0:0:0:
178,294,27885,1,0,0:0:0:0:
178,294,28010,1,0,0:0:0:0:
48,68,28260,6,0,P|58:128|59:186,1,110,0|0,1:0|0:0,0:0:0:0:
42,210,28635,2,0,P|42:240|51:274,1,55,0|8,0:0|0:0,0:0:0:0:
160,78,29010,1,0,1:0:0:0:
178,294,29260,1,0,0:0:0:0:
352,78,29510,1,8,0:0:0:0:
334,294,29760,1,8,0:0:0:0:
334,294,29885,2,0,P|385:286|447:282,1,110,0|0,0:0|0:0,0:0:0:0:
483,307,30260,5,0,1:0:0:0:
300,210,30510,2,0,P|274:213|234:229,1,55,0|0,1:0|0:0,0:0:0:0:
435,198,30760,1,8,0:0:0:0:
271,357,31010,1,0,1:0:0:0:
453,214,31260,2,0,P|461:159|484:87,1,110,0|0,0:0|0:0,0:0:0:0:
287,27,31760,1,8,0:0:0:0:
287,27,31885,2,0,P|302:79|310:134,1,110,0|0,0:0|0:0,0:0:0:0:
286,170,32260,6,0,P|270:222|268:283,1,110,0|0,1:0|0:0,0:0:0:0:
271,361,32635,1,0,0:0:0:0:
271,361,32760,2,0,P|241:357|209:358,1,55,8|0,0:0|0:0,0:0:0:0:
94,356,33010,1,0,1:0:0:0:
267,278,33260,1,0,0:0:0:0:
77,335,33510,1,8,0:0:0:0:
346,312,33760,2,0,B|445:309|399:369|498:370,1,165,8|0,0:0|0:0,0:0:0:0:
484,289,34260,6,0,P|474:238|479:162,1,110,0|0,1:0|1:0,0:0:0:0:
485,97,34635,1,0,0:0:0:0:
485,97,34760,2,0,P|454:93|421:98,1,55,8|0,0:0|0:0,0:0:0:0:
316,148,35010,1,0,1:0:0:0:
316,148,35135,2,0,P|262:145|223:41,1,165,0|0,0:0|0:0,0:0:0:0:
58,28,35760,1,8,0:0:0:0:
58,28,35885,2,0,P|67:78|67:116,1,55,0|0,0:0|0:0,0:0:0:0:
27,183,36135,1,0,0:0:0:0:
27,183,36260,6,0,P|84:183|124:226,1,110,0|0,1:0|0:0,0:0:0:0:
142,257,36635,1,0,0:0:0:0:
142,257,36760,2,0,P|201:255|237:180,2,110,8|0|0,0:0|1:0|0:0,0:0:0:0:
256,103,37510,1,8,0:0:0:0:
335,278,37760,1,8,0:0:0:0:
335,278,37885,2,0,P|342:203|362:137,1,110,0|0,0:0|0:0,0:0:0:0:
366,130,38260,5,0,1:0:0:0:
403,339,38510,1,0,1:0:0:0:
233,219,38760,2,0,P|246:280|251:355,1,110,8|0,0:0|1:0,0:0:0:0:
256,103,39260,2,0,P|197:96|147:61,1,110,0|0,0:0|0:0,0:0:0:0:
90,18,39635,1,0,0:0:0:0:
90,18,39760,2,0,P|99:67|99:156,1,110,8|0,0:0|0:0,0:0:0:0:
84,327,40260,5,0,1:0:0:0:
177,218,40510,2,0,P|205:215|232:218,1,55,0|0,0:0|0:0,0:0:0:0:
309,279,40760,1,8,0:0:0:0:
309,279,40885,2,0,P|336:281|363:278,1,55,0|0,0:0|1:0,0:0:0:0:
440,218,41135,2,0,P|439:187|458:109,1,110,0|0,0:0|0:0,0:0:0:0:
470,78,41510,1,8,0:0:0:0:
306,47,41760,1,8,0:0:0:0:
306,47,41885,1,0,0:0:0:0:
306,47,42010,1,0,0:0:0:0:
440,218,42260,5,0,1:0:0:0:
470,78,42510,2,0,P|472:45|464:13,1,55,0|0,1:0|0:0,0:0:0:0:
340,152,42760,1,8,0:0:0:0:
340,152,42885,2,0,P|335:179|337:206,1,55,0|0,0:0|1:0,0:0:0:0:
496,323,43135,2,0,B|393:314|449:383|317:370,1,165,0|0,0:0|0:0,0:0:0:0:
281,323,43635,1,0,0:0:0:0:
281,323,43760,1,8,0:0:0:0:
281,323,43885,2,0,P|243:327|208:339,1,55,0|0,0:0|0:0,0:0:0:0:
116,368,44135,1,0,0:0:0:0:
116,368,44260,6,0,P|111:333|111:289,1,55,0|0,1:0|0:0,0:0:0:0:
185,229,44510,2,0,P|181:174|173:119,1,110,0|8,0:0|0:0,0:0:0:0:
38,18,45010,2,0,P|29:72|26:127,1,110,0|0,1:0|0:0,0:0:0:0:
185,229,45510,2,0,P|218:224|245:210,1,55,8|0,0:0|0:0,0:0:0:0:
302,147,45760,1,8,0:0:0:0:
302,147,45885,2,0,P|368:157|422:185,1,110,0|0,0:0|0:0,0:0:0:0:
476,229,46260,5,0,1:0:0:0:
330,274,46510,1,0,1:0:0:0:
493,257,46760,1,0,0:0:0:0:
302,147,47010,1,0,1:0:0:0:
254,362,47260,1,8,0:0:0:0:
213,362,47385,1,8,0:0:0:0:
177,343,47510,1,8,0:0:0:0:
154,309,47635,1,8,0:0:0:0:
152,268,47760,2,0,P|155:232|155:192,1,55,2|0,0:0|0:0,0:0:0:0:
144,75,48010,1,0,1:0:0:0:
257,218,48260,5,6,0:0:0:0:
257,218,48385,2,0,P|295:207|368:202,1,98.9999969787599,0|0,0:0|0:0,0:0:0:0:
402,289,48760,1,2,0:0:0:0:
402,289,48885,2,0,P|440:300|513:305,1,98.9999969787599,0|0,0:0|0:0,0:0:0:0:
451,185,49260,1,2,0:0:0:0:
451,185,49385,2,0,P|401:188|353:201,1,98.9999969787599,0|0,0:0|0:0,0:0:0:0:
310,295,49760,1,2,0:0:0:0:
332,105,50010,1,0,0:0:0:0:
167,39,50260,5,2,0:0:0:0:
167,39,50385,2,0,P|180:93|179:161,1,98.9999969787599,0|0,0:0|0:0,0:0:0:0:
124,196,50760,1,2,0:0:0:0:
124,196,50885,2,0,P|111:250|112:318,1,98.9999969787599,0|0,0:0|0:0,0:0:0:0:
165,362,51260,1,2,0:0:0:0:
165,362,51385,2,0,P|214:359|262:347,1,98.9999969787599,0|0,0:0|0:0,0:0:0:0:
335,304,51760,2,0,P|345:334|346:370,1,49.4999984893799,2|0,0:0|0:0,0:0:0:0:
259,218,52010,1,0,0:0:0:0:
477,137,52260,5,2,0:0:0:0:
314,21,52510,2,0,B|199:31|265:90|132:104,1,197.99999395752,0|0,0:0|0:0,0:0:0:0:
102,73,53135,2,0,P|81:77|55:91,1,49.4999984893799,0|2,0:0|0:0,0:0:0:0:
23,190,53385,1,0,0:0:0:0:
23,190,53510,2,0,P|44:201|68:207,1,49.4999984893799,0|0,0:0|0:0,0:0:0:0:
187,179,53760,1,2,0:0:0:0:
123,302,54010,1,0,0:0:0:0:
123,302,54135,1,0,0:0:0:0:
123,302,54260,6,0,P|155:313|196:316,2,65.9999979858399,2|0|0,0:0|0:0|0:0,0:0:0:0:
254,247,54760,2,0,P|286:250|317:261,2,65.9999979858399,2|0|0,0:0|0:0|0:0,0:0:0:0:
362,345,55260,2,0,P|394:341|425:330,2,65.9999979858399,2|0|0,0:0|0:0|0:0,0:0:0:0:
266,334,55760,2,0,P|265:258|252:173,1,148.49999546814,2|0,0:0|0:0,0:0:0:0:
229,110,56260,5,2,0:0:0:0:
229,110,56385,2,0,P|268:97|332:103,1,98.9999969787599,0|0,0:0|0:0,0:0:0:0:
347,192,56760,1,2,0:0:0:0:
347,192,56885,2,0,P|386:205|450:199,1,98.9999969787599,0|0,0:0|0:0,0:0:0:0:
490,131,57260,1,2,0:0:0:0:
490,131,57385,2,0,P|475:178|480:227,1,98.9999969787599,0|0,0:0|0:0,0:0:0:0:
501,321,57760,1,2,0:0:0:0:
347,192,58010,1,0,0:0:0:0:
234,352,58260,5,2,0:0:0:0:
234,352,58385,2,0,P|196:333|127:315,1,98.9999969787599,0|0,0:0|0:0,0:0:0:0:
59,339,58760,1,2,0:0:0:0:
59,339,58885,2,0,P|65:287|54:235,1,98.9999969787599,0|0,0:0|0:0,0:0:0:0:
29,167,59260,1,2,0:0:0:0:
29,167,59385,2,0,P|23:115|34:63,1,98.9999969787599,0|0,0:0|0:0,0:0:0:0:
101,24,59760,2,0,P|112:56|113:84,1,49.4999984893799,2|0,0:0|0:0,0:0:0:0:
191,185,60010,1,0,0:0:0:0:
191,185,60135,1,0,0:0:0:0:
191,185,60260,5,2,0:0:0:0:
209,24,60510,2,0,B|319:24|274:113|391:100,1,197.99999395752,0|0,0:0|0:0,0:0:0:0:
413,80,61135,2,0,P|444:88|472:107,1,49.4999984893799,0|2,0:0|0:0,0:0:0:0:
491,197,61385,1,0,0:0:0:0:
491,197,61510,2,0,P|469:208|444:213,1,49.4999984893799,0|0,0:0|0:0,0:0:0:0:
317,168,61760,1,2,0:0:0:0:
357,333,62010,1,0,0:0:0:0:
357,333,62135,1,0,0:0:0:0:
357,333,62260,6,0,P|328:315|298:307,1,49.4999984893799,0|0,1:0|3:3,0:0:0:0:
175,287,62510,2,0,P|197:277|218:264,1,49.4999984893799,0|0,3:0|3:0,0:0:0:0:
329,145,62760,1,8,0:0:0:0:
304,117,62885,1,8,0:0:0:0:
269,105,63010,1,8,0:0:0:0:
233,109,63135,1,8,0:0:0:0:
202,130,63260,1,0,3:0:0:0:
165,154,63385,1,0,3:0:0:0:
121,160,63510,1,0,3:0:0:0:
80,144,63635,1,0,3:0:0:0:
50,112,63760,6,0,B|79:210|44:303|44:303|96:344|168:303,1,288.750002753735,2|0,0:3|0:0,0:0:0:0:
218,289,64260,5,4,1:2:0:0:
202,130,64510,1,2,0:0:0:0:
202,130,64635,1,0,0:0:0:0:
202,130,64760,1,8,0:0:0:0:
132,318,65010,1,2,1:2:0:0:
309,262,65260,1,0,0:0:0:0:
113,293,65510,1,2,0:0:0:0:
328,287,65760,1,8,0:0:0:0:
139,198,66010,2,0,P|100:181|32:181,1,110,2|0,0:0|1:0,0:0:0:0:
277,82,66510,5,2,1:2:0:0:
218,289,66760,1,8,0:0:0:0:
249,68,67010,1,2,1:2:0:0:
318,315,67260,1,0,0:0:0:0:
448,138,67510,1,2,0:0:0:0:
284,202,67760,1,8,0:0:0:0:
477,262,68010,1,2,0:0:0:0:
265,196,68260,6,0,P|213:202|153:237,1,110,0|2,1:0|0:0,0:0:0:0:
98,285,68635,1,0,0:0:0:0:
98,285,68760,1,8,0:0:0:0:
273,305,69010,1,2,1:2:0:0:
286,99,69260,1,0,0:0:0:0:
286,99,69385,1,0,0:0:0:0:
286,99,69510,1,2,0:0:0:0:
381,319,69760,1,8,0:0:0:0:
394,113,70010,1,2,0:0:0:0:
165,291,70260,5,0,1:0:0:0:
178,85,70510,1,2,1:2:0:0:
273,305,70760,1,8,0:0:0:0:
286,99,71010,1,2,1:2:0:0:
144,322,71260,2,0,P|100:284|88:219,1,110,0|2,0:0|0:0,0:0:0:0:
87,153,71635,1,0,0:0:0:0:
87,153,71760,1,8,0:0:0:0:
31,342,72010,1,2,0:0:0:0:
226,207,72260,6,0,B|327:214|272:267|384:278,1,165,4|0,1:2|0:0,0:0:0:0:
406,262,72760,1,8,0:0:0:0:
222,322,73010,1,2,1:2:0:0:
286,97,73260,1,0,0:0:0:0:
339,361,73510,1,2,0:0:0:0:
286,82,73760,1,8,0:0:0:0:
202,345,74010,2,0,P|196:282|180:214,1,110,2|0,0:0|1:0,0:0:0:0:
117,57,74510,5,2,1:2:0:0:
76,269,74760,1,8,0:0:0:0:
207,135,75010,1,2,1:2:0:0:
239,348,75260,1,0,0:0:0:0:
108,172,75510,1,2,0:0:0:0:
309,214,75760,1,8,0:0:0:0:
145,332,76010,1,2,0:0:0:0:
422,365,76260,6,0,P|430:308|443:243,1,110,0|2,1:0|0:0,0:0:0:0:
464,171,76635,1,0,0:0:0:0:
464,171,76760,1,8,0:0:0:0:
340,38,77010,1,2,1:2:0:0:
292,241,77260,1,0,0:0:0:0:
292,241,77385,1,0,0:0:0:0:
292,241,77510,1,2,0:0:0:0:
415,92,77760,1,8,0:0:0:0:
463,294,78010,1,2,0:0:0:0:
232,129,78260,5,0,1:2:0:0:
184,331,78510,1,2,1:2:0:0:
184,331,78635,1,0,0:0:0:0:
184,331,78760,1,8,0:0:0:0:
132,81,79010,1,2,1:2:0:0:
296,268,79260,1,8,0:0:0:0:
336,264,79385,1,8,0:0:0:0:
369,239,79510,1,10,0:0:0:0:
384,201,79635,1,8,0:0:0:0:
377,161,79760,1,8,1:2:0:0:
278,22,80010,1,2,1:2:0:0:
165,241,80260,5,4,1:2:0:0:
165,241,80385,2,0,P|161:205|155:176,1,60.5000018463135,0|2,0:0|0:0,0:0:0:0:
273,113,80635,1,0,0:0:0:0:
273,113,80760,2,0,P|267:142|264:172,1,60.5000018463135,8|0,0:0|0:0,0:0:0:0:
344,324,81010,1,2,1:2:0:0:
344,324,81135,2,0,P|340:293|335:264,1,60.5000018463135,0|0,0:0|0:0,0:0:0:0:
462,185,81385,1,0,0:0:0:0:
462,185,81510,2,0,P|456:214|453:244,1,60.5000018463135,2|0,0:0|0:0,0:0:0:0:
465,362,81760,1,8,0:0:0:0:
365,164,82010,1,2,0:0:0:0:
250,311,82260,5,0,1:0:0:0:
250,311,82385,2,0,P|225:305|192:291,1,60.5000018463135,0|2,0:0|1:2,0:0:0:0:
92,217,82635,1,0,0:0:0:0:
92,217,82760,2,0,P|67:223|34:237,1,60.5000018463135,8|0,0:0|0:0,0:0:0:0:
208,175,83010,2,0,P|203:113|186:52,1,121.000003692627,2|0,1:2|0:0,0:0:0:0:
149,38,83385,1,0,0:0:0:0:
149,38,83510,2,0,P|132:68|123:114,1,60.5000018463135,2|0,0:0|0:0,0:0:0:0:
114,295,83760,1,8,0:0:0:0:
208,175,84010,2,0,P|245:186|278:206,1,60.5000018463135,2|0,0:0|0:0,0:0:0:0:
335,321,84260,5,0,1:0:0:0:
335,321,84385,2,0,P|307:334|278:342,1,60.5000018463135,0|2,0:0|0:0,0:0:0:0:
114,295,84635,1,0,0:0:0:0:
114,295,84760,2,0,P|143:302|170:316,1,60.5000018463135,8|0,0:0|0:0,0:0:0:0:
307,228,85010,1,2,1:2:0:0:
307,228,85135,2,0,P|279:241|250:249,1,60.5000018463135,0|0,0:0|0:0,0:0:0:0:
112,188,85385,1,0,0:0:0:0:
112,188,85510,2,0,P|141:195|168:209,1,60.5000018463135,2|0,0:0|0:0,0:0:0:0:
278,342,85760,1,8,0:0:0:0:
243,145,86010,1,2,0:0:0:0:
243,145,86135,1,0,0:0:0:0:
243,145,86260,6,0,P|249:82|285:20,1,121.000003692627,0|2,1:0|1:2,0:0:0:0:
312,15,86635,1,0,0:0:0:0:
312,15,86760,2,0,P|326:39|338:82,1,60.5000018463135,8|0,0:0|0:0,0:0:0:0:
344,207,87010,1,2,1:2:0:0:
344,207,87135,1,0,0:0:0:0:
344,207,87260,2,0,P|402:214|444:263,1,121.000003692627,0|2,0:0|0:0,0:0:0:0:
465,345,87635,1,0,0:0:0:0:
465,345,87760,1,8,0:0:0:0:
497,165,88010,1,2,0:0:0:0:
362,295,88260,5,4,1:2:0:0:
362,295,88385,2,0,P|367:321|372:360,1,60.5000018463135,0|0,0:0|0:0,0:0:0:0:
252,221,88635,1,0,0:0:0:0:
252,221,88760,2,0,P|255:191|261:161,1,60.5000018463135,8|0,0:0|0:0,0:0:0:0:
381,56,89010,1,2,1:2:0:0:
381,56,89135,2,0,P|386:82|391:121,1,60.5000018463135,0|0,0:0|0:0,0:0:0:0:
481,256,89385,1,0,0:0:0:0:
481,256,89510,2,0,P|484:226|490:196,1,60.5000018463135,2|0,0:0|0:0,0:0:0:0:
476,35,89760,1,8,0:0:0:0:
380,204,90010,1,2,0:0:0:0:
275,21,90260,5,0,1:0:0:0:
275,21,90385,2,0,P|239:26|200:44,1,60.5000018463135,0|2,0:0|1:2,0:0:0:0:
149,156,90635,1,0,0:0:0:0:
149,156,90760,2,0,P|113:151|74:133,1,60.5000018463135,8|0,0:0|0:0,0:0:0:0:
263,114,91010,2,0,P|255:167|255:246,1,121.000003692627,2|0,1:2|0:0,0:0:0:0:
277,279,91385,1,0,0:0:0:0:
277,279,91510,2,0,P|277:309|269:345,1,60.5000018463135,2|0,0:0|0:0,0:0:0:0:
160,187,91760,1,8,0:0:0:0:
48,338,92010,2,0,P|43:309|43:279,1,60.5000018463135,2|0,0:0|0:0,0:0:0:0:
56,117,92260,5,0,1:0:0:0:
56,117,92385,2,0,P|50:83|37:54,1,60.5000018463135,0|2,0:0|0:0,0:0:0:0:
196,21,92635,1,0,0:0:0:0:
196,21,92760,2,0,P|184:49|179:78,1,60.5000018463135,8|0,0:0|0:0,0:0:0:0:
289,147,93010,1,2,1:2:0:0:
289,147,93135,2,0,P|300:175|305:204,1,60.5000018463135,0|0,0:0|0:0,0:0:0:0:
387,327,93385,1,0,0:0:0:0:
387,327,93510,2,0,P|393:293|406:264,1,60.5000018463135,2|0,0:0|0:0,0:0:0:0:
463,132,93760,2,0,P|405:129|385:56,1,121.000003692627,8|2,0:0|0:0,0:0:0:0:
379,38,94135,1,0,0:0:0:0:
379,38,94260,6,0,P|326:51|256:47,1,121.000003692627,0|2,1:2|1:2,0:0:0:0:
227,26,94635,1,0,0:0:0:0:
227,26,94760,2,0,P|197:29|168:44,1,60.5000018463135,8|0,0:0|0:0,0:0:0:0:
71,146,95010,1,2,1:2:0:0:
71,146,95135,1,0,0:0:0:0:
71,146,95260,1,8,0:0:0:0:
114,155,95385,1,8,0:0:0:0:
146,186,95510,1,10,0:0:0:0:
154,230,95635,1,8,0:0:0:0:
137,272,95760,1,8,0:2:0:0:
170,42,96010,1,2,1:2:0:0:
278,199,96260,6,0,B|332:243|420:198|420:198|380:166|353:172,1,203.499999223709,6|0,1:2|0:0,0:0:0:0:
270,100,96635,2,0,P|278:149|278:199,1,98.9999969787599,2|0,0:0|0:0,0:0:0:0:
270,237,97010,1,0,0:0:0:0:
233,369,97260,1,10,0:0:0:0:
369,333,97510,1,2,0:0:0:0:
196,290,97760,1,2,0:0:0:0:
278,199,98010,1,0,0:0:0:0:
131,179,98260,5,0,0:0:0:0:
201,45,98510,1,0,1:0:0:0:
201,45,98635,1,0,0:0:0:0:
201,45,98760,2,0,P|153:59|97:54,1,98.9999969787599,0|0,1:0|0:0,0:0:0:0:
283,107,99260,1,10,0:0:0:0:
109,163,99510,1,2,1:2:0:0:
278,199,99760,1,2,0:0:0:0:
131,179,100010,1,0,0:0:0:0:
355,155,100260,6,0,P|403:167|439:221,1,98.9999969787599,2|0,1:2|0:0,0:0:0:0:
449,236,100635,1,0,0:0:0:0:
435,356,100885,1,0,0:0:0:0:
435,356,101010,2,0,P|458:353|486:337,1,49.4999984893799,0|0,0:0|0:0,0:0:0:0:
347,279,101260,2,0,P|291:281|248:314,1,98.9999969787599,10|0,0:0|0:0,0:0:0:0:
258,338,101635,2,0,P|216:363|167:362,1,98.9999969787599,0|0,0:0|0:0,0:0:0:0:
134,356,102010,1,0,0:0:0:0:
40,263,102260,6,0,P|37:213|28:165,1,98.9999969787599,2|0,0:0|1:0,0:0:0:0:
18,133,102635,2,0,P|20:83|29:35,1,98.9999969787599
53,10,103010,1,0,0:0:0:0:
135,201,103260,1,10,0:0:0:0:
217,10,103510,1,2,1:2:0:0:
18,133,103760,1,10,0:0:0:0:
320,121,104010,1,2,0:0:0:0:
111,303,104260,5,4,1:2:0:0:
111,303,104385,1,0,0:0:0:0:
111,303,104510,1,0,0:0:0:0:
318,238,104760,2,0,P|349:246|387:274,2,65.9999979858399,0|0|0,0:0|0:0|0:0,0:0:0:0:
260,147,105260,2,0,P|291:139|329:111,2,65.9999979858399,8|0|0,0:0|0:0|0:0,0:0:0:0:
160,127,105760,1,0,0:0:0:0:
394,176,106010,1,2,0:0:0:0:
248,56,106260,6,0,P|200:39|134:46,1,98.9999969787599,2|0,0:0|1:0,0:0:0:0:
36,234,106760,2,0,P|43:270|42:320,2,65.9999979858399,0|0|0,1:0|0:0|0:0,0:0:0:0:
138,301,107260,2,0,P|131:333|130:366,2,65.9999979858399,8|0|0,0:0|0:0|0:0,0:0:0:0:
163,209,107760,1,0,0:0:0:0:
251,358,108010,1,2,0:0:0:0:
319,120,108260,6,0,P|358:131|383:157,2,65.9999979858399,6|0|0,1:2|0:0|0:0,0:0:0:0:
419,54,108760,2,0,P|458:43|483:17,2,65.9999979858399,0|0|0,0:0|0:0|0:0,0:0:0:0:
305,27,109260,2,0,P|266:38|241:64,2,65.9999979858399,8|0|0,0:0|0:0|0:0,0:0:0:0:
227,160,109760,2,0,P|188:149|163:123,2,65.9999979858399,8|0|0,0:0|0:0|0:0,0:0:0:0:
303,256,110260,6,0,P|283:260|231:262,2,65.9999979858399,0|0|0,0:0|0:0|0:0,0:0:0:0:
412,183,110760,2,0,P|444:177|477:176,2,65.9999979858399,0|0|0,1:0|0:0|0:0,0:0:0:0:
313,272,111260,2,0,P|293:276|241:278,2,65.9999979858399,0|0|0,0:0|0:0|0:0,0:0:0:0:
194,349,111760,2,0,P|203:275|188:203,1,148.49999546814,0|0,0:0|0:0,0:0:0:0:
113,123,112260,6,0,P|161:120|204:82,1,98.9999969787599,0|0,1:0|0:0,0:0:0:0:
218,60,112635,1,0,0:0:0:0:
218,60,112760,1,8,0:0:0:0:
28,115,113010,1,0,1:0:0:0:
189,203,113260,2,0,P|241:211|285:236,1,98.9999969787599,0|8,0:0|0:0,0:0:0:0:
311,259,113635,1,0,0:0:0:0:
311,259,113760,1,8,0:0:0:0:
119,290,114010,1,0,0:0:0:0:
119,290,114135,1,0,0:0:0:0:
119,290,114260,5,0,1:0:0:0:
82,294,114385,1,0,0:0:0:0:
49,278,114510,1,0,1:0:0:0:
30,246,114635,1,0,0:0:0:0:
31,210,114760,2,0,P|37:185|42:156,1,49.4999984893799,8|0,0:0|0:0,0:0:0:0:
96,23,115010,1,0,1:0:0:0:
96,23,115135,1,0,0:0:0:0:
96,23,115260,2,0,P|147:37|199:36,1,98.9999969787599,0|0,0:0|0:0,0:0:0:0:
233,34,115635,1,0,0:0:0:0:
233,34,115760,1,8,0:0:0:0:
386,104,116010,1,0,0:0:0:0:
201,135,116260,6,0,B|328:136|257:209|387:218,1,197.99999395752,0|8,1:0|0:0,0:0:0:0:
491,71,117010,1,0,1:0:0:0:
459,230,117260,2,0,P|454:283|455:338,1,98.9999969787599,0|8,0:0|0:0,0:0:0:0:
461,368,117635,1,0,0:0:0:0:
461,368,117760,1,8,0:0:0:0:
313,296,118010,1,0,0:0:0:0:
313,296,118135,1,0,0:0:0:0:
313,296,118260,5,0,1:0:0:0:
283,273,118385,1,0,0:0:0:0:
248,264,118510,1,0,1:0:0:0:
211,270,118635,1,0,0:0:0:0:
181,290,118760,1,8,0:0:0:0:
161,321,118885,1,0,0:0:0:0:
155,358,119010,1,0,1:0:0:0:
109,203,119260,2,0,P|114:154|127:105,1,98.9999969787599,0|0,0:0|0:0,0:0:0:0:
142,68,119635,1,0,0:0:0:0:
142,68,119760,1,8,0:0:0:0:
27,164,120010,1,0,0:0:0:0:
261,136,120260,6,0,B|352:161|298:187|388:221,1,148.49999546814,0|0,1:0|0:0,0:0:0:0:
437,161,120760,2,0,P|466:155|513:155,2,65.9999979858399,8|0|0,0:0|0:0|0:0,0:0:0:0:
481,255,121260,1,0,0:0:0:0:
367,51,121510,1,0,0:0:0:0:
254,222,121760,2,0,P|258:276|255:329,1,98.9999969787599,8|0,0:0|0:0,0:0:0:0:
169,170,122260,5,0,1:0:0:0:
349,142,122510,1,0,1:0:0:0:
160,78,122760,2,0,P|126:89|87:115,2,65.9999979858399,8|0|0,0:0|0:0|0:0,0:0:0:0:
237,119,123260,1,0,0:0:0:0:
44,52,123510,1,0,0:0:0:0:
67,249,123760,6,0,P|129:240|168:158,1,148.49999546814,8|0,0:0|0:0,0:0:0:0:
160,87,124260,2,0,P|191:151|261:166,1,148.49999546814,0|0,1:0|0:0,0:0:0:0:
343,140,124760,1,8,0:0:0:0:
343,140,124885,1,0,0:0:0:0:
343,140,125010,1,0,1:0:0:0:
231,263,125260,2,0,P|242:309|244:370,1,98.9999969787599,0|8,0:0|0:0,0:0:0:0:
168,170,125760,1,8,0:0:0:0:
168,170,125885,1,0,0:0:0:0:
168,170,126010,1,0,0:0:0:0:
349,245,126260,6,0,P|396:229|460:215,1,98.9999969787599,0|0,1:0|1:0,0:0:0:0:
260,83,126760,1,0,0:0:0:0:
233,247,127010,1,0,1:0:0:0:
165,31,127260,1,8,0:0:0:0:
128,34,127385,1,8,0:0:0:0:
98,56,127510,1,8,0:0:0:0:
83,89,127635,1,8,0:0:0:0:
87,126,127760,2,0,P|93:163|90:213,1,49.4999984893799,2|0,0:0|0:0,0:0:0:0:
79,334,128010,1,0,0:0:0:0:
261,170,128260,5,6,0:0:0:0:
261,170,128385,2,0,P|307:171|351:210,1,98.9999969787599,0|0,0:0|0:0,0:0:0:0:
391,279,128760,1,2,0:0:0:0:
391,279,128885,2,0,P|437:278|481:239,1,98.9999969787599,0|0,0:0|0:0,0:0:0:0:
495,164,129260,1,2,0:0:0:0:
495,164,129385,2,0,P|457:133|408:131,1,98.9999969787599,0|0,0:0|0:0,0:0:0:0:
333,167,129760,1,2,0:0:0:0:
458,29,130010,1,0,0:0:0:0:
251,17,130260,5,2,0:0:0:0:
251,17,130385,2,0,P|255:64|257:127,1,98.9999969787599,0|0,0:0|0:0,0:0:0:0:
192,178,130760,1,2,0:0:0:0:
192,178,130885,2,0,P|188:225|186:288,1,98.9999969787599,0|0,0:0|0:0,0:0:0:0:
214,358,131260,1,2,0:0:0:0:
214,358,131385,2,0,P|167:354|104:352,1,98.9999969787599,0|0,0:0|0:0,0:0:0:0:
31,358,131760,1,2,0:0:0:0:
186,277,132010,1,0,0:0:0:0:
6,206,132260,5,2,0:0:0:0:
182,65,132510,2,0,B|296:92|222:153|358:210,1,197.99999395752,0|0,0:0|0:0,0:0:0:0:
362,183,133135,2,0,P|394:188|421:203,1,49.4999984893799,0|2,0:0|0:0,0:0:0:0:
480,290,133385,1,0,0:0:0:0:
480,290,133510,2,0,P|457:299|432:302,1,49.4999984893799,0|0,0:0|0:0,0:0:0:0:
325,293,133760,1,2,0:0:0:0:
486,161,134010,1,0,0:0:0:0:
486,161,134135,1,0,0:0:0:0:
486,161,134260,6,0,P|483:122|485:80,2,65.9999979858399,2|0|0,0:0|0:0|0:0,0:0:0:0:
434,236,134760,2,0,P|434:268|431:301,2,65.9999979858399,2|0|0,0:0|0:0|0:0,0:0:0:0:
382,161,135260,2,0,P|382:128|379:95,2,65.9999979858399,2|0|0,0:0|0:0|0:0,0:0:0:0:
330,236,135760,2,0,B|239:231|293:173|185:176,1,148.49999546814,2|0,0:0|0:0,0:0:0:0:
136,226,136260,5,2,0:0:0:0:
136,226,136385,2,0,P|97:219|50:175,1,98.9999969787599,0|0,0:0|0:0,0:0:0:0:
12,107,136760,1,2,0:0:0:0:
12,107,136885,2,0,P|47:73|94:61,1,98.9999969787599,0|0,0:0|0:0,0:0:0:0:
163,120,137260,1,2,0:0:0:0:
163,120,137385,2,0,P|210:108|245:74,1,98.9999969787599,0|0,0:0|0:0,0:0:0:0:
293,7,137760,1,2,0:0:0:0:
330,236,138010,1,0,0:0:0:0:
167,124,138260,5,2,0:0:0:0:
167,124,138385,2,0,P|148:169|155:217,1,98.9999969787599,0|0,0:0|0:0,0:0:0:0:
237,256,138760,1,2,0:0:0:0:
237,256,138885,2,0,P|255:301|248:349,1,98.9999969787599,0|0,0:0|0:0,0:0:0:0:
174,311,139260,1,2,0:0:0:0:
174,311,139385,2,0,P|128:292|80:299,1,98.9999969787599,0|0,0:0|0:0,0:0:0:0:
7,350,139760,2,0,L|1:289,1,49.4999984893799,2|0,0:0|0:0,0:0:0:0:
56,142,140010,1,0,0:0:0:0:
56,142,140135,1,0,0:0:0:0:
56,142,140260,5,2,0:0:0:0:
237,256,140510,2,0,B|266:144|199:180|240:46,1,197.99999395752,0|0,0:0|0:0,0:0:0:0:
251,27,141135,2,0,P|282:37|303:57,1,49.4999984893799,0|2,0:0|0:0,0:0:0:0:
366,116,141385,1,0,0:0:0:0:
366,116,141510,2,0,P|386:101|410:95,1,49.4999984893799,0|0,0:0|0:0,0:0:0:0:
492,152,141760,1,2,0:0:0:0:
334,236,142010,1,0,0:0:0:0:
334,236,142135,1,0,0:0:0:0:
334,236,142260,6,0,P|310:257|293:289,1,49.4999984893799,0|0,1:0|3:3,0:0:0:0:
217,370,142510,2,0,P|202:350|183:334,1,49.4999984893799,0|0,3:0|3:0,0:0:0:0:
51,267,142760,1,8,0:0:0:0:
59,231,142885,1,8,0:0:0:0:
80,200,143010,1,8,0:0:0:0:
111,181,143135,1,8,0:0:0:0:
148,175,143260,1,0,3:0:0:0:
189,168,143385,1,0,3:0:0:0:
224,145,143510,1,0,3:0:0:0:
250,110,143635,1,0,3:0:0:0:
259,69,143760,6,0,B|217:54|184:9|184:9|202:122|187:231,1,296.99999093628,2|0,0:3|0:0,0:0:0:0:
180,297,144260,5,4,1:2:0:0:
76,114,144510,1,2,0:0:0:0:
76,114,144635,1,0,0:0:0:0:
76,114,144760,1,8,0:0:0:0:
262,259,145010,1,2,1:2:0:0:
26,255,145260,1,0,0:0:0:0:
252,336,145510,1,2,0:0:0:0:
93,198,145760,1,8,0:0:0:0:
314,151,146010,2,0,P|377:160|420:206,1,110,2|0,0:0|1:0,0:0:0:0:
243,363,146510,5,2,1:2:0:0:
194,141,146760,1,8,0:0:0:0:
409,289,147010,1,2,1:2:0:0:
458,67,147260,1,0,0:0:0:0:
314,151,147510,1,2,0:0:0:0:
507,180,147760,1,8,0:0:0:0:
350,60,148010,1,2,0:0:0:0:
409,289,148260,6,0,P|361:292|303:320,1,110,0|2,1:0|0:0,0:0:0:0:
243,363,148635,1,0,0:0:0:0:
243,363,148760,1,8,0:0:0:0:
480,360,149010,1,2,1:2:0:0:
274,229,149260,1,0,0:0:0:0:
274,229,149385,1,0,0:0:0:0:
274,229,149510,1,2,0:0:0:0:
377,374,149760,1,8,0:0:0:0:
432,150,150010,1,2,0:0:0:0:
187,282,150260,5,0,1:0:0:0:
132,58,150510,1,2,1:2:0:0:
343,282,150760,1,8,0:0:0:0:
398,58,151010,1,2,1:2:0:0:
201,185,151260,2,0,P|141:182|90:154,1,110,0|2,0:0|0:0,0:0:0:0:
34,107,151635,1,0,0:0:0:0:
34,107,151760,1,8,0:0:0:0:
65,283,152010,1,2,0:0:0:0:
256,109,152260,6,0,P|242:187|235:326,1,165,4|0,1:2|0:0,0:0:0:0:
235,312,152760,1,8,0:0:0:0:
168,88,153010,1,2,1:2:0:0:
349,211,153260,1,0,0:0:0:0:
88,265,153510,1,2,0:0:0:0:
372,235,153760,1,8,0:0:0:0:
147,78,154010,2,0,P|161:146|160:219,1,110,2|0,0:0|1:0,0:0:0:0:
185,363,154510,5,2,1:2:0:0:
79,183,154760,1,8,0:0:0:0:
270,261,155010,1,2,1:2:0:0:
9,289,155260,1,0,0:0:0:0:
174,222,155510,1,2,0:0:0:0:
185,363,155760,1,8,0:0:0:0:
270,261,156010,1,2,0:0:0:0:
79,183,156260,6,0,P|82:128|68:41,1,110,0|2,1:0|0:0,0:0:0:0:
24,11,156635,1,0,0:0:0:0:
24,11,156760,1,8,0:0:0:0:
174,190,157010,1,2,1:2:0:0:
276,22,157260,1,0,0:0:0:0:
276,22,157385,1,0,0:0:0:0:
276,22,157510,1,2,0:0:0:0:
322,202,157760,1,8,0:0:0:0:
161,77,158010,1,2,0:0:0:0:
419,111,158260,5,0,1:2:0:0:
245,276,158510,1,2,1:2:0:0:
245,276,158635,1,0,0:0:0:0:
245,276,158760,1,8,0:0:0:0:
464,345,159010,1,2,1:2:0:0:
322,202,159260,1,8,0:0:0:0:
313,162,159385,1,8,0:0:0:0:
327,123,159510,1,10,0:0:0:0:
358,97,159635,1,8,0:0:0:0:
399,91,159760,1,8,1:2:0:0:
361,305,160010,1,2,1:2:0:0:
180,197,160260,5,4,1:2:0:0:
180,197,160385,2,0,P|149:193|119:182,1,60.5000018463135,0|2,0:0|0:0,0:0:0:0:
233,108,160635,1,0,0:0:0:0:
233,108,160760,2,0,P|237:77|248:47,1,60.5000018463135,8|0,0:0|0:0,0:0:0:0:
322,161,161010,1,2,1:2:0:0:
322,161,161135,2,0,P|353:165|383:176,1,60.5000018463135,0|0,0:0|0:0,0:0:0:0:
269,250,161385,1,0,0:0:0:0:
269,250,161510,2,0,P|265:281|254:311,1,60.5000018463135,2|0,0:0|0:0,0:0:0:0:
180,197,161760,1,8,0:0:0:0:
336,72,162010,1,2,0:0:0:0:
162,27,162260,5,0,1:0:0:0:
162,27,162385,2,0,P|119:43|90:64,1,60.5000018463135,0|2,0:0|1:2,0:0:0:0:
29,158,162635,1,0,0:0:0:0:
29,158,162761,2,0,P|55:172|84:181,1,60.5000018463135,8|0,0:0|0:0,0:0:0:0:
232,123,163010,2,0,P|297:127|336:201,1,121.000003692627,2|0,1:2|0:0,0:0:0:0:
266,337,163510,1,2,0:0:0:0:
180,197,163760,1,8,0:0:0:0:
130,365,164010,1,2,0:0:0:0:
340,275,164260,5,0,1:0:0:0:
340,275,164385,2,0,P|370:281|397:296,1,60.5000018463135,0|2,0:0|0:0,0:0:0:0:
265,341,164635,1,0,0:0:0:0:
265,341,164761,2,0,P|238:355|208:361,1,60.5000018463135,8|0,0:0|0:0,0:0:0:0:
145,249,165010,1,2,1:2:0:0:
145,249,165135,2,0,P|175:255|202:270,1,60.5000018463135,0|0,0:0|0:0,0:0:0:0:
70,315,165385,1,0,0:0:0:0:
70,315,165511,2,0,P|43:329|13:335,1,60.5000018463135,2|0,0:0|0:0,0:0:0:0:
59,203,165760,1,8,0:0:0:0:
208,361,166010,1,2,0:0:0:0:
208,361,166135,1,0,0:0:0:0:
208,361,166260,6,0,P|221:288|247:221,1,121.000003692627,0|2,1:0|1:2,0:0:0:0:
277,223,166635,1,0,0:0:0:0:
277,223,166760,2,0,P|298:257|303:282,1,60.5000018463135,8|0,0:0|0:0,0:0:0:0:
158,187,167010,1,2,1:2:0:0:
158,187,167135,1,0,0:0:0:0:
158,187,167260,2,0,P|171:114|197:47,1,121.000003692627,0|2,0:0|0:0,0:0:0:0:
202,34,167635,1,0,0:0:0:0:
202,34,167760,1,8,0:0:0:0:
62,202,168010,1,2,0:0:0:0:
279,122,168260,5,4,1:2:0:0:
279,122,168385,2,0,P|306:128|333:149,1,60.5000018463135,0|0,0:0|0:0,0:0:0:0:
457,174,168635,1,0,0:0:0:0:
457,174,168760,2,0,P|430:180|403:201,1,60.5000018463135,8|0,0:0|0:0,0:0:0:0:
279,226,169010,1,2,1:2:0:0:
279,226,169135,2,0,P|306:232|333:253,1,60.5000018463135,0|0,0:0|0:0,0:0:0:0:
457,278,169385,1,0,0:0:0:0:
457,278,169510,2,0,P|430:284|403:305,1,60.5000018463135,2|0,0:0|0:0,0:0:0:0:
335,365,169760,1,8,0:0:0:0:
404,199,170010,1,2,0:0:0:0:
198,271,170260,5,0,1:0:0:0:
198,271,170385,2,0,P|189:235|189:188,1,60.5000018463135,0|2,0:0|1:2,0:0:0:0:
289,63,170635,1,0,0:0:0:0:
289,63,170760,2,0,P|286:93|278:122,1,60.5000018463135,8|0,0:0|0:0,0:0:0:0:
331,251,171010,2,0,P|364:224|446:221,1,121.000003692627,2|0,1:2|0:0,0:0:0:0:
491,284,171385,1,0,0:0:0:0:
491,284,171510,2,0,P|482:309|477:345,1,60.5000018463135,2|0,0:0|0:0,0:0:0:0:
428,124,171760,1,8,0:0:0:0:
331,251,172010,2,0,P|326:221|317:192,1,60.5000018463135,2|0,0:0|0:0,0:0:0:0:
268,69,172260,5,0,1:0:0:0:
268,69,172385,2,0,P|242:93|218:106,1,60.5000018463135,0|2,0:0|0:0,0:0:0:0:
92,77,172635,1,0,0:0:0:0:
92,77,172760,2,0,P|116:103|129:127,1,60.5000018463135,8|0,0:0|0:0,0:0:0:0:
100,253,173010,1,2,1:2:0:0:
100,253,173135,2,0,P|126:229|150:216,1,60.5000018463135,0|0,0:0|0:0,0:0:0:0:
276,245,173385,1,0,0:0:0:0:
276,245,173510,2,0,P|252:219|239:195,1,60.5000018463135,2|0,0:0|0:0,0:0:0:0:
268,69,173760,2,0,P|315:50|396:51,1,121.000003692627,8|2,0:0|0:0,0:0:0:0:
461,78,174135,1,0,0:0:0:0:
461,78,174260,6,0,P|442:138|438:230,1,121.000003692627,0|2,1:2|1:2,0:0:0:0:
468,228,174635,1,0,0:0:0:0:
468,228,174760,2,0,P|464:259|455:287,1,60.5000018463135,8|0,0:0|0:0,0:0:0:0:
305,153,175010,1,2,1:2:0:0:
305,153,175135,1,0,0:0:0:0:
305,153,175260,1,8,0:0:0:0:
293,196,175385,1,8,0:0:0:0:
259,225,175510,1,10,0:0:0:0:
215,230,175635,1,8,0:0:0:0:
175,209,175760,1,8,0:2:0:0:
352,277,176010,1,2,1:2:0:0:
207,360,176260,5,4,0:0:0:0:
207,360,184260,6,0,P|193:309|195:237,1,98.9999969787599,0|0,1:0|0:0,0:0:0:0:
199,226,184635,1,0,0:0:0:0:
199,226,184760,2,0,P|163:217|94:217,1,98.9999969787599,8|0,0:0|1:0,0:0:0:0:
62,225,185135,1,0,0:0:0:0:
62,225,185260,2,0,P|59:196|59:170,1,49.4999984893799,0|0,0:0|0:0,0:0:0:0:
164,33,185510,2,0,P|163:57|160:82,1,49.4999984893799,8|0,0:0|0:0,0:0:0:0:
199,226,185760,2,0,P|246:214|302:214,1,98.9999969787599,8|0,0:0|0:0,0:0:0:0:
367,267,186135,1,0,0:0:0:0:
367,267,186260,6,0,P|414:279|464:279,1,98.9999969787599,0|0,1:0|1:0,0:0:0:0:
499,201,186635,1,0,0:0:0:0:
499,201,186760,1,8,0:0:0:0:
485,180,186885,1,0,0:0:0:0:
475,157,187010,2,0,P|480:126|474:45,1,98.9999969787599,0|0,1:0|0:0,0:0:0:0:
461,24,187385,1,0,0:0:0:0:
461,24,187510,2,0,P|426:39|388:44,1,49.4999984893799,8|0,0:0|0:0,0:0:0:0:
286,72,187760,2,0,P|309:78|332:89,1,49.4999984893799,8|0,0:0|0:0,0:0:0:0:
395,178,188010,1,0,0:0:0:0:
395,178,188135,1,0,0:0:0:0:
395,178,188260,6,0,P|343:195|288:229,1,98.9999969787599,0|0,1:0|0:0,0:0:0:0:
257,281,188635,1,0,0:0:0:0:
257,281,188760,2,0,P|229:274|208:263,1,49.4999984893799,8|0,0:0|0:0,0:0:0:0:
145,175,189010,2,0,P|167:164|191:158,1,49.4999984893799,0|0,1:0|0:0,0:0:0:0:
332,89,189260,2,0,P|276:75|234:53,1,98.9999969787599,0|0,0:0|0:0,0:0:0:0:
205,31,189635,1,0,0:0:0:0:
205,31,189760,1,8,0:0:0:0:
92,108,190010,1,0,0:0:0:0:
92,108,190135,1,0,0:0:0:0:
92,108,190260,6,0,P|100:139|104:177,1,49.4999984893799,0|0,1:0|0:0,0:0:0:0:
176,314,190510,1,0,1:0:0:0:
176,314,190635,1,0,0:0:0:0:
176,314,190760,1,8,0:3:0:0:
179,277,190885,1,8,0:3:0:0:
199,246,191010,1,8,0:3:0:0:
231,228,191135,1,8,0:3:0:0:
268,227,191260,1,0,3:3:0:0:
297,226,191385,1,0,3:3:0:0:
323,211,191510,1,0,3:3:0:0:
339,187,191635,1,0,3:3:0:0:
342,158,191760,6,0,B|372:125|385:65|385:65|439:180|394:276,1,305.249998835564,2|0,0:3|0:0,0:0:0:0:
377,346,192260,5,4,1:2:0:0:
256,130,192510,1,2,0:0:0:0:
256,130,192635,1,0,0:0:0:0:
256,130,192760,1,8,0:0:0:0:
454,188,193010,1,2,1:2:0:0:
232,229,193260,1,0,0:0:0:0:
491,289,193510,1,2,0:0:0:0:
220,257,193760,1,8,0:0:0:0:
375,97,194010,2,0,P|368:155|370:219,1,110,2|0,0:0|1:0,0:0:0:0:
256,362,194510,5,2,1:2:0:0:
214,135,194760,1,8,0:0:0:0:
364,314,195010,1,2,1:2:0:0:
406,87,195260,1,0,0:0:0:0:
202,166,195510,1,2,0:0:0:0:
405,211,195760,1,8,0:0:0:0:
279,65,196010,1,2,0:0:0:0:
223,283,196260,6,0,P|176:279|116:242,1,110,0|2,1:0|0:0,0:0:0:0:
62,199,196635,1,0,0:0:0:0:
62,199,196760,1,8,0:0:0:0:
91,352,197010,1,2,1:2:0:0:
202,166,197260,1,0,0:0:0:0:
202,166,197385,1,0,0:0:0:0:
202,166,197510,1,2,0:0:0:0:
114,367,197760,1,8,0:0:0:0:
112,119,198010,1,2,0:0:0:0:
256,289,198260,5,0,1:0:0:0:
254,41,198510,1,2,1:2:0:0:
373,310,198760,1,8,0:0:0:0:
375,62,199010,1,2,1:2:0:0:
256,289,199260,2,0,P|209:270|193:204,1,110,0|2,0:0|0:0,0:0:0:0:
189,139,199635,1,0,0:0:0:0:
189,139,199760,1,8,0:0:0:0:
136,351,200010,1,2,0:0:0:0:
282,201,200260,6,0,B|383:209|324:273|456:283,1,165,4|0,1:2|0:0,0:0:0:0:
453,255,200760,1,8,0:0:0:0:
256,289,201010,1,2,1:2:0:0:
480,342,201260,1,0,0:0:0:0:
282,201,201510,1,2,0:0:0:0:
492,162,201760,1,8,0:0:0:0:
286,57,202010,2,0,P|243:75|176:83,1,110,2|0,0:0|1:0,0:0:0:0:
425,22,202510,5,2,1:2:0:0:
282,201,202760,1,8,0:0:0:0:
487,78,203010,1,2,1:2:0:0:
263,179,203260,1,0,0:0:0:0:
457,266,203510,1,2,0:0:0:0:
405,107,203760,1,8,0:0:0:0:
341,281,204010,1,2,0:0:0:0:
279,45,204260,6,0,P|233:26|175:35,1,110,0|2,1:0|0:0,0:0:0:0:
150,266,204760,2,0,P|196:285|254:276,1,110,8|2,0:0|1:2,0:0:0:0:
35,105,205260,2,0,P|45:153|47:227,1,110,0|2,0:0|0:0,0:0:0:0:
48,302,205635,1,0,0:0:0:0:
48,302,205760,1,8,0:0:0:0:
210,188,206010,1,2,0:0:0:0:
264,364,206260,5,0,1:2:0:0:
310,143,206510,1,2,1:2:0:0:
310,143,206635,1,0,0:0:0:0:
310,143,206760,1,8,0:0:0:0:
150,266,207010,1,2,1:2:0:0:
150,266,207135,1,0,0:0:0:0:
150,266,207260,1,8,0:0:0:0:
114,246,207385,1,8,0:0:0:0:
90,213,207510,1,10,0:0:0:0:
83,172,207635,1,8,0:0:0:0:
94,133,207760,1,8,1:2:0:0:
48,302,208010,1,2,1:2:0:0:
200,88,208260,5,4,1:2:0:0:
200,88,208385,2,0,P|199:58|187:20,1,60.5000018463135,0|2,0:0|0:0,0:0:0:0:
310,143,208635,1,0,0:0:0:0:
310,143,208760,2,0,P|301:172|300:202,1,60.5000018463135,8|0,0:0|0:0,0:0:0:0:
167,99,209010,1,2,1:2:0:0:
167,99,209135,2,0,P|166:69|154:31,1,60.5000018463135,0|0,0:0|0:0,0:0:0:0:
336,157,209385,1,0,0:0:0:0:
336,157,209510,2,0,P|327:186|326:216,1,60.5000018463135,2|0,0:0|0:0,0:0:0:0:
294,29,209760,1,8,0:0:0:0:
213,243,210010,1,2,0:0:0:0:
417,203,210260,5,0,1:0:0:0:
417,203,210385,2,0,P|424:232|427:267,1,60.5000018463135,0|2,0:0|1:2,0:0:0:0:
276,361,210635,1,0,0:0:0:0:
276,361,210760,2,0,P|278:330|285:301,1,60.5000018463135,8|0,0:0|0:0,0:0:0:0:
336,157,211010,2,0,B|243:165|287:231|168:232,1,181.500005538941,2|0,1:2|0:0,0:0:0:0:
142,214,211510,1,2,0:0:0:0:
340,250,211760,1,8,0:0:0:0:
179,118,212010,1,2,0:0:0:0:
56,302,212260,5,0,1:0:0:0:
56,302,212385,2,0,P|66:332|68:371,1,60.5000018463135,0|2,0:0|0:0,0:0:0:0:
197,318,212635,1,0,0:0:0:0:
197,318,212760,2,0,P|199:287|209:259,1,60.5000018463135,8|0,0:0|0:0,0:0:0:0:
108,148,213010,1,2,1:2:0:0:
108,148,213135,2,0,P|118:178|120:217,1,60.5000018463135,0|0,0:0|0:0,0:0:0:0:
249,164,213385,1,0,0:0:0:0:
249,164,213510,2,0,P|251:133|261:105,1,60.5000018463135,2|0,0:0|0:0,0:0:0:0:
167,27,213760,1,8,0:0:0:0:
352,157,214010,1,2,0:0:0:0:
352,157,214135,1,0,0:0:0:0:
352,157,214260,6,0,P|393:145|481:133,1,121.000003692627,0|2,1:0|1:2,0:0:0:0:
507,158,214635,1,0,0:0:0:0:
507,158,214760,2,0,P|497:192|494:231,1,60.5000018463135,8|0,0:0|0:0,0:0:0:0:
408,354,215010,1,2,1:2:0:0:
408,354,215135,1,0,0:0:0:0:
408,354,215260,2,0,P|400:290|381:229,1,121.000003692627,0|2,0:0|0:0,0:0:0:0:
352,157,215635,1,0,0:0:0:0:
352,157,215760,1,8,0:0:0:0:
290,341,216010,1,2,0:0:0:0:
231,112,216260,6,0,P|179:90|113:112,1,121.000003692627,4|0,1:2|0:0,0:0:0:0:
63,179,216635,1,0,0:0:0:0:
63,179,216760,2,0,P|58:214|47:252,1,60.5000018463135,8|0,0:0|0:0,0:0:0:0:
163,353,217010,1,2,1:2:0:0:
163,353,217135,2,0,P|155:323|151:293,1,60.5000018463135,0|0,0:0|0:0,0:0:0:0:
266,188,217385,1,0,0:0:0:0:
266,188,217510,2,0,P|261:223|250:261,1,60.5000018463135,2|0,0:0|0:0,0:0:0:0:
119,107,217760,1,8,0:0:0:0:
311,83,218010,1,2,0:0:0:0:
152,206,218260,5,0,1:0:0:0:
152,206,218385,2,0,P|109:204|72:186,1,60.5000018463135,0|2,0:0|1:2,0:0:0:0:
268,278,218635,1,0,0:0:0:0:
268,278,218760,2,0,P|311:276|348:258,1,60.5000018463135,8|0,0:0|0:0,0:0:0:0:
212,110,219010,2,0,P|192:175|183:253,1,121.000003692627,2|0,1:2|0:0,0:0:0:0:
192,320,219385,1,0,0:0:0:0:
192,320,219510,2,0,P|190:347|184:381,1,60.5000018463135,2|0,0:0|0:0,0:0:0:0:
285,189,219760,1,8,0:0:0:0:
385,379,220010,2,0,P|380:350|378:320,1,60.5000018463135,2|0,0:0|0:0,0:0:0:0:
434,158,220260,5,0,1:0:0:0:
434,158,220385,2,0,P|464:168|489:193,1,60.5000018463135,0|2,0:0|0:0,0:0:0:0:
336,218,220635,1,0,0:0:0:0:
336,218,220760,2,0,P|306:208|281:183,1,60.5000018463135,8|0,0:0|0:0,0:0:0:0:
251,81,221010,1,2,1:2:0:0:
251,81,221135,2,0,P|228:100|199:110,1,60.5000018463135,0|0,0:0|0:0,0:0:0:0:
48,69,221385,1,0,0:0:0:0:
48,69,221510,2,0,P|76:78|99:98,1,60.5000018463135,2|0,0:0|0:0,0:0:0:0:
183,227,221760,1,8,0:0:0:0:
29,160,222010,1,2,0:0:0:0:
29,160,222135,1,0,0:0:0:0:
29,160,222260,6,0,P|41:214|48:284,1,121.000003692627,0|2,1:2|1:2,0:0:0:0:
106,371,222635,1,0,0:0:0:0:
106,371,222760,2,0,P|116:336|134:293,1,60.5000018463135,8|0,0:0|0:0,0:0:0:0:
173,198,223010,1,2,1:2:0:0:
173,198,223135,1,0,0:0:0:0:
173,198,223260,1,8,0:0:0:0:
195,159,223385,1,8,0:0:0:0:
232,133,223510,1,10,0:0:0:0:
277,127,223635,1,8,0:0:0:0:
320,140,223760,1,8,0:2:0:0:
137,46,224010,1,2,1:2:0:0:
284,21,224260,6,0,B|441:29|338:113|497:135,1,242.000007385254,2|0,0:2|0:0,0:0:0:0:
