osu file format v14

[General]
AudioFilename: audio.mp3
AudioLeadIn: 0
PreviewTime: 58861
Countdown: 1
SampleSet: Normal
StackLeniency: 0.7
Mode: 0
LetterboxInBreaks: 0
WidescreenStoryboard: 0

[Editor]
Bookmarks: 59846,66692
DistanceSpacing: 1
BeatDivisor: 6
GridSize: 4
TimelineZoom: 1

[Metadata]
Title:Boy Meets Evil
TitleUnicode:Boy Meets Evil
Artist:BTS
ArtistUnicode:BTS
Creator:Raikuman
Version:Jump-Hope
Source:
Tags:
BeatmapID:1306534
BeatmapSetID:619883

[Difficulty]
HPDrainRate:6
CircleSize:4.2
OverallDifficulty:8.2
ApproachRate:9.7
SliderMultiplier:1.4
SliderTickRate:1

[Events]
//Background and Video events
0,0,"bme bg.png",0,0
//Break Periods
//Storyboard Layer 0 (Background)
//Storyboard Layer 1 (Fail)
//Storyboard Layer 2 (Pass)
//Storyboard Layer 3 (Foreground)
//Storyboard Sound Samples

[TimingPoints]
20,230.769230769231,4,1,0,100,1,0
73576,-200,4,1,0,100,0,0
75076,-100,4,1,0,100,0,0
77769,-200,4,1,0,100,0,0
82807,-100,4,1,0,100,0,0
85112,-200,4,1,0,100,0,0
88769,-100,4,1,0,100,0,0
89653,-200,4,1,0,100,0,0
95503,-100,4,1,0,100,0,0
99923,-200,4,1,0,100,0,0
108988,-100,4,1,0,100,0,0
109762,-200,4,1,0,100,0,0

[HitObjects]
256,120,250,6,0,L|256:176,6,35
256,192,1212,1,0,0:0:0:0:
256,192,1289,12,0,2096,0:0:0:0:
376,224,2558,5,0,0:0:0:0:
248,264,3020,1,0,0:0:0:0:
104,264,3481,1,0,0:0:0:0:
256,192,3943,1,0,0:0:0:0:
256,264,4404,2,0,L|256:208,6,35
256,192,4866,1,0,0:0:0:0:
256,192,4904,12,0,5827,0:0:0:0:
160,168,6289,5,0,0:0:0:0:
352,136,6750,2,0,P|368:224|320:304,2,175
184,192,7596,2,0,L|240:192,6,35
368,128,8558,5,0,0:0:0:0:
360,288,9020,1,0,0:0:0:0:
256,320,9250,1,0,0:0:0:0:
160,288,9481,1,0,0:0:0:0:
72,192,9943,1,0,0:0:0:0:
368,120,10404,1,0,0:0:0:0:
192,256,10866,1,0,0:0:0:0:
344,120,11327,1,0,0:0:0:0:
328,192,11789,6,0,L|272:192,6,35
256,192,12250,1,0,0:0:0:0:
168,192,12481,1,0,0:0:0:0:
272,224,12712,1,0,0:0:0:0:
160,136,13212,2,0,P|144:224|192:304,2,175
352,136,14135,2,0,P|368:224|320:304,2,175
256,195,15058,6,0,L|256:139,7,35
384,160,15827,5,0,0:0:0:0:
120,144,15981,1,0,0:0:0:0:
160,256,16135,1,0,0:0:0:0:
224,192,16289,1,0,0:0:0:0:
416,320,16443,1,0,0:0:0:0:
312,176,16673,2,0,L|168:248,1,140
248,60,17635,5,0,0:0:0:0:
384,352,17789,1,0,0:0:0:0:
184,332,17943,1,0,0:0:0:0:
512,172,18096,1,0,0:0:0:0:
72,200,18250,2,0,P|91:276|104:296,1,93.3333333333333
164,56,18558,1,0,0:0:0:0:
352,308,18750,1,0,0:0:0:0:
240,36,19520,5,0,0:0:0:0:
68,308,19673,1,0,0:0:0:0:
140,136,19827,1,0,0:0:0:0:
488,340,19981,1,0,0:0:0:0:
448,172,20135,1,0,0:0:0:0:
100,180,20327,2,0,L|225:242,1,140
32,192,21058,5,0,0:0:0:0:
96,268,21212,1,0,0:0:0:0:
164,100,21366,1,0,0:0:0:0:
232,336,21520,1,0,0:0:0:0:
304,32,21673,1,0,0:0:0:0:
344,356,21827,1,0,0:0:0:0:
448,200,21981,2,0,L|478:183,4,35
344,64,23173,5,0,0:0:0:0:
64,332,23327,1,0,0:0:0:0:
144,128,23481,1,0,0:0:0:0:
408,332,23635,1,0,0:0:0:0:
48,180,23789,2,0,L|18:171,3,23.3333333333333
212,296,24096,1,0,0:0:0:0:
160,32,24750,5,0,0:0:0:0:
328,216,24904,1,0,0:0:0:0:
64,320,25058,1,0,0:0:0:0:
344,352,25212,1,0,0:0:0:0:
52,56,25366,1,0,0:0:0:0:
384,128,25520,1,0,0:0:0:0:
40,304,25673,2,0,L|10:321,19,35
184,200,26866,5,0,0:0:0:0:
456,156,27020,1,0,0:0:0:0:
256,352,27173,1,0,0:0:0:0:
56,92,27327,1,0,0:0:0:0:
384,44,27481,1,0,0:0:0:0:
152,296,27635,1,0,0:0:0:0:
456,304,27789,1,0,0:0:0:0:
216,160,27943,1,0,0:0:0:0:
448,84,28096,1,0,0:0:0:0:
248,332,28250,1,0,0:0:0:0:
64,84,28404,1,0,0:0:0:0:
404,64,28558,1,0,0:0:0:0:
220,312,28712,1,0,0:0:0:0:
40,48,28866,1,0,0:0:0:0:
352,176,29020,1,0,0:0:0:0:
104,360,29173,1,0,0:0:0:0:
452,280,29327,1,0,0:0:0:0:
92,268,29481,1,0,0:0:0:0:
436,128,29635,1,0,0:0:0:0:
40,304,29789,2,0,L|10:321,10,35
136,300,31020,5,0,0:0:0:0:
408,120,31173,1,0,0:0:0:0:
176,48,31327,1,0,0:0:0:0:
312,272,31481,1,0,0:0:0:0:
424,72,31635,1,0,0:0:0:0:
84,300,31789,1,0,0:0:0:0:
164,64,31943,1,0,0:0:0:0:
344,280,32096,1,0,0:0:0:0:
56,184,32250,1,0,0:0:0:0:
376,80,32404,1,0,0:0:0:0:
416,296,32558,1,0,0:0:0:0:
156,328,32712,1,0,0:0:0:0:
268,44,32866,1,0,0:0:0:0:
384,304,33020,1,0,0:0:0:0:
152,160,33173,1,0,0:0:0:0:
440,324,33327,1,0,0:0:0:0:
36,72,33481,2,0,L|6:55,10,35
176,144,34673,5,0,0:0:0:0:
312,292,34827,1,0,0:0:0:0:
420,104,34981,1,0,0:0:0:0:
80,320,35135,1,0,0:0:0:0:
88,108,35289,1,0,0:0:0:0:
280,336,35443,1,0,0:0:0:0:
100,40,35596,1,0,0:0:0:0:
308,56,35750,1,0,0:0:0:0:
72,164,35904,1,0,0:0:0:0:
400,292,36058,1,0,0:0:0:0:
244,152,36212,2,0,L|144:208,1,93.3333333333333
480,136,36712,5,0,0:0:0:0:
248,272,36866,1,0,0:0:0:0:
56,192,37020,1,0,0:0:0:0:
80,96,37173,2,0,L|180:152,1,93.3333333333333
208,192,37481,1,0,0:0:0:0:
80,288,37635,2,0,L|161:242,1,93.3333333333333
256,64,37943,5,0,0:0:0:0:
432,96,38096,2,0,L|332:152,1,93.3333333333333
296,192,38404,1,0,0:0:0:0:
432,288,38558,2,0,L|332:232,1,93.3333333333333
64,192,39058,5,0,0:0:0:0:
256,288,39212,1,0,0:0:0:0:
256,288,39366,1,0,0:0:0:0:
448,192,39520,1,0,0:0:0:0:
256,96,39673,1,0,0:0:0:0:
256,96,39827,1,0,0:0:0:0:
256,128,39981,6,0,L|256:224,1,93.3333333333333
256,224,40289,1,0,0:0:0:0:
256,221,40443,2,0,L|256:128,1,93.3333333333333
224,168,40789,5,0,0:0:0:0:
336,200,40943,2,0,L|296:292,1,93.3333333333333
276,304,41250,1,0,0:0:0:0:
144,284,41404,1,0,0:0:0:0:
48,200,41558,2,0,L|52:92,1,93.3333333333333
64,92,41789,2,0,L|144:44,2,93.3333333333333
136,156,42250,2,0,L|72:192,2,70
220,116,42673,5,0,0:0:0:0:
328,72,42827,1,0,0:0:0:0:
452,92,42981,1,0,0:0:0:0:
292,268,43212,5,0,0:0:0:0:
184,312,43327,1,0,0:0:0:0:
60,292,43481,1,0,0:0:0:0:
256,116,43673,2,0,L|256:216,1,93.3333333333333
256,312,44096,2,0,L|256:272,1,23.3333333333333
256,168,44558,2,0,L|255:133,20,35
196,124,46404,5,0,0:0:0:0:
276,216,46558,1,0,0:0:0:0:
376,120,46712,1,0,0:0:0:0:
400,232,46866,2,0,L|316:312,1,116.666666666667
280,320,47212,1,0,0:0:0:0:
132,152,47904,5,0,0:0:0:0:
192,248,48058,1,0,0:0:0:0:
328,280,48212,1,0,0:0:0:0:
400,288,48366,2,0,L|436:200,1,93.3333333333333
424,164,48635,1,0,0:0:0:0:
176,208,48789,1,0,0:0:0:0:
272,36,48943,1,0,0:0:0:0:
220,316,49096,1,0,0:0:0:0:
248,128,49212,1,0,0:0:0:0:
168,124,49520,5,0,0:0:0:0:
176,216,49673,1,0,0:0:0:0:
320,160,49827,1,0,0:0:0:0:
136,264,49981,1,0,0:0:0:0:
252,68,50135,1,0,0:0:0:0:
288,244,50289,2,0,L|200:188,1,93.3333333333333
112,320,50596,1,0,0:0:0:0:
200,176,50750,2,0,L|236:272,1,93.3333333333333
256,192,51289,5,0,0:0:0:0:
352,112,51750,5,0,0:0:0:0:
320,160,51981,2,0,L|192:352,1,210
160,112,52673,1,0,0:0:0:0:
192,160,52904,2,0,L|320:352,1,210
256,336,53635,5,0,0:0:0:0:
256,304,53750,1,0,0:0:0:0:
256,272,53827,2,0,L|256:48,1,210
384,96,54520,1,0,0:0:0:0:
80,272,54712,1,0,0:0:0:0:
256,272,54943,5,0,0:0:0:0:
320,288,55058,1,0,0:0:0:0:
384,304,55173,2,0,L|512:192,1,157.5
320,224,55673,2,0,L|192:32,1,210
192,224,56596,2,0,L|320:32,1,210
80,128,57250,5,0,0:0:0:0:
80,192,57520,2,0,P|128:224|192:240,1,122.5
208,240,57827,1,0,0:0:0:0:
304,240,57981,1,0,0:0:0:0:
208,160,58173,2,0,P|149:158|129:133,1,87.5
185,106,58443,1,0,0:0:0:0:
512,48,58943,6,0,L|428:128,1,116.666666666667
192,320,59366,2,0,L|214:297,4,23.3333333333333
48,32,59866,6,0,L|132:112,1,116.666666666667
256,224,60173,1,0,0:0:0:0:
432,320,60289,2,0,P|465:331|488:308,1,70
384,128,60750,5,0,0:0:0:0:
144,288,60981,1,0,0:0:0:0:
96,176,61096,1,0,0:0:0:0:
288,256,61212,1,0,0:0:0:0:
400,96,61327,1,0,0:0:0:0:
160,272,61443,1,0,0:0:0:0:
352,272,61558,1,0,0:0:0:0:
480,64,61673,1,0,0:0:0:0:
128,112,61904,5,0,0:0:0:0:
336,272,62020,1,0,0:0:0:0:
368,128,62135,1,0,0:0:0:0:
96,320,62250,1,0,0:0:0:0:
160,144,62596,6,0,L|224:208,1,70
336,208,62827,2,0,L|272:272,1,70
80,304,63058,1,0,0:0:0:0:
108,84,63173,1,0,0:0:0:0:
376,304,63289,1,0,0:0:0:0:
256,192,63558,6,0,L|176:288,1,116.666666666667
352,160,63981,1,0,0:0:0:0:
84,228,64212,1,0,0:0:0:0:
392,260,64443,1,0,0:0:0:0:
80,40,64673,5,0,0:0:0:0:
464,196,64904,1,0,0:0:0:0:
72,324,65135,1,0,0:0:0:0:
408,68,65327,6,0,L|344:132,1,70
124,344,65789,2,0,L|146:321,6,23.3333333333333
424,320,66250,2,0,L|401:297,6,23.3333333333333
256,344,66789,6,0,L|256:264,1,70
256,144,67020,1,0,0:0:0:0:
456,116,67212,1,0,0:0:0:0:
328,32,67366,1,0,0:0:0:0:
200,28,67520,1,0,0:0:0:0:
84,96,67673,2,0,L|67:112,6,23.3333333333333
512,64,68173,6,0,L|384:128,1,140
288,176,68635,1,0,0:0:0:0:
128,304,68789,1,0,0:0:0:0:
352,320,68943,1,0,0:0:0:0:
168,56,69058,1,0,0:0:0:0:
436,164,69212,1,0,0:0:0:0:
256,272,69366,1,0,0:0:0:0:
80,160,69520,2,0,L|97:176,6,23.3333333333333
512,144,70020,5,0,0:0:0:0:
352,176,70135,1,0,0:0:0:0:
208,256,70250,1,0,0:0:0:0:
432,304,70443,6,0,L|449:288,6,23.3333333333333
32,240,70904,6,0,L|15:224,6,23.3333333333333
448,64,71404,6,0,L|431:80,6,23.3333333333333
0,336,71866,5,0,0:0:0:0:
160,304,71981,1,0,0:0:0:0:
304,224,72096,1,0,0:0:0:0:
416,112,72289,2,0,P|384:160|320:176,1,116.666666666667
112,160,72750,1,0,0:0:0:0:
432,288,72981,1,0,0:0:0:0:
224,120,73212,2,0,P|256:164|288:112,1,128.333333333333
472,184,73712,6,0,P|444:264|396:300,1,144.375
320,312,74327,1,0,0:0:0:0:
228,288,74481,1,0,0:0:0:0:
136,232,74635,1,0,0:0:0:0:
72,136,74789,1,0,0:0:0:0:
24,32,74943,1,0,0:0:0:0:
416,96,75096,1,0,0:0:0:0:
232,176,75481,6,0,L|211:210,1,23.3333333333333
384,128,75943,5,0,0:0:0:0:
64,320,76096,1,0,0:0:0:0:
92,140,76250,1,0,0:0:0:0:
484,328,76404,1,0,0:0:0:0:
408,152,76558,1,0,0:0:0:0:
256,48,76712,1,0,0:0:0:0:
0,32,76866,1,0,0:0:0:0:
32,200,77020,1,0,0:0:0:0:
180,48,77173,1,0,0:0:0:0:
344,364,77327,1,0,0:0:0:0:
424,208,77481,1,0,0:0:0:0:
176,232,77635,1,0,0:0:0:0:
348,40,77789,2,0,L|468:124,1,140
228,272,78750,5,0,0:0:0:0:
256,44,79212,2,0,L|208:100,1,70
128,192,79673,1,0,0:0:0:0:
288,128,80096,2,0,L|336:184,1,70
416,276,80558,1,0,0:0:0:0:
224,128,81020,5,0,0:0:0:0:
40,184,81481,6,0,P|68:264|116:300,1,144.375
192,312,82096,1,0,0:0:0:0:
284,288,82250,1,0,0:0:0:0:
376,232,82404,1,0,0:0:0:0:
440,136,82558,1,0,0:0:0:0:
488,32,82712,1,0,0:0:0:0:
288,128,82866,6,0,L|267:162,1,23.3333333333333
448,128,83327,5,0,0:0:0:0:
96,332,83481,1,0,0:0:0:0:
376,328,83635,1,0,0:0:0:0:
68,52,83789,1,0,0:0:0:0:
408,116,83943,1,0,0:0:0:0:
320,340,84096,1,0,0:0:0:0:
48,120,84250,1,0,0:0:0:0:
348,16,84404,1,0,0:0:0:0:
400,260,84558,1,0,0:0:0:0:
48,312,84712,1,0,0:0:0:0:
356,32,84866,1,0,0:0:0:0:
444,264,85020,1,0,0:0:0:0:
184,80,85173,2,0,L|64:164,1,140
288,128,86096,5,0,0:0:0:0:
416,128,86596,1,0,0:0:0:0:
288,288,86827,2,0,L|240:344,1,70
96,64,87520,1,0,0:0:0:0:
224,224,87750,2,0,L|272:280,1,70
224,128,88443,1,0,0:0:0:0:
192,288,88943,6,0,L|175:272,13,23.3333333333333
256,288,89635,1,0,0:0:0:0:
352,224,89827,2,0,P|384:160|352:96,1,140
192,128,90750,6,0,L|209:112,10,23.3333333333333
384,224,91866,1,0,0:0:0:0:
480,96,92096,1,0,0:0:0:0:
448,256,92327,1,0,0:0:0:0:
320,96,92558,2,0,L|200:180,1,140
208,272,93481,5,0,0:0:0:0:
388,204,93981,1,0,0:0:0:0:
484,76,94212,1,0,0:0:0:0:
452,236,94443,2,0,L|336:296,1,131.25
160,272,95096,1,0,0:0:0:0:
224,120,95327,1,0,0:0:0:0:
432,152,95827,6,0,L|415:136,8,23.3333333333333
368,252,96327,6,0,L|385:236,17,23.3333333333333
100,312,97212,5,0,0:0:0:0:
160,256,97327,1,0,0:0:0:0:
248,200,97443,1,0,0:0:0:0:
440,176,97673,5,0,0:0:0:0:
408,252,97789,1,0,0:0:0:0:
340,300,97904,1,0,0:0:0:0:
160,320,98135,5,0,0:0:0:0:
304,104,98250,1,0,0:0:0:0:
152,56,98366,1,0,0:0:0:0:
224,232,98481,1,0,0:0:0:0:
240,72,98596,1,0,0:0:0:0:
64,256,98712,1,0,0:0:0:0:
288,300,98827,1,0,0:0:0:0:
432,104,98943,1,0,0:0:0:0:
60,140,99058,1,0,0:0:0:0:
168,320,99173,1,0,0:0:0:0:
276,128,99289,1,0,0:0:0:0:
32,292,99404,1,0,0:0:0:0:
328,288,99520,1,0,0:0:0:0:
60,96,99635,1,0,0:0:0:0:
260,128,99750,1,0,0:0:0:0:
92,304,99866,1,0,0:0:0:0:
320,72,99981,2,0,L|434:152,1,140
256,192,100904,5,0,0:0:0:0:
384,132,101366,5,0,0:0:0:0:
380,168,101481,1,0,0:0:0:0:
368,200,101596,1,0,0:0:0:0:
348,228,101712,1,0,0:0:0:0:
316,244,101827,2,0,L|243:256,1,70
128,252,102289,5,0,0:0:0:0:
132,216,102404,1,0,0:0:0:0:
144,184,102520,1,0,0:0:0:0:
164,156,102635,1,0,0:0:0:0:
196,140,102750,2,0,L|336:112,1,140
256,160,103712,6,0,P|264:200|256:240,1,81.6666666666667
464,56,105558,5,0,0:0:0:0:
444,144,106020,1,0,0:0:0:0:
392,232,106443,1,0,0:0:0:0:
288,296,106904,1,0,0:0:0:0:
188,292,107366,2,0,P|148:281|116:256,1,81.6666666666667
432,152,109173,6,0,L|415:136,13,23.3333333333333
80,232,110096,6,0,L|97:248,8,23.3333333333333
256,160,111096,6,0,P|248:200|256:240,1,81.6666666666667
464,56,112943,5,0,0:0:0:0:
36,132,113404,1,0,0:0:0:0:
448,192,113827,1,0,0:0:0:0:
40,260,114289,1,0,0:0:0:0:
372,288,114750,6,0,P|411:298|443:323,1,78.75
256,192,116596,12,0,118404,0:0:0:0:
