osu file format v14

[General]
AudioFilename: audio.mp3
AudioLeadIn: 0
PreviewTime: 69171
Countdown: 0
SampleSet: None
StackLeniency: 0.7
Mode: 0
LetterboxInBreaks: 0
WidescreenStoryboard: 0

[Editor]
Bookmarks: 59592,93388,103508,203990,215556,218448
DistanceSpacing: 1.4
BeatDivisor: 8
GridSize: 4
TimelineZoom: 1

[Metadata]
Title:Boy In Luv
TitleUnicode:상남자
Artist:BTS
ArtistUnicode:방탄소년단
Creator:Lilyanna
Version:Insane
Source:
Tags:Bighit Entertainment SKOOL LUV AFFAIR 랩몬스터 슈가 진 제이홉 지민 뷔 정국 Rap Monster Suga Jin J-Hope Jimin V Jungkook K-pop Kpop Firetruck Bangtan Boys Sonyeondan Bulletproof Boy Scouts Bakari Euny
BeatmapID:1121955
BeatmapSetID:529064

[Difficulty]
HPDrainRate:6
CircleSize:4
OverallDifficulty:7
ApproachRate:8
SliderMultiplier:3
SliderTickRate:1

[Events]
//Background and Video events
Video,-580,"[MV] BTS.avi"
0,0,"1ifuseethisthenhotyoongi.jpg",0,0
//Break Periods
2,93587,102758
2,200576,201433
//Storyboard Layer 0 (Background)
//Storyboard Layer 1 (Fail)
//Storyboard Layer 2 (Pass)
//Storyboard Layer 3 (Foreground)
//Storyboard Sound Samples

[TimingPoints]
858,722.89156626506,4,3,78,55,1,0
858,-133.333333333333,4,3,78,55,0,0
12785,-100,4,3,78,65,0,0
23990,-76.9230769230769,4,3,78,65,0,0
24351,-100,4,3,78,65,0,0
26882,-76.9230769230769,4,3,78,65,0,0
27243,-100,4,3,78,65,0,0
29773,-76.9230769230769,4,3,78,65,0,0
30135,-100,4,3,78,65,0,0
32665,-76.9230769230769,4,3,78,65,0,0
33026,-100,4,3,78,65,0,0
46761,-133.333333333333,4,3,78,65,0,0
47123,-100,4,3,78,65,0,0
47484,-100,4,3,78,65,0,0
49653,-133.333333333333,4,3,78,65,0,0
50014,-100,4,3,78,65,0,0
52544,-133.333333333333,4,3,78,65,0,0
52906,-100,4,3,78,65,0,0
55436,-133.333333333333,4,3,78,65,0,0
55797,-100,4,3,78,65,0,0
58689,-166.666666666667,4,3,78,65,0,0
66098,-166.666666666667,4,3,78,65,0,0
70255,-100,4,3,78,70,0,1
81821,-100,4,3,78,70,0,1
83990,-100,4,3,78,70,0,1
84713,-100,4,3,78,70,0,1
93388,-100,4,3,78,55,0,0
111641,-100,4,3,78,5,0,0
111821,-100,4,3,78,55,0,0
116159,-66.6666666666667,4,3,78,55,0,0
116520,-100,4,3,78,55,0,0
118327,-100,4,3,78,55,0,0
118689,-100,4,3,78,55,0,0
119412,-100,4,3,78,55,0,0
121219,-100,4,3,78,55,0,0
121580,-100,4,3,78,55,0,0
122303,-100,4,3,78,55,0,0
123749,-100,4,3,78,55,0,0
127725,-66.6666666666667,4,3,78,70,0,0
128086,-100,4,3,78,70,0,0
130255,-166.666666666667,4,3,78,55,0,0
130978,-100,4,3,78,55,0,0
133147,-166.666666666667,4,3,78,55,0,0
133327,-166.666666666667,4,3,78,55,0,0
133689,-166.666666666667,4,3,78,5,0,0
133870,-100,4,3,78,55,0,0
136038,-166.666666666667,4,3,78,55,0,0
136129,-166.666666666667,4,3,78,5,0,0
136219,-166.666666666667,4,3,78,55,0,0
136580,-166.666666666667,4,3,78,5,0,0
136761,-100,4,3,78,55,0,0
139653,-166.666666666667,4,3,78,55,0,0
146882,-166.666666666667,4,3,78,5,0,0
147062,-166.666666666667,4,3,78,55,0,0
151219,-100,4,3,78,70,0,1
162785,-100,4,3,78,70,0,1
174351,-133.333333333333,4,3,78,70,0,0
184472,-133.333333333333,4,3,78,55,0,0
203267,-100,4,3,78,70,0,1
203990,-100,4,3,78,70,0,1
204171,-100,4,3,78,70,0,1
215556,-100,4,3,78,70,0,1
215737,-100,4,3,78,70,0,1
218448,-100,4,3,78,70,0,1
218629,-100,4,3,78,70,0,1
225677,-166.666666666667,4,3,78,70,0,1
226400,-100,4,3,78,70,0,0
227845,-100,4,3,78,5,0,0

[Colours]
Combo1 : 176,176,176
Combo2 : 151,253,240
Combo3 : 238,123,132
Combo4 : 122,122,180

[HitObjects]
78,169,858,6,0,P|137:181|187:152,1,112.500004291535,2|2,0:0|0:0,0:0:0:0:
229,95,1400,1,2,0:0:0:0:
270,161,1580,1,8,0:0:0:0:
414,223,1942,2,0,P|355:211|305:240,1,112.500004291535,2|0,0:0|0:0,0:0:0:0:
254,290,2484,1,0,0:0:0:0:
181,321,2665,2,0,P|132:338|60:301,1,112.500004291535,2|8,0:0|0:0,0:0:0:0:
129,260,3207,1,2,0:0:0:0:
118,181,3388,2,0,L|112:120,1,56.2500021457673,0|2,0:0|0:0,0:0:0:0:
43,70,3749,6,0,P|83:44|155:47,1,112.500004291535,2|0,0:0|0:0,0:0:0:0:
208,92,4291,1,0,0:0:0:0:
281,121,4472,2,0,P|338:136|393:110,1,112.500004291535,8|2,0:0|0:0,0:0:0:0:
436,52,5014,1,0,0:0:0:0:
461,128,5195,2,0,L|449:253,1,112.500004291535,0|2,0:0|0:0,0:0:0:0:
424,314,5737,1,0,0:0:0:0:
371,255,5918,1,8,0:0:0:0:
222,314,6279,2,0,L|157:322,1,56.2500021457673,0|8,0:0|0:0,0:0:0:0:
84,360,6641,6,0,P|80:302|114:251,1,112.500004291535,2|0,0:0|0:0,0:0:0:0:
178,223,7183,1,2,0:0:0:0:
114,175,7364,1,8,0:0:0:0:
229,40,7725,2,0,P|225:98|259:149,1,112.500004291535,2|0,0:0|0:0,0:0:0:0:
324,173,8267,1,2,0:0:0:0:
384,226,8448,2,0,P|390:284|354:335,1,112.500004291535,2|8,0:0|0:0,0:0:0:0:
313,266,8990,1,2,0:0:0:0:
243,304,9171,2,0,L|177:315,1,56.2500021457673,0|2,0:0|0:0,0:0:0:0:
110,357,9532,6,0,P|99:322|132:243,1,112.500004291535,8|0,0:0|0:0,0:0:0:0:
175,192,10074,1,8,0:0:0:0:
175,192,10255,2,0,P|180:140|170:120,1,56.2500021457673,8|0,0:0|0:0,0:0:0:0:
227,74,10617,2,0,P|279:86|348:68,1,112.500004291535,0|2,0:0|0:0,0:0:0:0:
405,37,11159,1,8,0:0:0:0:
405,37,11339,1,8,0:0:0:0:
437,191,11701,2,0,P|444:235|440:255,1,56.2500021457673
388,308,12062,1,0,0:0:0:0:
361,316,12152,1,0,0:0:0:0:
334,309,12243,1,0,0:0:0:0:
314,290,12333,1,0,0:0:0:0:
307,263,12423,5,4,0:2:0:0:
122,147,12785,2,0,L|45:139,1,75,0|0,0:0|0:0,0:0:0:0:
102,57,13147,2,0,L|186:67,1,75,8|0,0:0|0:0,0:0:0:0:
274,69,13508,1,2,0:0:0:0:
366,36,13689,1,0,0:0:0:0:
362,133,13870,2,0,L|367:221,1,75,0|2,0:0|0:0,0:0:0:0:
404,302,14231,1,2,0:0:0:0:
309,277,14412,1,0,0:0:0:0:
221,343,14592,2,0,B|163:323|117:318|117:318|143:309|170:277,1,150,4|0,0:1|0:0,0:0:0:0:
233,239,15135,1,2,0:0:0:0:
203,102,15315,5,4,0:1:0:0:
348,142,15677,2,0,L|425:134,1,75,0|0,0:0|0:0,0:0:0:0:
367,53,16039,2,0,L|283:63,1,75,8|0,0:0|0:0,0:0:0:0:
203,102,16400,1,2,0:0:0:0:
118,53,16581,1,0,0:0:0:0:
112,150,16762,2,0,L|107:238,1,75,0|2,0:0|0:0,0:0:0:0:
82,319,17123,1,2,0:0:0:0:
174,288,17304,1,0,0:0:0:0:
256,341,17484,2,0,B|299:320|360:316|360:316|334:306|307:275,1,150,4|0,0:1|0:0,0:0:0:0:
262,217,18027,1,0,0:0:0:0:
332,94,18207,5,4,0:1:0:0:
180,144,18568,2,0,L|103:136,1,75,0|0,0:0|0:0,0:0:0:0:
158,53,18930,2,0,L|242:63,1,75,8|0,0:0|0:0,0:0:0:0:
285,166,19291,1,2,0:0:0:0:
333,72,19472,1,0,0:0:0:0:
363,167,19653,2,0,P|349:212|316:239,1,75,0|2,0:0|0:0,0:0:0:0:
226,254,20014,1,2,0:0:0:0:
285,166,20195,1,0,0:0:0:0:
148,162,20376,2,0,B|100:177|39:163|39:163|59:179|65:196,1,150,4|0,0:1|0:0,0:0:0:0:
104,325,20918,1,0,0:0:0:0:
104,325,21098,6,0,P|118:280|151:253,1,75,4|0,0:0|0:0,0:0:0:0:
226,254,21459,1,0,0:0:0:0:
182,326,21640,1,0,0:0:0:0:
272,328,21821,2,0,B|320:313|381:327|381:327|361:311|355:294,1,150,8|8,0:0|0:0,0:0:0:0:
376,105,22544,2,0,P|362:150|329:177,1,75,4|2,0:3|0:3,0:0:0:0:
232,198,22905,1,2,0:3:0:0:
298,104,23086,1,2,0:3:0:0:
161,100,23267,2,0,B|113:115|52:101|52:101|72:117|78:134,1,150,4|2,0:3|0:3,0:0:0:0:
141,204,23809,1,0,0:0:0:0:
141,297,23990,6,0,P|146:355|217:292,1,194.999991073609,4|0,0:0|0:0,0:0:0:0:
260,218,24532,1,2,0:0:0:0:
338,262,24713,2,0,P|403:295|473:251,1,150,8|2,0:0|0:0,0:0:0:0:
403,215,25255,1,2,0:0:0:0:
246,124,25617,1,2,0:0:0:0:
310,78,25798,2,0,P|245:44|181:77,1,150,2|8,0:0|0:0,0:0:0:0:
42,212,26520,1,2,0:0:0:0:
42,212,26701,1,0,0:0:0:0:
147,282,26882,6,0,P|170:347|231:280,1,194.999991073609,4|0,0:0|0:0,0:0:0:0:
250,185,27424,1,2,0:0:0:0:
354,242,27604,2,0,B|370:128|370:128|332:154,1,150,8|2,0:0|0:0,0:0:0:0:
250,185,28147,2,0,P|250:107|320:50,1,150,0|2,0:0|0:1,0:0:0:0:
341,147,28689,2,0,B|412:136|443:191,1,112.5,2|0,0:1|0:0,0:0:0:0:
444,233,29050,2,2,L|432:268,3,37.5,2|2|2|2,0:1|0:1|0:1|0:1,0:0:0:0:
379,277,29412,2,2,P|346:269|288:284,1,75,2|2,0:1|0:1,0:0:0:0:
447,99,29773,6,0,B|376:114|358:180|358:180|357:135|335:89,1,194.999991073609,4|0,0:0|0:0,0:0:0:0:
247,126,30315,1,2,0:0:0:0:
304,47,30496,2,0,P|238:30|169:72,1,150,8|2,0:0|0:0,0:0:0:0:
109,195,31038,2,0,B|80:231|80:231|70:113,1,150,2|2,0:0|0:0,0:0:0:0:
78,30,31580,1,2,0:0:0:0:
251,72,31942,2,0,P|305:91|398:62,1,150,8|2,0:0|0:0,0:0:0:0:
482,31,32484,1,0,0:0:0:0:
474,178,32665,6,0,B|469:307|469:307|449:265|429:257,1,194.999991073609,4|0,0:0|0:0,0:0:0:0:
342,211,33207,1,8,0:0:0:0:
254,248,33388,2,0,B|156:267|156:267|100:251,1,150,8|8,0:0|0:0,0:0:0:0:
31,159,33930,2,0,B|129:140|129:140|177:153,1,150,0|8,0:0|0:0,0:0:0:0:
251,78,34472,2,0,L|332:71,1,75,8|0,0:0|0:0,0:0:0:0:
433,112,34833,2,0,L|455:70,3,37.5,2|2|2|2,0:1|0:1|0:1|0:1,0:0:0:0:
459,126,35195,2,0,L|490:102,3,37.5,2|2|2|0,0:1|0:1|0:1|0:0,0:0:0:0:
476,200,35556,5,4,0:0:0:0:
465,297,35737,1,0,0:0:0:0:
385,234,35918,2,0,L|301:257,1,75,0|2,0:0|0:0,0:0:0:0:
222,217,36279,1,8,0:0:0:0:
222,314,36460,1,0,0:0:0:0:
314,346,36641,2,0,L|386:365,1,75,2|2,0:0|0:0,0:0:0:0:
222,314,37002,1,0,0:0:0:0:
222,217,37183,1,2,0:0:0:0:
130,185,37364,2,0,L|58:166,1,75,2|0,0:0|0:0,0:0:0:0:
104,80,37725,2,0,L|176:99,1,75,8|0,0:0|0:0,0:0:0:0:
267,135,38086,1,0,0:0:0:0:
297,42,38267,1,0,0:0:0:0:
351,123,38448,5,4,0:0:0:0:
321,216,38629,1,0,0:0:0:0:
291,308,38809,2,0,L|195:317,1,75,0|2,0:0|0:0,0:0:0:0:
138,254,39171,1,8,0:0:0:0:
168,161,39352,1,0,0:0:0:0:
199,68,39532,2,0,L|295:59,1,75,2|2,0:0|0:0,0:0:0:0:
342,131,39894,1,0,0:0:0:0:
403,55,40074,1,0,0:0:0:0:
403,55,40165,1,0,0:0:0:0:
403,55,40255,2,0,P|439:112|439:135,1,75,0|0,0:0|0:0,0:0:0:0:
402,238,40617,2,2,L|419:284,3,37.5,2|2|2|2,0:1|0:1|0:1|0:1,0:0:0:0:
391,226,40978,2,2,P|348:231|308:200,1,75,2|2,0:1|0:1,0:0:0:0:
385,312,41339,6,0,B|335:324|273:288|273:288|298:316,1,150,4|0,0:0|0:0,0:0:0:0:
203,347,41882,1,2,0:0:0:0:
123,279,42062,2,0,P|112:228|128:180,1,75,10|2,0:0|0:0,0:0:0:0:
194,135,42424,2,0,P|203:171|200:208,1,75,2|0,0:0|0:0,0:0:0:0:
130,77,42785,1,0,0:0:0:0:
232,54,42966,1,2,0:0:0:0:
356,130,43147,2,0,P|320:141|284:135,1,75,2|0,0:0|0:0,0:0:0:0:
335,52,43508,2,0,P|388:57|437:139,1,150,8|2,0:0|0:0,0:0:0:0:
377,219,44050,1,2,0:0:0:0:
200,195,44231,6,0,B|145:184|116:123|116:123|116:152|106:161,1,150,0|2,0:0|0:0,0:0:0:0:
109,254,44773,1,2,0:0:0:0:
261,274,44954,2,0,P|293:208|278:136,1,150,8|10,0:0|0:0,0:0:0:0:
186,101,45496,1,10,0:0:0:0:
277,135,45677,2,0,P|288:80|279:62,1,75,0|10,0:0|0:0,0:0:0:0:
374,108,46038,2,0,P|364:143|378:178,1,75,10|0,0:0|0:0,0:0:0:0:
447,249,46400,2,2,L|498:261,3,37.5,2|2|2|2,0:1|0:1|0:1|0:1,0:0:0:0:
447,249,46761,6,0,P|391:275|345:271,1,84.3750032186509,2|2,0:1|0:1,0:0:0:0:
327,243,47123,6,0,B|280:195|208:217|208:217|221:189,1,150,4|2,0:2|0:0,0:0:0:0:
238,94,47665,1,2,0:0:0:0:
238,94,47755,1,0,0:0:0:0:
238,94,47845,2,0,P|185:96|152:115,1,75,8|0,0:0|0:0,0:0:0:0:
52,126,48207,1,2,0:0:0:0:
116,207,48388,1,2,0:0:0:0:
88,97,48568,5,2,0:1:0:0:
116,207,48749,1,2,0:1:0:0:
137,66,48930,1,2,0:1:0:0:
116,207,49111,1,2,0:1:0:0:
232,280,49291,1,2,0:1:0:0:
232,280,49653,6,0,P|272:260|315:253,1,84.3750032186509,0|0,0:0|0:0,0:0:0:0:
359,254,50014,5,4,0:0:0:0:
399,165,50195,1,0,0:0:0:0:
323,103,50376,1,0,0:0:0:0:
399,165,50556,1,0,0:0:0:0:
264,165,50737,5,8,0:0:0:0:
224,76,50918,1,0,0:0:0:0:
300,14,51099,1,2,0:0:0:0:
224,76,51279,1,2,0:0:0:0:
71,78,51460,5,2,0:1:0:0:
99,188,51641,1,2,0:1:0:0:
147,34,51821,1,2,0:1:0:0:
99,188,52002,1,2,0:1:0:0:
157,311,52183,1,2,0:1:0:0:
157,311,52544,6,0,P|197:291|240:284,1,84.3750032186509,0|0,0:0|0:0,0:0:0:0:
275,255,52906,6,0,L|266:176,1,75,4|0,0:2|0:0,0:0:0:0:
353,135,53267,2,0,L|360:209,1,75,0|0,0:0|0:0,0:0:0:0:
458,213,53629,2,0,L|450:138,1,75,8|0,0:0|0:0,0:0:0:0:
383,54,53990,2,0,P|341:49|307:62,1,75,2|2,0:0|0:0,0:0:0:0:
180,67,54351,5,0,0:0:0:0:
244,155,54532,1,0,0:0:0:0:
124,166,54713,1,0,0:0:0:0:
124,166,54803,1,0,0:0:0:0:
124,166,54894,1,0,0:0:0:0:
265,288,55074,1,0,0:0:0:0:
265,288,55436,6,0,P|205:286|170:293,1,84.3750032186509,0|0,0:0|0:0,0:0:0:0:
136,272,55797,6,0,L|128:192,1,75,4|0,0:0|0:0,0:0:0:0:
30,201,56159,2,0,L|22:121,1,75,0|0,0:0|0:0,0:0:0:0:
115,70,56520,1,8,0:0:0:0:
221,114,56701,1,0,0:0:0:0:
221,114,56791,1,0,0:0:0:0:
221,114,56882,2,0,L|228:193,1,75,2|2,0:0|0:0,0:0:0:0:
263,317,57243,1,4,0:0:0:0:
350,192,57424,1,2,0:0:0:0:
428,318,57604,1,2,0:0:0:0:
428,318,57966,5,2,0:1:0:0:
345,316,58147,1,2,0:1:0:0:
263,317,58327,1,2,0:1:0:0:
182,316,58508,1,2,0:1:0:0:
102,313,58689,6,0,P|91:277|99:209,1,89.9999972534181,4|4,0:0|0:0,0:0:0:0:
111,150,59231,1,2,0:0:0:0:
111,150,59412,1,4,0:0:0:0:
171,195,59592,1,0,0:0:0:0:
187,120,59773,1,4,0:0:0:0:
126,72,59954,1,2,0:0:0:0:
195,40,60135,2,0,P|234:47|286:40,1,89.9999972534181,0|2,0:0|0:0,0:0:0:0:
405,132,60857,2,0,L|424:172,1,44.999998626709,4|0,0:0|0:0,0:0:0:0:
349,190,61219,2,0,L|330:230,1,44.999998626709,4|0,0:0|0:0,0:0:0:0:
296,299,61580,6,0,B|252:286|252:286|195:302,1,89.9999972534181,4|0,0:0|0:0,0:0:0:0:
141,334,62123,1,4,0:0:0:0:
112,263,62303,2,0,L|131:223,1,44.999998626709,2|0,0:0|0:0,0:0:0:0:
55,205,62665,2,0,L|36:165,1,44.999998626709,4|2,0:0|0:0,0:0:0:0:
105,110,63026,2,0,P|117:53|104:17,1,89.9999972534181,0|2,0:0|0:0,0:0:0:0:
39,66,63568,1,0,0:0:0:0:
35,164,63749,2,0,L|54:204,1,44.999998626709,4|0,0:0|0:0,0:0:0:0:
40,281,64111,2,0,L|21:321,1,44.999998626709,4|0,0:0|0:0,0:0:0:0:
92,347,64472,6,0,P|145:354|184:346,1,89.9999972534181,4|8,0:0|0:0,0:0:0:0:
239,295,65014,1,2,0:0:0:0:
300,249,65195,2,0,P|353:242|392:250,1,89.9999972534181,4|8,0:0|0:0,0:0:0:0:
454,210,65737,1,8,0:0:0:0:
397,77,66098,1,8,0:0:0:0:
397,77,66279,1,8,0:0:0:0:
397,77,66460,1,2,0:0:0:0:
312,57,66641,2,0,L|272:76,1,44.999998626709,8|2,0:0|0:0,0:0:0:0:
200,106,67003,2,0,L|160:87,1,44.999998626709,8|2,0:0|0:0,0:0:0:0:
85,107,67364,6,0,P|80:169|93:213,1,89.9999972534181,4|8,0:0|0:0,0:0:0:0:
112,267,67906,1,2,0:0:0:0:
161,326,68086,2,0,P|202:320|260:332,1,89.9999972534181,4|2,0:0|0:0,0:0:0:0:
401,304,68809,1,4,0:0:0:0:
425,226,68990,1,4,0:0:0:0:
446,147,69171,1,4,0:0:0:0:
462,68,69351,1,0,0:0:0:0:
417,149,69532,5,0,0:0:0:0:
397,220,69713,1,0,0:0:0:0:
379,291,69894,1,0,0:0:0:0:
442,73,70255,5,4,0:2:0:0:
210,50,70617,2,0,P|175:84|164:117,1,75,0|2,0:0|0:0,0:0:0:0:
59,144,70978,2,0,P|94:178|105:211,1,75,8|0,0:0|0:0,0:0:0:0:
78,311,71339,2,0,B|171:328|215:233|215:233|216:277|226:293,1,225,2|2,0:0|0:0,0:0:0:0:
319,272,72062,1,2,0:0:0:0:
426,238,72242,1,2,0:0:0:0:
325,189,72424,5,8,0:0:0:0:
319,272,72603,1,2,0:0:0:0:
313,355,72784,1,2,0:0:0:0:
328,106,73146,5,2,0:0:0:0:
124,29,73508,2,0,L|132:112,1,75,0|0,0:0|0:0,0:0:0:0:
221,155,73870,2,0,L|212:238,1,75,8|2,0:0|0:0,0:0:0:0:
250,335,74231,2,0,B|151:352|111:269|111:269|98:309|65:324,1,225,2|2,0:0|0:0,0:0:0:0:
9,226,74954,1,2,0:0:0:0:
151,52,75315,2,0,L|247:40,1,75,8|2,0:0|0:0,0:0:0:0:
276,144,75677,2,0,L|372:155,1,75,8|8,0:0|0:0,0:0:0:0:
447,95,76038,6,0,P|457:184|425:237,1,150,4|2,0:2|0:0,0:0:0:0:
466,341,76580,1,2,0:0:0:0:
353,341,76761,2,0,L|256:352,1,75,8|2,0:0|0:0,0:0:0:0:
228,249,77123,2,0,L|131:237,1,75,2|8,0:0|0:0,0:0:0:0:
57,298,77484,2,0,P|48:208|76:156,1,150,8|2,0:0|0:0,0:0:0:0:
274,54,78207,1,8,0:0:0:0:
213,149,78388,1,2,0:0:0:0:
272,243,78568,1,2,0:0:0:0:
205,333,78749,1,2,0:0:0:0:
315,312,78930,6,0,P|350:231|301:167,1,150,2|2,0:0|0:0,0:0:0:0:
259,88,79472,1,2,0:0:0:0:
155,133,79653,1,8,0:0:0:0:
259,88,79833,1,0,0:0:0:0:
162,29,80014,2,0,L|125:35,2,37.5,8|2|8,0:0|0:1|0:0,0:0:0:0:
259,88,80376,1,4,0:0:0:0:
355,101,80556,1,2,0:0:0:0:
269,203,80737,1,2,0:0:0:0:
370,221,80918,1,2,0:0:0:0:
169,254,81098,5,4,0:0:0:0:
107,198,81279,1,2,0:0:0:0:
49,138,81460,1,8,0:0:0:0:
275,203,81821,5,4,0:2:0:0:
129,33,82183,2,0,P|75:40|39:25,1,75,0|2,0:0|0:0,0:0:0:0:
130,118,82544,2,0,P|184:111|220:126,1,75,8|0,0:0|0:0,0:0:0:0:
275,203,82906,2,0,B|343:128|293:55|293:55|327:78|359:90,1,225,2|2,0:0|0:0,0:0:0:0:
404,185,83629,1,2,0:0:0:0:
443,290,83809,1,0,0:0:0:0:
342,241,83989,5,8,0:0:0:0:
404,185,84170,1,2,0:0:0:0:
462,125,84351,1,2,0:0:0:0:
278,294,84713,5,8,0:0:0:0:
70,101,85074,2,0,P|90:151|121:174,1,75,2|2,0:0|0:0,0:0:0:0:
84,262,85436,2,0,P|30:255|-6:270,1,75,8|2,0:0|0:0,0:0:0:0:
51,356,85797,2,0,P|162:323|172:218,1,225,2|2,0:0|0:0,0:0:0:0:
84,262,86520,1,2,0:0:0:0:
404,160,86882,1,8,0:0:0:0:
255,130,87062,1,2,0:0:0:0:
376,255,87243,1,8,0:0:0:0:
353,99,87424,1,8,0:0:0:0:
158,108,87604,6,0,B|121:107|93:76|93:76|135:167|100:249,1,225,4|2,0:2|0:0,0:0:0:0:
214,220,88327,1,8,0:0:0:0:
219,374,88507,1,2,0:0:0:0:
313,222,88688,1,2,0:0:0:0:
171,285,88869,1,8,0:0:0:0:
312,380,89050,2,0,B|322:344|301:308|301:308|352:395|453:364,1,225,8|2,0:0|0:0,0:0:0:0:
405,256,89773,1,8,0:0:0:0:
431,25,90135,1,2,0:0:0:0:
360,111,90315,1,2,0:0:0:0:
270,43,90496,6,0,B|195:53|195:53|102:40,1,150,8|2,0:0|0:0,0:0:0:0:
46,126,91038,1,2,0:0:0:0:
151,166,91219,1,8,0:0:0:0:
46,126,91400,1,2,0:0:0:0:
69,235,91580,2,0,L|32:251,2,37.5,8|2|8,0:0|0:1|0:0,0:0:0:0:
176,270,91942,5,4,0:0:0:0:
254,270,92123,1,2,0:0:0:0:
332,268,92303,1,2,0:0:0:0:
481,288,92665,1,4,0:0:0:0:
484,212,92845,1,2,0:0:0:0:
417,173,93026,1,2,0:1:0:0:
397,162,93116,1,2,0:1:0:0:
383,144,93206,1,2,0:1:0:0:
377,123,93297,1,2,0:1:0:0:
380,101,93387,5,4,0:0:0:0:
408,69,103508,5,4,0:3:0:0:
408,69,103689,1,2,0:3:0:0:
321,114,103870,1,2,0:3:0:0:
321,114,104050,1,2,0:3:0:0:
324,211,104231,1,4,0:3:0:0:
324,211,104412,1,2,0:3:0:0:
226,211,104592,1,2,0:3:0:0:
226,211,104773,1,0,0:0:0:0:
191,302,104954,5,4,0:2:0:0:
17,212,105315,2,0,P|43:164|17:62,1,150,0|8,0:0|0:0,0:0:0:0:
114,31,105857,1,0,0:0:0:0:
201,74,106038,1,2,0:0:0:0:
289,33,106219,1,2,0:0:0:0:
378,71,106400,1,0,0:0:0:0:
437,287,106761,2,0,P|363:268|283:293,1,150,2|8,0:0|0:0,0:0:0:0:
219,329,107303,1,2,0:0:0:0:
139,271,107484,1,0,0:0:0:0:
57,325,107665,1,2,0:0:0:0:
52,227,107845,6,0,P|70:154|49:71,1,150,2|0,0:0|0:0,0:0:0:0:
152,90,108388,1,2,0:0:0:0:
241,51,108568,1,8,0:0:0:0:
334,82,108749,1,0,0:0:0:0:
416,30,108930,2,0,P|431:85|425:116,1,75,2|0,0:0|0:0,0:0:0:0:
390,192,109291,5,2,0:0:0:0:
382,204,109653,5,0,0:0:0:0:
373,216,110014,5,0,0:0:0:0:
364,228,110195,6,0,P|335:256|296:278,2,75,2|2|2,0:1|0:1|0:1,0:0:0:0:
228,229,110737,6,0,P|217:264|220:301,2,75,2|0|0,0:0|0:0|0:0,0:0:0:0:
254,135,111279,1,2,0:0:0:0:
239,38,111460,1,8,0:0:0:0:
441,37,111821,1,2,0:0:0:0:
441,37,111912,1,0,0:0:0:0:
441,37,112002,1,0,0:0:0:0:
436,136,112183,2,0,L|446:216,1,75,0|2,0:0|0:0,0:0:0:0:
348,223,112544,2,0,L|338:303,1,75,2|0,0:0|0:0,0:0:0:0:
240,294,112906,2,0,P|176:255|213:349,1,225,8|0,0:0|0:0,0:0:0:0:
65,302,113629,6,0,P|82:240|161:182,1,150,10|0,0:0|0:0,0:0:0:0:
242,175,114171,1,10,0:0:0:0:
182,98,114351,1,10,0:0:0:0:
276,74,114532,1,0,0:0:0:0:
351,137,114713,2,0,P|411:112|442:110,1,75,10|2,0:0|0:0,0:0:0:0:
417,208,115074,2,0,P|453:216|486:234,1,75,10|10,0:0|0:0,0:0:0:0:
416,303,115436,2,0,P|379:311|346:329,1,75,10|10,0:0|0:0,0:0:0:0:
249,326,115797,2,0,P|170:305|121:325,1,112.5,2|2,0:1|0:1,0:0:0:0:
75,342,116159,6,0,P|19:340|71:270,1,168.750006437302,2|2,0:1|0:1,0:0:0:0:
50,263,116520,6,0,B|32:182|77:182|53:93,1,150,4|0,0:2|0:0,0:0:0:0:
102,28,117062,1,2,0:0:0:0:
177,89,117243,2,0,L|252:77,1,75,8|2,0:0|0:0,0:0:0:0:
257,174,117604,2,0,L|332:186,1,75,2|8,0:0|0:0,0:0:0:0:
385,267,117966,2,0,L|336:275,1,37.5,4|0,0:1|0:0,0:0:0:0:
384,286,118327,2,0,L|336:295,1,37.5,4|0,0:1|0:0,0:0:0:0:
384,303,118689,2,0,L|338:313,1,37.5,4|0,0:1|0:0,0:0:0:0:
81,109,119412,6,0,B|63:190|108:190|84:279,1,150,4|2,0:0|0:0,0:0:0:0:
133,344,119954,1,2,0:0:0:0:
208,283,120135,2,0,L|283:295,1,75,8|0,0:0|0:0,0:0:0:0:
288,198,120496,2,0,L|363:186,1,75,2|0,0:0|0:0,0:0:0:0:
383,90,120857,2,0,L|336:81,1,37.5,2|0,0:2|0:0,0:0:0:0:
382,71,121218,2,0,L|333:63,1,37.5,2|0,0:2|0:0,0:0:0:0:
382,54,121580,2,0,L|334:44,1,37.5,2|0,0:2|0:0,0:0:0:0:
56,145,122303,6,0,P|77:202|55:293,1,150,4|2,0:2|0:0,0:0:0:0:
131,352,122845,1,2,0:0:0:0:
199,282,123026,2,0,P|234:269|258:267,1,37.5,2|0,0:2|0:0,0:0:0:0:
401,70,123749,2,0,P|390:108|400:160,2,75,2|2|2,0:0|0:0|0:0,0:0:0:0:
311,32,124291,1,2,0:0:0:0:
282,125,124472,2,0,P|247:138|226:137,1,37.5,2|0,0:2|0:0,0:0:0:0:
311,32,124833,1,0,0:0:0:0:
401,70,125014,1,0,0:0:0:0:
468,138,125195,6,0,P|452:203|481:294,1,150,6|2,0:2|0:2,0:0:0:0:
402,349,125737,1,2,0:0:0:0:
307,325,125918,2,0,L|212:337,1,75,8|0,0:0|0:0,0:0:0:0:
244,237,126279,2,0,L|149:249,1,75,2|2,0:0|0:0,0:0:0:0:
61,199,126641,2,0,L|107:190,1,37.5,2|0,0:2|0:0,0:0:0:0:
62,180,127002,2,0,L|112:171,1,37.5,2|0,0:2|0:0,0:0:0:0:
62,163,127364,2,0,L|108:155,1,37.5,2|0,0:2|0:0,0:0:0:0:
225,104,127725,6,0,P|281:75|261:161,1,168.750006437302,2|0,0:2|0:0,0:0:0:0:
292,153,128086,6,0,B|372:134|372:178|453:154,1,150,6|2,0:2|0:2,0:0:0:0:
407,64,128629,1,2,0:0:0:0:
495,104,128809,2,0,P|515:153|510:185,1,75,8|0,0:0|0:0,0:0:0:0:
464,259,129171,1,2,0:0:0:0:
464,259,129261,1,0,0:0:0:0:
464,259,129351,1,8,0:0:0:0:
349,217,129532,1,0,0:0:0:0:
387,335,129713,1,2,0:0:0:0:
294,302,129894,1,2,0:0:0:0:
183,141,130255,5,2,0:2:0:0:
183,141,130436,2,0,L|183:240,1,89.9999972534181,0|0,0:0|0:0,0:0:0:0:
102,286,130978,6,0,P|174:275|232:319,1,150,4|0,0:0|0:0,0:0:0:0:
322,276,131520,1,2,0:0:0:0:
364,172,131701,2,0,L|353:95,1,75,8|0,0:0|0:0,0:0:0:0:
448,118,132062,2,0,L|459:41,1,75,2|8,0:0|0:0,0:0:0:0:
441,205,132424,1,0,0:0:0:0:
484,289,132605,1,8,0:0:0:0:
397,334,132786,1,2,0:0:0:0:
325,242,133147,6,0,P|288:259|194:241,1,134.999995880127,2|0,0:2|0:0,0:0:0:0:
102,223,133870,6,0,P|174:211|217:152,1,150,4|0,0:2|0:0,0:0:0:0:
281,54,134412,1,2,0:0:0:0:
350,121,134592,2,0,P|372:72|411:53,2,75,8|8|2,0:0|0:0|0:0,0:0:0:0:
427,130,135135,1,8,0:0:0:0:
505,139,135315,2,0,P|483:188|444:207,2,75,0|8|0,0:0|0:0|0:0,0:0:0:0:
334,203,136038,6,0,P|297:186|203:206,1,134.999995880127
112,234,136761,6,0,P|78:205|56:160,1,75,0|0,0:0|0:0,0:0:0:0:
156,149,137123,2,0,P|186:172|207:203,1,75,0|0,0:0|0:0,0:0:0:0:
294,244,137484,2,0,P|324:222|347:193,1,75
332,95,137845,2,0,P|300:115|277:144,1,75
184,301,138207,5,2,0:0:0:0:
206,202,138388,1,4,0:0:0:0:
174,336,138568,1,2,0:0:0:0:
293,244,138749,1,2,0:0:0:0:
99,296,138930,5,2,0:1:0:0:
120,220,139111,1,2,0:1:0:0:
142,145,139291,1,2,0:1:0:0:
164,69,139472,1,2,0:1:0:0:
243,71,139653,6,0,B|334:62,1,89.9999972534181,4|4,0:0|0:0,0:0:0:0:
407,48,140195,1,2,0:0:0:0:
411,124,140376,2,0,L|398:180,1,44.999998626709,4|0,0:0|0:0,0:0:0:0:
460,215,140737,2,0,L|473:271,1,44.999998626709,4|2,0:0|0:0,0:0:0:0:
408,304,141098,2,0,B|318:312,1,89.9999972534181,0|2,0:0|0:0,0:0:0:0:
179,249,141821,2,0,L|164:202,1,44.999998626709,4|0,0:0|0:0,0:0:0:0:
104,158,142183,2,0,L|119:111,1,44.999998626709,4|0,0:0|0:0,0:0:0:0:
177,67,142544,6,0,B|219:80|219:80|274:66,1,89.9999972534181,4|0,0:0|0:0,0:0:0:0:
334,39,143086,1,4,0:0:0:0:
398,80,143267,2,0,L|409:133,1,44.999998626709,2|0,0:0|0:0,0:0:0:0:
478,152,143629,2,0,L|467:205,1,44.999998626709,4|2,0:0|0:0,0:0:0:0:
414,250,143990,2,0,P|364:272|342:306,1,89.9999972534181,0|2,0:0|0:0,0:0:0:0:
287,350,144532,1,0,0:0:0:0:
210,344,144713,2,0,P|164:347|149:345,1,44.999998626709,4|0,0:0|0:0,0:0:0:0:
145,273,145074,2,0,P|99:270|84:272,1,44.999998626709,4|0,0:0|0:0,0:0:0:0:
55,207,145436,6,0,P|63:146|50:103,1,89.9999972534181,4|8,0:0|0:0,0:0:0:0:
67,43,145978,1,2,0:0:0:0:
140,63,146159,2,0,P|132:107|141:151,1,89.9999972534181,4|8,0:0|0:0,0:0:0:0:
186,213,146701,1,8,0:0:0:0:
311,125,147062,1,8,0:0:0:0:
370,77,147243,1,8,0:0:0:0:
418,136,147424,1,2,0:0:0:0:
366,192,147604,2,0,P|363:238|365:253,1,44.999998626709,8|2,0:0|0:0,0:0:0:0:
437,257,147966,2,0,P|440:303|438:318,1,44.999998626709,8|2,0:0|0:0,0:0:0:0:
367,328,148327,6,0,P|307:322|267:335,1,89.9999972534181,4|8,0:0|0:0,0:0:0:0:
202,341,148870,1,2,0:0:0:0:
126,333,149050,2,0,P|66:339|26:326,1,89.9999972534181,4|8,0:0|0:0,0:0:0:0:
25,255,149592,1,2,0:0:0:0:
33,174,149773,1,4,0:0:0:0:
113,159,149954,1,4,0:0:0:0:
192,140,150135,1,4,0:0:0:0:
270,117,150315,1,0,0:0:0:0:
174,114,150496,5,0,0:0:0:0:
104,132,150677,1,0,0:0:0:0:
34,151,150858,1,0,0:0:0:0:
252,89,151219,5,4,0:2:0:0:
439,213,151580,2,0,P|390:211|355:222,1,75,0|2,0:0|0:0,0:0:0:0:
370,330,151942,2,0,P|419:332|454:321,1,75,8|0,0:0|0:0,0:0:0:0:
332,305,152303,2,0,B|260:257|274:196|299:155|299:155|286:168|238:192,1,225,2|2,0:0|0:0,0:0:0:0:
232,73,153026,1,2,0:0:0:0:
317,46,153206,1,2,0:0:0:0:
212,48,153387,5,8,0:0:0:0:
135,69,153568,1,2,0:0:0:0:
59,93,153749,1,2,0:0:0:0:
287,18,154111,5,2,0:0:0:0:
157,204,154472,2,0,P|206:202|241:213,1,75
230,321,154834,2,0,P|181:323|146:312,1,75,8|2,0:0|0:0,0:0:0:0:
268,296,155195,2,0,B|340:248|326:187|301:146|301:146|314:159|362:183,1,225,2|2,0:0|0:0,0:0:0:0:
429,246,155918,1,2,0:0:0:0:
442,22,156279,1,8,0:0:0:0:
332,48,156460,1,2,0:0:0:0:
217,21,156641,1,8,0:0:0:0:
332,48,156821,1,8,0:0:0:0:
241,114,157002,6,0,B|149:117|128:36|128:36|120:84|96:107,1,225,4|2,0:2|0:0,0:0:0:0:
41,208,157725,1,8,0:0:0:0:
152,189,157906,1,2,0:0:0:0:
263,210,158087,1,2,0:0:0:0:
152,189,158267,1,8,0:0:0:0:
241,114,158448,2,0,B|333:111|354:192|354:192|362:144|386:121,1,225,8|2,0:0|0:0,0:0:0:0:
435,29,159171,1,8,0:0:0:0:
462,137,159351,1,2,0:0:0:0:
411,237,159532,2,0,P|356:268|326:262,1,75,2|2,0:0|0:0,0:0:0:0:
234,249,159894,6,0,B|162:237|162:237|81:246,1,150,2|2,0:0|0:0,0:0:0:0:
29,147,160436,1,2,0:0:0:0:
106,65,160617,1,8,0:0:0:0:
29,147,160797,1,0,0:0:0:0:
141,154,160978,2,0,L|185:146,2,37.5,8|2|8,0:0|0:1|0:0,0:0:0:0:
227,249,161339,1,4,0:0:0:0:
372,254,161519,1,2,0:0:0:0:
327,180,161700,1,0,0:0:0:0:
257,325,161881,1,2,0:0:0:0:
400,244,162061,5,4,0:0:0:0:
421,163,162242,1,0,0:0:0:0:
437,81,162423,1,0,0:0:0:0:
286,234,162785,5,4,0:2:0:0:
199,72,163147,2,0,L|121:64,1,75,0|2,0:0|0:0,0:0:0:0:
120,176,163508,2,0,L|198:168,1,75,8|0,0:0|0:0,0:0:0:0:
286,236,163870,2,0,B|329:173|290:103|290:103|329:127|385:139,1,225,2|2,0:0|0:0,0:0:0:0:
473,97,164592,1,2,0:0:0:0:
454,9,164772,1,0,0:0:0:0:
446,114,164953,5,8,0:0:0:0:
464,194,165134,1,2,0:0:0:0:
485,273,165315,1,2,0:0:0:0:
426,32,165677,5,8,0:0:0:0:
259,199,166038,2,0,L|267:121,1,75,2|2,0:0|0:0,0:0:0:0:
155,120,166399,2,0,L|163:198,1,75,8|2,0:0|0:0,0:0:0:0:
99,288,166761,2,0,B|165:329|231:285|231:285|208:329|223:386,1,225,2|2,0:0|0:0,0:0:0:0:
330,342,167484,1,2,0:0:0:0:
411,132,167845,2,0,P|362:123|323:135,1,75,8|2,0:0|0:0,0:0:0:0:
320,16,168207,2,0,P|272:31|243:59,1,75,8|8,0:0|0:0,0:0:0:0:
217,153,168568,6,0,B|261:215|207:273|207:273|194:212|148:200,1,225,4|2,0:2|0:0,0:0:0:0:
65,126,169291,2,0,P|114:117|153:129,1,75,8|2,0:0|0:0,0:0:0:0:
214,38,169653,2,0,P|261:53|290:81,1,75,2|8,0:0|0:0,0:0:0:0:
321,173,170014,2,0,P|363:208|470:114,1,225,8|2,0:0|0:0,0:0:0:0:
391,132,170737,1,8,0:0:0:0:
248,305,171098,1,2,0:0:0:0:
152,244,171279,1,2,0:0:0:0:
63,314,171460,6,0,P|42:252|72:163,1,150,8|2,0:0|0:0,0:0:0:0:
131,82,172002,1,2,0:0:0:0:
200,170,172183,1,8,0:0:0:0:
131,82,172364,1,2,0:0:0:0:
244,79,172544,2,0,L|289:75,2,37.5,8|2|8,0:0|0:1|0:0,0:0:0:0:
200,170,172906,1,4,0:0:0:0:
258,265,173086,1,2,0:0:0:0:
322,140,173267,2,0,P|354:76|306:5,1,150,2|4,0:0|0:0,0:0:0:0:
281,75,173809,1,2,0:0:0:0:
200,170,173990,1,2,0:1:0:0:
127,69,174171,1,2,0:1:0:0:
83,140,174351,6,0,P|70:205|87:266,1,112.500004291535,4|0,0:2|0:0,0:0:0:0:
127,305,174894,1,0,0:0:0:0:
187,264,175074,1,0,0:0:0:0:
202,335,175255,2,0,P|256:346|270:347,2,56.2500021457673,0|0|0,0:0|0:0|0:0,0:0:0:0:
187,264,175797,2,0,P|203:190|193:153,1,112.500004291535
105,39,176520,1,0,0:0:0:0:
78,107,176701,2,0,P|73:158|81:188,2,56.2500021457673,0|0|0,0:0|0:0|0:0,0:0:0:0:
152,155,177243,6,0,P|157:206|149:236,1,56.2500021457673,0|0,0:0|0:0,0:0:0:0:
82,291,177604,2,0,P|81:263|87:236,1,56.2500021457673,0|0,0:0|0:0,0:0:0:0:
156,296,177966,2,0,P|161:347|153:377,1,56.2500021457673,0|0,0:0|0:0,0:0:0:0:
233,352,178327,2,0,P|272:348|302:356,1,56.2500021457673,0|0,0:0|0:0,0:0:0:0:
356,320,178689,2,0,P|341:263|356:213,1,112.500004291535
416,77,179412,1,0,0:0:0:0:
275,35,179773,1,0,0:0:0:0:
213,74,179954,1,0,0:0:0:0:
143,52,180135,6,0,L|85:37,1,56.2500021457673,0|0,0:0|0:0,0:0:0:0:
87,111,180496,2,0,L|28:122,1,56.2500021457673,0|0,0:0|0:0,0:0:0:0:
62,188,180857,2,0,P|25:224|22:283,1,112.500004291535,0|0,0:0|0:0,0:0:0:0:
91,256,181400,1,0,0:0:0:0:
146,306,181580,2,0,L|204:318,1,56.2500021457673
197,244,181942,2,0,L|255:230,1,56.2500021457673,0|0,0:0|0:0,0:0:0:0:
215,167,182303,2,0,P|256:129|258:70,1,112.500004291535,0|0,0:0|0:0,0:0:0:0:
189,97,182845,1,0,0:0:0:0:
210,21,183026,6,0,P|259:1|318:33,1,112.500004291535
353,86,183568,1,0,0:0:0:0:
393,151,183749,2,0,L|405:267,1,112.500004291535,0|0,0:0|0:0,0:0:0:0:
359,320,184291,1,0,0:0:0:0:
234,309,184472,1,4,0:0:0:0:
301,217,184653,1,2,0:0:0:0:
234,309,184833,1,4,0:0:0:0:
301,217,185014,1,2,0:0:0:0:
174,217,185195,2,0,L|100:224,1,56.2500021457673,10|4,0:0|0:0,0:0:0:0:
91,152,185556,2,0,L|147:146,1,56.2500021457673,4|10,0:0|0:0,0:0:0:0:
216,56,185918,6,0,P|266:84|311:55,1,112.500004291535,4|0,0:2|0:0,0:0:0:0:
375,9,186460,1,2,0:0:0:0:
385,81,186641,1,8,0:0:0:0:
456,65,186821,2,0,P|453:109|381:154,1,112.500004291535,0|8,0:0|0:0,0:0:0:0:
332,171,187364,2,0,P|319:210|321:249,2,56.2500021457673,2|8|2,0:0|0:0|0:0,0:0:0:0:
403,153,187906,1,0,0:0:0:0:
392,225,188086,1,8,0:0:0:0:
352,287,188267,2,0,P|303:295|254:256,1,112.500004291535,2|2,0:0|0:0,0:0:0:0:
185,279,188809,6,0,L|129:297,1,56.2500021457673,2|0,0:0|0:0,0:0:0:0:
125,222,189171,2,0,L|66:218,1,56.2500021457673,2|0,0:0|0:0,0:0:0:0:
93,149,189532,2,0,L|39:124,1,56.2500021457673,8|0,0:0|0:0,0:0:0:0:
91,71,189894,2,0,L|49:29,1,56.2500021457673,2|0,0:1|0:0,0:0:0:0:
177,56,190255,2,0,P|215:68|285:54,1,112.500004291535,2|2,0:1|0:0,0:0:0:0:
353,29,190797,1,2,0:1:0:0:
418,61,190978,1,8,0:0:0:0:
434,132,191159,2,0,L|431:256,1,112.500004291535,2|8,0:0|0:0,0:0:0:0:
335,318,191701,6,0,P|268:313|205:327,2,112.500004291535,4|0|8,0:2|0:0|0:0,0:0:0:0:
424,236,192604,2,0,L|427:112,1,112.500004291535,0|8,0:0|0:0,0:0:0:0:
357,99,193147,2,0,P|290:104|227:90,2,112.500004291535,0|2|8,0:0|0:0|0:0,0:0:0:0:
248,197,194231,2,0,P|195:197|173:204,1,56.2500021457673,0|2,0:0|0:0,0:0:0:0:
144,253,194592,6,0,P|120:214|164:130,1,140.625005364418,8|0,0:0|0:0,0:0:0:0:
37,46,195406,2,0,P|55:86|24:166,1,112.500004291535,0|0,0:0|0:2,0:0:0:0:
256,192,196038,12,4,200376,0:2:0:0:
250,117,202183,5,0,0:0:0:0:
261,124,202544,1,4,0:2:0:0:
273,130,202906,1,0,0:0:0:0:
485,39,203267,5,8,0:1:0:0:
485,39,203629,2,0,P|477:91|482:129,1,75,0|2,0:0|0:0,0:0:0:0:
366,120,203990,2,0,P|374:172|369:210,1,75,8|0,0:0|0:0,0:0:0:0:
347,304,204351,2,0,P|389:339|496:245,1,225,2|2,0:0|0:0,0:0:0:0:
417,263,205074,1,2,0:0:0:0:
330,169,205255,1,2,0:0:0:0:
253,292,205435,5,2,0:0:0:0:
177,304,205617,1,8,0:0:0:0:
96,313,205797,1,2,0:0:0:0:
303,146,206159,5,2,0:0:0:0:
303,146,206520,2,0,P|251:138|213:143,1,75,0|0,0:0|0:0,0:0:0:0:
248,28,206881,2,0,P|196:36|158:31,1,75,8|2,0:0|0:0,0:0:0:0:
111,134,207243,2,0,P|41:149|94:55,1,225,2|2,0:0|0:0,0:0:0:0:
161,68,207966,1,2,0:0:0:0:
219,129,208147,1,0,0:0:0:0:
330,27,208327,2,0,P|310:71|290:88,1,75,8|2,0:0|0:0,0:0:0:0:
374,136,208689,2,0,P|338:168|313:176,1,75,8|8,0:0|0:0,0:0:0:0:
219,129,209050,6,0,P|169:171|175:266,1,150,4|2,0:2|0:0,0:0:0:0:
245,212,209592,1,2,0:0:0:0:
356,314,209773,2,0,P|336:270|316:253,1,75,8|2,0:0|0:0,0:0:0:0:
400,205,210135,2,0,P|364:172|339:164,1,75,2|8,0:0|0:0,0:0:0:0:
245,212,210496,2,0,P|195:169|201:74,1,150,4|2,0:2|0:0,0:0:0:0:
271,129,211038,1,2,0:0:0:0:
380,24,211219,2,0,P|360:68|340:85,1,75,8|2,0:0|0:0,0:0:0:0:
302,268,211580,1,2,0:0:0:0:
210,204,211761,1,2,0:0:0:0:
324,196,211942,6,0,P|374:246|349:324,1,150,2|2,0:0|0:0,0:0:0:0:
304,270,212484,1,2,0:0:0:0:
197,307,212665,1,8,0:0:0:0:
302,268,212845,1,0,0:0:0:0:
210,204,213026,2,0,L|174:180,2,37.5,8|2|8,0:0|0:1|0:0,0:0:0:0:
197,307,213388,1,4,0:0:0:0:
123,318,213568,1,2,0:0:0:0:
48,329,213749,1,2,0:0:0:0:
72,114,214111,5,4,0:0:0:0:
149,101,214292,1,2,0:0:0:0:
228,91,214472,1,8,0:0:0:0:
377,226,214833,5,4,0:2:0:0:
377,226,215195,2,0,L|297:220,1,75,0|0,0:0|0:0,0:0:0:0:
226,303,215556,2,0,L|306:309,1,75,8|0,0:1|0:0,0:0:0:0:
413,295,215918,2,0,P|450:253|353:153,1,225,2|2,0:0|0:0,0:0:0:0:
377,226,216641,1,2,0:0:0:0:
281,166,216821,1,0,0:0:0:0:
321,59,217002,5,8,0:0:0:0:
246,45,217183,1,2,0:0:0:0:
165,36,217363,1,2,0:0:0:0:
127,258,217724,5,8,0:0:0:0:
127,258,218086,2,0,L|207:252,1,75,0|0,0:0|0:0,0:0:0:0:
278,335,218448,2,0,L|198:341,1,75,8|2,0:1|0:0,0:0:0:0:
91,327,218809,2,0,P|54:285|148:183,1,225,2|2,0:0|0:0,0:0:0:0:
127,258,219532,2,0,P|193:242|218:157,1,150,2|8,0:0|0:0,0:0:0:0:
216,58,220074,1,2,0:0:0:0:
323,25,220255,1,8,0:0:0:0:
325,137,220436,1,8,0:0:0:0:
363,311,220617,6,0,P|355:232|419:191,1,150,4|2,0:2|0:0,0:0:0:0:
425,266,221159,1,2,0:0:0:0:
487,172,221339,1,8,0:0:0:0:
405,102,221520,1,2,0:0:0:0:
493,39,221701,1,2,0:0:0:0:
405,102,221882,1,8,0:0:0:0:
299,43,222062,2,0,P|244:83|158:58,1,150,8|2,0:0|0:0,0:0:0:0:
50,152,222785,2,0,L|57:227,1,75,8|2,0:0|0:0,0:0:0:0:
73,323,223147,1,2,0:0:0:0:
140,253,223327,1,2,0:0:0:0:
196,332,223508,6,0,P|271:307|345:336,1,150,8|2,0:0|0:0,0:0:0:0:
430,352,224050,1,2,0:0:0:0:
439,254,224231,2,0,L|448:170,1,75,8|2,0:0|0:0,0:0:0:0:
349,175,224592,2,0,L|340:91,1,75,8|8,0:0|0:0,0:0:0:0:
326,26,224954,5,4,0:0:0:0:
255,52,225135,1,2,0:0:0:0:
183,72,225315,1,2,0:0:0:0:
111,197,225677,2,0,L|118:256,1,44.999998626709,4|2,0:0|0:0,0:0:0:0:
91,310,226038,2,0,L|58:334,3,22.4999993133545,2|2|2|2,0:1|0:1|0:1|0:1,0:0:0:0:
256,192,226400,12,0,227845,2:0:0:0:
