osu file format v14

[General]
AudioFilename: audio.mp3
AudioLeadIn: 0
PreviewTime: 69171
Countdown: 0
SampleSet: None
StackLeniency: 0.7
Mode: 0
LetterboxInBreaks: 0
WidescreenStoryboard: 0

[Editor]
Bookmarks: 93388,103508,185918,206520
DistanceSpacing: 1.3
BeatDivisor: 8
GridSize: 8
TimelineZoom: 1

[Metadata]
Title:Boy In Luv
TitleUnicode:상남자
Artist:BTS
ArtistUnicode:방탄소년단
Creator:Lilyanna
Version:Hard
Source:
Tags:Bighit Entertainment SKOOL LUV AFFAIR 랩몬스터 슈가 진 제이홉 지민 뷔 정국 Rap Monster Suga Jin J-Hope Jimin V Jungkook K-pop Kpop Firetruck Bangtan Boys Sonyeondan Bulletproof Boy Scouts Bakari Euny
BeatmapID:1123277
BeatmapSetID:529064

[Difficulty]
HPDrainRate:5
CircleSize:4
OverallDifficulty:6
ApproachRate:7
SliderMultiplier:2.4
SliderTickRate:1

[Events]
//Background and Video events
Video,-580,"[MV] BTS.avi"
0,0,"1ifuseethisthenhotyoongi.jpg",0,0
//Break Periods
2,93588,102608
2,174551,185018
2,200576,201283
//Storyboard Layer 0 (Background)
//Storyboard Layer 1 (Fail)
//Storyboard Layer 2 (Pass)
//Storyboard Layer 3 (Foreground)
//Storyboard Sound Samples

[TimingPoints]
858,722.89156626506,4,3,78,55,1,0
858,-133.333333333333,4,3,78,55,0,0
12424,-100,4,3,78,65,0,0
12604,-100,4,3,78,5,0,0
12785,-100,4,3,78,65,0,0
23990,-76.9230769230769,4,3,78,65,0,0
24351,-100,4,3,78,65,0,0
26882,-76.9230769230769,4,3,78,65,0,0
27243,-100,4,3,78,65,0,0
29773,-76.9230769230769,4,3,78,65,0,0
30135,-100,4,3,78,65,0,0
32665,-76.9230769230769,4,3,78,65,0,0
33026,-100,4,3,78,65,0,0
46761,-133.333333333333,4,3,78,65,0,0
47123,-100,4,3,78,65,0,0
47484,-100,4,3,78,65,0,0
49653,-133.333333333333,4,3,78,65,0,0
50014,-100,4,3,78,65,0,0
52544,-133.333333333333,4,3,78,65,0,0
52906,-100,4,3,78,65,0,0
55436,-133.333333333333,4,3,78,65,0,0
55797,-100,4,3,78,65,0,0
58689,-133.333333333333,4,3,78,65,0,0
69171,-100,4,3,78,65,0,0
70255,-100,4,3,78,65,0,1
81821,-100,4,3,78,70,0,1
83990,-100,4,3,78,70,0,1
84713,-100,4,3,78,70,0,1
93388,-100,4,3,78,55,0,0
111641,-100,4,3,78,5,0,0
111821,-100,4,3,78,55,0,0
116159,-133.333333333333,4,3,78,55,0,0
116520,-100,4,3,78,55,0,0
118327,-100,4,3,78,55,0,0
118689,-100,4,3,78,55,0,0
119412,-100,4,3,78,55,0,0
121219,-100,4,3,78,55,0,0
121580,-100,4,3,78,55,0,0
122303,-100,4,3,78,55,0,0
123147,-100,4,3,78,5,0,0
123749,-100,4,3,78,55,0,0
127725,-90.9090909090909,4,3,78,70,0,0
128086,-100,4,3,78,70,0,0
130255,-125,4,3,78,55,0,0
130978,-100,4,3,78,55,0,0
133147,-125,4,3,78,55,0,0
133689,-125,4,3,78,5,0,0
133870,-100,4,3,78,55,0,0
136038,-125,4,3,78,55,0,0
136580,-125,4,3,78,5,0,0
136761,-100,4,3,78,55,0,0
139653,-133.333333333333,4,3,78,55,0,0
150496,-100,4,3,78,55,0,0
151219,-100,4,3,78,70,0,1
174351,-133.333333333333,4,3,78,70,0,0
184472,-133.333333333333,4,3,78,55,0,0
195767,-133.333333333333,4,3,78,5,0,0
196038,-133.333333333333,4,3,78,55,0,0
201821,-100,4,3,78,55,0,0
203267,-100,4,3,78,70,0,1
204171,-100,4,3,78,70,0,1
215556,-100,4,3,78,70,0,1
215737,-100,4,3,78,70,0,1
218448,-100,4,3,78,70,0,1
218629,-100,4,3,78,70,0,1
225677,-166.666666666667,4,3,78,70,0,1
226400,-100,4,3,78,70,0,0

[Colours]
Combo1 : 176,176,176
Combo2 : 151,253,240
Combo3 : 238,123,132
Combo4 : 122,122,180

[HitObjects]
89,79,858,6,0,L|184:90,1,90.0000034332277,2|2,0:0|0:0,0:0:0:0:
235,103,1400,1,2,0:0:0:0:
235,103,1580,1,8,0:0:0:0:
334,58,1942,2,0,L|355:109,1,45.0000017166138,2|0,0:0|0:0,0:0:0:0:
362,153,2303,2,0,P|350:211|357:247,1,90.0000034332277,0|2,0:0|0:0,0:0:0:0:
376,296,2845,1,0,0:0:0:0:
376,296,3026,1,8,0:0:0:0:
267,305,3388,2,0,L|246:254,1,45.0000017166138,0|2,0:0|0:0,0:0:0:0:
236,211,3749,6,0,P|248:153|241:117,1,90.0000034332277,2|0,0:0|0:0,0:0:0:0:
223,74,4291,1,0,0:0:0:0:
223,74,4472,2,0,L|187:46,2,45.0000017166138,8|0|2,0:0|0:0|0:0,0:0:0:0:
246,129,5014,1,0,0:0:0:0:
246,129,5195,2,0,P|193:152|147:137,1,90.0000034332277,0|2,0:0|0:0,0:0:0:0:
66,96,5918,1,8,0:0:0:0:
19,193,6279,2,0,L|51:230,1,45.0000017166138,0|8,0:0|0:0,0:0:0:0:
100,245,6641,6,0,P|146:238|198:254,1,90.0000034332277,2|0,0:0|0:0,0:0:0:0:
244,264,7183,1,2,0:0:0:0:
244,264,7364,1,8,0:0:0:0:
197,165,7725,2,0,L|229:128,1,45.0000017166138,2|0,0:0|0:0,0:0:0:0:
278,113,8087,2,0,P|324:120|376:104,1,90.0000034332277,0|2,0:0|0:0,0:0:0:0:
418,90,8629,1,0,0:0:0:0:
418,90,8810,1,8,0:0:0:0:
463,188,9171,2,0,L|424:228,1,45.0000017166138,0|2,0:0|0:0,0:0:0:0:
379,233,9532,6,0,L|272:249,1,90.0000034332277,8|0,0:0|0:0,0:0:0:0:
239,254,10074,1,8,0:0:0:0:
239,254,10255,1,8,0:0:0:0:
144,309,10617,1,8,0:0:0:0:
144,309,10797,1,0,0:0:0:0:
128,202,11159,1,2,0:0:0:0:
128,202,11339,1,8,0:0:0:0:
85,102,11701,1,0,0:0:0:0:
157,22,12062,1,0,0:0:0:0:
226,148,12424,5,4,0:2:0:0:
362,101,12785,2,0,P|371:147|337:233,1,120,0|8,0:0|0:0,0:0:0:0:
243,329,13508,1,2,0:0:0:0:
221,253,13689,1,0,0:0:0:0:
164,307,13870,2,0,P|113:322|40:297,1,120,0|2,0:0|0:0,0:0:0:0:
18,232,14412,1,0,0:0:0:0:
53,162,14592,2,0,P|104:147|177:172,1,120,4|0,0:1|0:0,0:0:0:0:
232,207,15135,1,2,0:0:0:0:
244,130,15315,5,4,0:1:0:0:
120,225,15677,2,0,P|111:271|145:357,1,120,0|8,0:0|0:0,0:0:0:0:
232,207,16400,1,2,0:0:0:0:
244,130,16581,1,0,0:0:0:0:
307,176,16762,2,0,P|358:191|431:166,1,120
475,118,17304,1,0,0:0:0:0:
415,67,17484,2,0,P|364:52|291:77,1,120,4|0,0:1|0:0,0:0:0:0:
244,130,18027,1,0,0:0:0:0:
228,53,18207,5,4,0:1:0:0:
85,115,18568,2,0,P|76:161|110:247,1,120,0|8,0:0|0:0,0:0:0:0:
186,358,19291,1,2,0:0:0:0:
220,287,19472,1,0,0:0:0:0:
264,351,19653,2,0,P|315:366|388:341,1,120,0|2,0:0|0:0,0:0:0:0:
421,283,20195,1,0,0:0:0:0:
378,217,20375,2,0,P|327:202|254:227,1,120,4|0,0:1|0:0,0:0:0:0:
220,287,20918,1,0,0:0:0:0:
220,287,21098,6,0,P|169:302|96:277,1,120,4|0,0:0|0:0,0:0:0:0:
81,210,21640,1,0,0:0:0:0:
109,137,21821,2,0,P|160:122|233:147,1,120,8|8,0:0|0:0,0:0:0:0:
294,171,22363,1,0,0:0:0:0:
294,171,22544,2,0,P|345:186|418:161,1,120,4|2,0:3|0:3,0:0:0:0:
440,97,23086,1,2,0:3:0:0:
403,27,23267,2,0,P|352:12|279:37,1,120,4|2,0:3|0:3,0:0:0:0:
239,90,23809,1,0,0:0:0:0:
141,60,23990,6,0,P|92:100|145:155,1,155.999992858887,4|0,0:0|0:0,0:0:0:0:
215,184,24532,1,2,0:0:0:0:
215,184,24713,2,0,B|286:165|286:200|354:183,1,120,8|2,0:0|0:0,0:0:0:0:
411,181,25255,1,2,0:0:0:0:
457,336,25617,1,2,0:0:0:0:
457,336,25797,1,2,0:0:0:0:
306,298,26159,2,0,P|251:285|179:304,1,120,8|2,0:0|0:0,0:0:0:0:
119,333,26701,1,0,0:0:0:0:
74,241,26882,6,0,P|25:201|78:146,1,155.999992858887,4|0,0:0|0:0,0:0:0:0:
154,147,27424,1,2,0:0:0:0:
154,147,27605,2,0,B|225:128|225:163|293:146,1,120,8|2,0:0|0:0,0:0:0:0:
350,148,28147,1,0,0:0:0:0:
483,68,28508,1,2,0:1:0:0:
483,68,28689,1,2,0:1:0:0:
331,32,29050,2,0,P|270:51|213:27,1,120,2|2,0:1|0:1,0:0:0:0:
141,35,29592,1,2,0:1:0:0:
89,122,29773,6,0,P|35:167|85:216,1,155.999992858887,4|0,0:0|0:0,0:0:0:0:
163,243,30315,1,2,0:0:0:0:
163,243,30496,2,0,P|219:228|282:246,1,120,8|2,0:0|0:0,0:0:0:0:
329,301,31038,1,2,0:0:0:0:
439,190,31400,1,2,0:0:0:0:
439,190,31580,1,2,0:0:0:0:
348,62,31942,2,0,L|212:51,1,120,8|2,0:0|0:0,0:0:0:0:
150,59,32484,1,0,0:0:0:0:
110,152,32665,6,0,P|126:215|59:268,1,155.999992858887,4|0,0:0|0:0,0:0:0:0:
40,342,33207,1,8,0:0:0:0:
40,342,33388,1,8,0:0:0:0:
190,302,33749,1,8,0:0:0:0:
190,302,33930,1,0,0:0:0:0:
341,339,34291,1,8,0:0:0:0:
341,339,34472,1,8,0:0:0:0:
444,222,34833,2,0,L|461:174,6,30,2|2|2|2|2|2|2,0:1|0:1|0:1|0:1|0:1|0:1|0:1,0:0:0:0:
396,154,35556,6,0,L|389:71,1,60,4|0,0:0|0:0,0:0:0:0:
341,34,35918,1,0,0:0:0:0:
341,34,36098,1,2,0:0:0:0:
289,92,36279,2,0,L|282:174,1,60,8|0,0:0|0:0,0:0:0:0:
238,219,36641,1,2,0:0:0:0:
238,219,36821,1,2,0:0:0:0:
198,151,37002,6,0,L|191:68,1,60,0|2,0:0|0:0,0:0:0:0:
141,39,37364,1,2,0:0:0:0:
141,39,37544,1,0,0:0:0:0:
84,94,37725,2,0,L|77:176,1,60,8|0,0:0|0:0,0:0:0:0:
33,219,38087,1,0,0:0:0:0:
33,219,38267,1,0,0:0:0:0:
98,263,38448,6,0,L|104:345,2,60,4|0|0,0:0|0:0|0:0,0:0:0:0:
145,201,38990,1,2,0:0:0:0:
190,264,39171,2,0,L|183:346,2,60,8|0|2,0:0|0:0|0:0,0:0:0:0:
145,201,39713,1,2,0:0:0:0:
181,131,39894,6,0,L|174:48,2,60,0|0|0,0:0|0:0|0:0,0:0:0:0:
232,190,40436,1,0,0:0:0:0:
292,239,40617,2,0,P|346:249|430:228,1,120,2|2,0:1|0:1,0:0:0:0:
471,190,41159,1,2,0:1:0:0:
409,237,41339,6,0,P|399:164|433:122,1,120,4|0,0:0|0:0,0:0:0:0:
484,79,41882,1,2,0:0:0:0:
411,51,42062,1,10,0:0:0:0:
350,100,42243,1,0,0:0:0:0:
271,98,42424,2,0,L|196:91,1,60,2|2,0:0|0:0,0:0:0:0:
187,166,42785,2,0,L|261:172,1,60,0|2,0:0|0:0,0:0:0:0:
325,177,43147,1,2,0:0:0:0:
325,177,43327,1,0,0:0:0:0:
389,221,43508,2,0,B|375:260|398:304|398:304|343:323|325:378,1,180,8|2,0:0|0:0,0:0:0:0:
254,362,44231,5,0,0:0:0:0:
254,362,44412,1,0,0:0:0:0:
183,330,44592,2,0,P|108:319|60:336,1,120,2|8,0:0|0:0,0:0:0:0:
38,178,45315,1,10,0:0:0:0:
57,102,45496,2,0,L|48:39,2,60,10|0|10,0:0|0:0|0:0,0:0:0:0:
123,142,46038,2,0,L|132:205,1,60,10|0,0:0|0:0,0:0:0:0:
204,173,46400,2,0,L|213:236,1,60,2|2,0:1|0:1,0:0:0:0:
239,315,46761,6,0,P|273:297|294:262,1,67.5000025749207,2|2,0:1|0:1,0:0:0:0:
313,243,47123,6,0,P|348:198|418:194,1,120,4|2,0:2|0:0,0:0:0:0:
387,266,47665,1,2,0:0:0:0:
465,242,47845,2,0,P|485:198|454:129,1,120,8|2,0:0|0:0,0:0:0:0:
396,84,48388,1,2,0:0:0:0:
320,60,48568,2,0,L|258:54,1,60,2|2,0:1|0:1,0:0:0:0:
267,132,48930,2,0,L|205:126,1,60,2|2,0:1|0:1,0:0:0:0:
129,119,49291,1,2,0:1:0:0:
111,234,49653,6,0,L|186:228,1,67.5000025749207,0|0,0:0|0:0,0:0:0:0:
216,235,50014,6,0,P|254:265|253:342,1,120,4|0,0:0|0:0,0:0:0:0:
334,350,50556,1,0,0:0:0:0:
409,331,50737,2,0,P|408:272|451:233,1,120,8|2,0:0|0:0,0:0:0:0:
479,305,51279,1,2,0:0:0:0:
451,233,51460,2,0,L|456:171,1,60
379,180,51822,2,0,L|384:118,1,60,0|0,0:0|0:0,0:0:0:0:
392,42,52183,1,0,0:0:0:0:
278,68,52544,6,0,L|284:143,1,67.5000025749207,0|0,0:0|0:0,0:0:0:0:
265,170,52906,6,0,P|210:169|159:224,1,120,4|0,0:2|0:0,0:0:0:0:
235,242,53448,1,0,0:0:0:0:
168,285,53629,2,0,P|122:274|91:201,1,120,8|2,0:0|0:0,0:0:0:0:
103,135,54171,1,2,0:0:0:0:
192,60,54351,2,0,L|253:54,1,60
245,132,54713,2,0,L|306:126,1,60,0|0,0:0|0:0,0:0:0:0:
383,119,55074,1,0,0:0:0:0:
401,234,55436,6,0,L|326:228,1,67.5000025749207,0|0,0:0|0:0,0:0:0:0:
298,244,55797,6,0,P|280:297|217:324,1,120,4|0,0:0|0:0,0:0:0:0:
222,246,56339,1,0,0:0:0:0:
191,174,56520,2,0,P|163:195|150:277,1,120,8|2,0:0|0:0,0:0:0:0:
106,340,57062,1,2,0:0:0:0:
53,281,57243,2,0,L|47:210,1,60,4|2,0:0|0:0,0:0:0:0:
84,152,57604,2,0,L|78:81,1,60,2|2,0:0|0:0,0:0:0:0:
153,66,57966,2,0,L|157:136,1,60,2|2,0:1|0:1,0:0:0:0:
203,189,58327,2,0,L|207:259,1,60,2|2,0:1|0:1,0:0:0:0:
270,317,58689,6,0,L|375:328,1,90.0000034332277,4|4,0:0|0:0,0:0:0:0:
405,218,59412,2,0,L|299:206,1,90.0000034332277,4|4,0:0|0:0,0:0:0:0:
286,95,60135,2,0,L|391:106,1,90.0000034332277,0|2,0:0|0:0,0:0:0:0:
315,208,60857,2,0,L|251:201,2,45.0000017166138,4|0|4,0:0|0:0|0:0,0:0:0:0:
272,307,61580,6,0,L|166:318,1,90.0000034332277,4|0,0:0|0:0,0:0:0:0:
106,228,62303,2,0,L|211:216,1,90.0000034332277,2|4,0:0|0:0,0:0:0:0:
225,105,63026,2,0,L|119:116,1,90.0000034332277,0|2,0:0|0:0,0:0:0:0:
79,37,63568,1,0,0:0:0:0:
79,37,63749,2,0,L|168:27,1,90.0000034332277,4|4,0:0|0:0,0:0:0:0:
261,82,64472,6,0,P|268:153|258:183,1,90.0000034332277,4|8,0:0|0:0,0:0:0:0:
155,163,65195,2,0,P|148:234|158:264,1,90.0000034332277,4|8,0:0|0:0,0:0:0:0:
231,324,65918,2,0,L|336:335,1,90.0000034332277,0|8,0:0|0:0,0:0:0:0:
377,256,66460,1,2,0:0:0:0:
377,256,66641,2,0,L|287:246,1,90.0000034332277,8|8,0:0|0:0,0:0:0:0:
184,214,67364,6,0,P|177:143|187:113,1,90.0000034332277,4|8,0:0|0:0,0:0:0:0:
290,133,68087,2,0,P|297:62|287:32,1,90.0000034332277,4|2,0:0|0:0,0:0:0:0:
180,44,68809,1,4,0:0:0:0:
108,86,68990,1,4,0:0:0:0:
181,125,69171,1,4,0:0:0:0:
83,246,69532,2,0,P|68:277|67:312,2,60,0|0|0,0:0|0:0|0:0,0:0:0:0:
218,324,70255,5,4,0:2:0:0:
373,308,70617,2,0,L|443:315,1,60,0|2,0:0|0:0,0:0:0:0:
438,236,70978,2,0,L|378:229,1,60,8|0,0:0|0:0,0:0:0:0:
322,175,71339,2,0,B|268:139|268:139|186:131|186:131|136:115,1,180,2|2,0:0|0:0,0:0:0:0:
76,120,72062,1,2,0:0:0:0:
69,197,72243,1,2,0:0:0:0:
69,197,72424,2,0,L|139:204,1,60,8|2,0:0|0:0,0:0:0:0:
103,277,72785,2,0,L|163:284,1,60,2|0,0:0|0:0,0:0:0:0:
240,298,73147,5,2,0:0:0:0:
392,331,73508,2,0,L|332:337,1,60,0|0,0:0|0:0,0:0:0:0:
324,259,73869,2,0,L|384:253,1,60,8|2,0:0|0:0,0:0:0:0:
444,203,74231,2,0,B|405:134|307:154|307:154|279:141,1,180,2|2,0:0|0:0,0:0:0:0:
206,165,74954,2,0,P|227:87|257:67,1,120,2|8,0:0|0:0,0:0:0:0:
334,74,75496,1,2,0:0:0:0:
334,74,75677,2,0,L|402:82,1,60,8|8,0:0|0:0,0:0:0:0:
464,48,76038,6,0,P|465:114|424:155,2,120,4|2|8,0:2|0:0|0:0,0:0:0:0:
395,86,76942,1,2,0:0:0:0:
395,86,77123,2,0,L|327:78,1,60,2|8,0:0|0:0,0:0:0:0:
265,112,77484,2,0,P|264:46|309:6,2,120,8|2|8,0:0|0:0|0:0,0:0:0:0:
197,252,78568,2,0,L|137:246,1,60,2|2,0:0|0:0,0:0:0:0:
86,186,78930,6,0,P|60:241|86:308,1,120,2|2,0:0|0:0,0:0:0:0:
131,350,79472,1,2,0:0:0:0:
209,345,79653,2,0,L|268:350,2,60,8|0|8,0:0|0:0|0:0,0:0:0:0:
131,350,80195,1,8,0:0:0:0:
144,272,80376,2,0,B|128:184|176:184|152:80,1,180,4|2,0:0|0:0,0:0:0:0:
193,26,81098,2,0,P|143:18|116:26,2,60,4|2|8,0:0|0:0|0:0,0:0:0:0:
346,56,81821,5,4,0:2:0:0:
445,176,82183,2,0,L|505:183,1,60,0|2,0:0|0:0,0:0:0:0:
481,257,82544,2,0,L|421:251,1,60,8|0,0:0|0:0,0:0:0:0:
357,204,82906,2,0,B|231:189|231:189|269:238,1,180,2|2,0:0|0:0,0:0:0:0:
307,295,83629,1,2,0:0:0:0:
229,298,83809,1,0,0:0:0:0:
229,298,83990,2,0,L|169:291,1,60,8|2,0:0|0:0,0:0:0:0:
179,368,84351,2,0,L|119:362,1,60,2|0,0:0|0:0,0:0:0:0:
51,322,84713,5,8,0:0:0:0:
42,167,85074,2,0,L|102:173,1,60,2|2,0:0|0:0,0:0:0:0:
110,95,85436,2,0,L|50:89,1,60,8|2,0:0|0:0,0:0:0:0:
59,10,85797,2,0,B|199:29|199:29|177:67,1,180,2|2,0:0|0:0,0:0:0:0:
110,95,86520,2,0,P|146:131|219:131,1,120,2|8,0:0|0:0,0:0:0:0:
280,95,87062,1,2,0:0:0:0:
280,95,87243,2,0,L|355:89,1,60,8|8,0:0|0:0,0:0:0:0:
394,150,87604,6,0,P|416:109|396:34,2,120,4|2|8,0:2|0:0|0:0,0:0:0:0:
331,197,88508,1,2,0:0:0:0:
331,197,88689,2,0,L|255:202,1,60,2|8,0:0|0:0,0:0:0:0:
212,252,89050,2,0,P|193:213|224:139,2,120,8|2|8,0:0|0:0|0:0,0:0:0:0:
351,326,90135,2,0,L|417:320,1,60,2|2,0:0|0:0,0:0:0:0:
459,260,90497,6,0,P|486:309|464:378,1,120,8|0,0:0|0:0,0:0:0:0:
411,321,91038,1,2,0:0:0:0:
384,247,91219,2,0,L|373:174,2,60,8|2|8,0:0|0:0|0:0,0:0:0:0:
411,321,91761,1,8,0:0:0:0:
332,321,91942,2,0,B|244:305|244:353|140:329,1,180,4|2,0:0|0:0,0:0:0:0:
79,354,92665,2,0,P|86:292|188:259,1,180,4|2,0:0|0:1,0:0:0:0:
154,331,93388,5,4,0:0:0:0:
339,274,103508,6,0,L|415:269,2,60,4|2|2,0:3|0:3|0:3,0:0:0:0:
260,273,104050,1,2,0:3:0:0:
182,271,104231,2,0,L|122:267,2,60,4|2|2,0:3|0:3|0:3,0:0:0:0:
260,273,104773,1,0,0:0:0:0:
311,331,104954,6,0,P|337:268|315:218,1,120,4|0,0:2|0:0,0:0:0:0:
267,164,105496,1,0,0:0:0:0:
267,164,105677,1,8,0:0:0:0:
200,123,105857,2,0,L|140:119,2,60,0|2|2,0:0|0:0|0:0,0:0:0:0:
270,87,106400,2,0,P|309:74|332:-12,1,120,0|2,0:0|0:0,0:0:0:0:
259,10,106942,1,0,0:0:0:0:
259,10,107123,1,8,0:0:0:0:
189,44,107303,2,0,L|129:40,2,60,2|0|2,0:0|0:0|0:0,0:0:0:0:
200,123,107845,6,0,P|201:174|250:222,1,120,2|0,0:0|0:0,0:0:0:0:
317,256,108388,1,2,0:0:0:0:
317,256,108568,1,8,0:0:0:0:
392,274,108749,2,0,L|451:270,2,60,0|2|0,0:0|0:0|0:0,0:0:0:0:
336,329,109291,2,0,P|278:324|242:278,2,120,2|0|0,0:0|0:0|0:0,0:0:0:0:
317,252,110195,1,2,0:1:0:0:
344,178,110376,2,0,L|348:119,1,60,2|2,0:1|0:1,0:0:0:0:
293,62,110737,6,0,P|213:78|169:58,1,120,2|0,0:0|0:0,0:0:0:0:
106,38,111279,1,2,0:0:0:0:
106,38,111460,1,8,0:0:0:0:
60,184,111821,1,2,0:0:0:0:
60,184,111912,1,0,0:0:0:0:
60,184,112002,1,0,0:0:0:0:
123,229,112183,2,0,L|194:235,1,60,0|2,0:0|0:0,0:0:0:0:
163,310,112544,2,0,L|234:316,1,60,2|0,0:0|0:0,0:0:0:0:
301,311,112906,2,0,P|370:299|434:328,1,120,8|0,0:0|0:0,0:0:0:0:
468,257,113448,1,0,0:0:0:0:
468,257,113629,6,0,L|476:129,1,120,10|0,0:0|0:0,0:0:0:0:
474,59,114171,1,10,0:0:0:0:
402,90,114351,2,0,L|394:209,1,120,10|10,0:0|0:0,0:0:0:0:
383,287,114894,1,2,0:0:0:0:
307,267,115074,2,0,L|235:273,1,60,10|10,0:0|0:0,0:0:0:0:
267,348,115436,2,0,L|195:354,1,60,10|10,0:0|0:0,0:0:0:0:
170,284,115797,2,0,L|98:290,1,60,2|2,0:1|0:1,0:0:0:0:
53,214,116159,6,0,L|121:209,1,67.5000025749207,2|2,0:1|0:1,0:0:0:0:
22,190,116520,6,0,L|14:70,1,120,4|0,0:2|0:0,0:0:0:0:
82,32,117062,1,2,0:0:0:0:
150,68,117243,2,0,L|154:146,2,60,8|2|2,0:0|0:0|0:0,0:0:0:0:
252,185,117966,2,0,L|255:235,1,30,4|0,0:1|0:0,0:0:0:0:
339,163,118327,2,0,L|345:217,1,30,4|0,0:1|0:0,0:0:0:0:
426,139,118689,2,0,L|432:193,1,30,4|0,0:1|0:0,0:0:0:0:
41,107,119412,6,0,L|33:227,1,120,4|2,0:0|0:0,0:0:0:0:
101,265,119954,1,2,0:0:0:0:
169,229,120135,2,0,L|173:151,2,60,8|0|2,0:0|0:0|0:0,0:0:0:0:
293,322,120857,2,0,L|289:271,1,30,2|0,0:2|0:0,0:0:0:0:
391,305,121218,2,0,L|388:253,1,30,2|0,0:2|0:0,0:0:0:0:
488,285,121580,2,0,L|483:230,1,30,2|0,0:2|0:0,0:0:0:0:
315,46,122303,6,0,P|254:85|193:65,1,120,4|2,0:2|0:0,0:0:0:0:
137,48,122845,1,2,0:0:0:0:
80,102,123026,2,0,P|65:145|58:155,1,30,2|0,0:2|0:0,0:0:0:0:
250,328,123749,2,0,P|222:340|201:361,2,60,2|2|2,0:0|0:0|0:0,0:0:0:0:
280,255,124291,1,2,0:0:0:0:
340,206,124472,2,0,P|339:155|341:149,1,30,2|0,0:2|0:0,0:0:0:0:
280,255,124833,1,0,0:0:0:0:
280,255,125014,1,0,0:0:0:0:
332,320,125195,6,0,P|389:313|454:328,1,120,6|2,0:2|0:2,0:0:0:0:
488,258,125737,1,2,0:0:0:0:
472,181,125918,2,0,P|451:132|476:58,1,120,8|2,0:0|0:0,0:0:0:0:
400,28,126460,1,2,0:0:0:0:
331,65,126641,2,0,L|273:70,1,30,2|0,0:2|0:0,0:0:0:0:
237,156,127002,2,0,L|182:160,1,30,2|0,0:2|0:0,0:0:0:0:
180,57,127364,2,0,L|127:62,1,30,2|0,0:2|0:0,0:0:0:0:
109,153,127725,6,0,B|87:191|87:191|92:260,1,99.0000030212403,2|0,0:2|0:0,0:0:0:0:
118,280,128086,6,0,L|262:302,1,120,6|2,0:2|0:2,0:0:0:0:
391,270,128809,2,0,P|384:208|390:185,1,60,8|0,0:0|0:0,0:0:0:0:
435,151,129171,2,0,P|442:89|436:66,1,60,2|8,0:0|0:0,0:0:0:0:
367,113,129532,1,0,0:0:0:0:
314,54,129713,1,2,0:0:0:0:
266,115,129894,1,2,0:0:0:0:
183,208,130255,6,0,P|144:249|76:209,1,144,2|0,0:2|0:0,0:0:0:0:
23,154,130978,6,0,L|34:291,1,120,4|0,0:0|0:0,0:0:0:0:
104,314,131520,1,2,0:0:0:0:
182,313,131701,2,0,P|253:306|317:329,1,120,8|2,0:0|0:0,0:0:0:0:
378,330,132243,1,8,0:0:0:0:
447,289,132424,2,0,L|454:207,1,60,0|8,0:0|0:0,0:0:0:0:
383,192,132785,2,0,L|390:110,1,60,2|2,0:0|0:0,0:0:0:0:
365,51,133147,6,0,P|311:76|259:16,1,144,2|0,0:2|0:0,0:0:0:0:
182,40,133870,6,0,P|135:26|64:46,1,120,4|0,0:2|0:0,0:0:0:0:
39,116,134412,1,2,0:0:0:0:
43,194,134592,2,0,L|35:275,1,60,8|0,0:0|0:0,0:0:0:0:
107,291,134954,2,0,L|99:372,1,60,2|8,0:0|0:0,0:0:0:0:
182,343,135315,2,0,P|247:333|321:354,1,120
396,265,136038,6,0,P|462:272|512:212,1,144,0|0,0:0|0:0,0:0:0:0:
436,199,136761,6,0,P|428:129|434:65,1,120,0|0,0:0|0:0,0:0:0:0:
386,15,137303,1,0,0:0:0:0:
349,86,137484,2,0,P|352:145|344:205,1,120,0|0,0:0|0:0,0:0:0:0:
303,271,138026,1,0,0:0:0:0:
353,330,138207,2,0,P|415:344|420:346,2,60,4|2|2,0:0|0:0|0:0,0:0:0:0:
303,271,138749,1,2,0:0:0:0:
228,293,138930,2,0,L|157:298,1,60,2|2,0:1|0:1,0:0:0:0:
164,219,139291,2,0,L|104:223,1,60,2|2,0:1|0:1,0:0:0:0:
45,155,139653,6,0,P|49:95|42:48,1,90.0000034332277,4|4,0:0|0:0,0:0:0:0:
147,63,140195,1,2,0:0:0:0:
147,63,140376,2,0,P|143:107|147:152,1,90.0000034332277,4|4,0:0|0:0,0:0:0:0:
246,214,141098,2,0,P|250:154|243:107,1,90.0000034332277,4|2,0:0|0:0,0:0:0:0:
312,27,141821,2,0,P|354:26|370:33,2,45.0000017166138,4|0|4,0:0|0:0|0:0,0:0:0:0:
247,126,142544,6,0,P|243:170|247:215,1,90.0000034332277,4|0,0:0|0:0,0:0:0:0:
334,294,143086,1,2,0:0:0:0:
334,294,143267,2,0,P|338:234|331:187,1,90.0000034332277,8|4,0:0|0:0,0:0:0:0:
419,123,143990,2,0,P|415:167|419:212,1,90.0000034332277,4|2,0:0|0:0,0:0:0:0:
334,294,144532,1,2,0:0:0:0:
334,294,144713,2,0,P|264:290|232:296,1,90.0000034332277,8|4,0:0|0:0,0:0:0:0:
141,237,145436,6,0,P|148:166|138:136,1,90.0000034332277,4|8,0:0|0:0,0:0:0:0:
35,156,146159,2,0,P|28:85|38:55,1,90.0000034332277,4|8,0:0|0:0,0:0:0:0:
146,38,146882,2,0,P|190:41|235:37,1,90.0000034332277,2|8,0:1|0:0,0:0:0:0:
317,123,147424,1,2,0:0:0:0:
317,123,147605,2,0,P|313:193|319:225,1,90.0000034332277,8|8,0:0|0:0,0:0:0:0:
283,324,148327,6,0,P|212:331|182:321,1,90.0000034332277,4|8,0:0|0:0,0:0:0:0:
202,218,149050,2,0,P|131:211|101:221,1,90.0000034332277,4|8,0:0|0:0,0:0:0:0:
26,293,149773,1,4,0:0:0:0:
16,212,149954,1,4,0:0:0:0:
53,140,150135,1,4,0:0:0:0:
129,51,150496,2,0,P|97:33|60:26,2,60,0|0|0,0:0|0:0|0:0,0:0:0:0:
237,163,151219,5,4,0:2:0:0:
371,240,151580,2,0,L|441:233,1,60,0|2,0:0|0:0,0:0:0:0:
436,312,151942,2,0,L|376:319,1,60,8|0,0:0|0:0,0:0:0:0:
298,325,152303,2,0,B|159:328|159:328|188:282,1,180,2|2,0:0|0:0,0:0:0:0:
228,231,153026,1,2,0:0:0:0:
150,220,153207,1,2,0:0:0:0:
150,220,153388,2,0,L|80:227,1,60,8|2,0:0|0:0,0:0:0:0:
85,148,153750,2,0,L|145:141,1,60,2|0,0:0|0:0,0:0:0:0:
222,132,154111,5,2,0:0:0:0:
378,133,154472,2,0,L|448:126,1,60,0|0,0:0|0:0,0:0:0:0:
443,205,154834,2,0,L|383:212,1,60,8|2,0:0|0:0,0:0:0:0:
304,215,155195,2,0,B|181:230|181:230|229:273,1,180,2|2,0:0|0:0,0:0:0:0:
293,300,155918,2,0,P|263:332|179:330,1,120,2|8,0:0|0:0,0:0:0:0:
113,323,156460,1,2,0:0:0:0:
113,323,156641,2,0,L|120:253,1,60,8|8,0:0|0:0,0:0:0:0:
147,190,157002,6,0,P|170:127|148:61,2,120,4|2|8,0:2|0:0|0:0,0:0:0:0:
192,254,157906,1,2,0:0:0:0:
192,254,158087,2,0,L|261:246,1,60,2|8,0:0|0:0,0:0:0:0:
322,215,158448,2,0,P|385:192|451:214,2,120,8|2|8,0:0|0:0|0:0,0:0:0:0:
204,112,159532,2,0,L|138:106,1,60,2|2,0:0|0:0,0:0:0:0:
93,48,159894,6,0,P|68:103|97:170,1,120,2|2,0:0|0:0,0:0:0:0:
92,235,160436,1,2,0:0:0:0:
170,240,160617,2,0,L|229:245,2,60,8|0|8,0:0|0:0|0:0,0:0:0:0:
93,235,161159,1,8,0:0:0:0:
93,235,161339,2,0,B|93:289|73:342|73:342|110:308|154:311,1,180,4|2,0:0|0:0,0:0:0:0:
201,269,162062,2,0,P|214:308|209:339,2,60,4|2|8,0:0|0:0|0:0,0:0:0:0:
186,113,162785,5,4,0:2:0:0:
342,101,163147,2,0,L|412:94,1,60,0|2,0:0|0:0,0:0:0:0:
407,173,163509,2,0,L|347:180,1,60,8|0,0:0|0:0,0:0:0:0:
271,197,163870,2,0,B|147:216|147:216|198:261,1,180,2|2,0:0|0:0,0:0:0:0:
249,300,164592,1,2,0:0:0:0:
313,344,164773,1,0,0:0:0:0:
313,344,164954,2,0,L|383:351,1,60,8|2,0:0|0:0,0:0:0:0:
375,271,165316,2,0,L|315:264,1,60,2|0,0:0|0:0,0:0:0:0:
249,300,165677,5,8,0:0:0:0:
95,275,166039,2,0,L|25:282,1,60,2|2,0:0|0:0,0:0:0:0:
30,203,166401,2,0,L|90:196,1,60,8|0,0:0|0:0,0:0:0:0:
168,184,166762,2,0,B|292:165|292:165|241:120,1,180,2|0,0:0|0:0,0:0:0:0:
178,101,167484,2,0,P|219:57|288:60,1,120,2|8,0:0|0:0,0:0:0:0:
340,98,168026,1,2,0:0:0:0:
340,98,168207,2,0,L|348:175,1,60,8|8,0:0|0:0,0:0:0:0:
285,206,168568,6,0,P|337:234|411:204,2,120,4|2|8,0:2|0:0|0:0,0:0:0:0:
206,209,169472,1,2,0:0:0:0:
206,209,169653,2,0,L|214:286,1,60,2|8,0:0|0:0,0:0:0:0:
259,331,170014,2,0,P|202:344|151:317,2,120,8|2|8,0:0|0:0|0:0,0:0:0:0:
331,192,171098,2,0,L|397:186,1,60,2|2,0:0|0:0,0:0:0:0:
438,124,171460,6,0,P|466:177|442:245,1,120,8|2,0:0|0:0,0:0:0:0:
417,303,172001,1,2,0:0:0:0:
339,297,172182,2,0,L|266:286,2,60,8|2|8,0:0|0:0|0:0,0:0:0:0:
417,303,172724,1,8,0:0:0:0:
414,224,172906,2,0,B|411:164|442:124|442:124|396:119|354:89,1,180,4|2,0:0|0:0,0:0:0:0:
297,121,173628,2,0,P|315:48|415:34,1,180,4|2,0:0|0:1,0:0:0:0:
373,101,174351,5,4,0:2:0:0:
288,109,185918,6,0,P|361:92|386:99,1,90.0000034332277,4|0,0:2|0:0,0:0:0:0:
467,179,186641,1,8,0:0:0:0:
467,179,186821,2,0,P|394:196|369:189,1,90.0000034332277,0|8,0:0|0:0,0:0:0:0:
306,212,187364,2,0,P|299:270|317:307,1,90.0000034332277,2|2,0:0|0:0,0:0:0:0:
169,356,188086,1,8,0:0:0:0:
169,356,188267,2,0,P|107:345|74:356,1,90.0000034332277,2|2,0:0|0:0,0:0:0:0:
54,280,188809,6,0,L|46:215,1,45.0000017166138,2|0,0:0|0:0,0:0:0:0:
119,205,189171,2,0,L|111:140,1,45.0000017166138,2|0,0:0|0:0,0:0:0:0:
187,140,189532,2,0,L|179:75,1,45.0000017166138,8|0,0:0|0:0,0:0:0:0:
258,85,189894,2,0,L|250:20,1,45.0000017166138,2|0,0:1|0:0,0:0:0:0:
328,49,190255,2,0,P|377:58|426:44,1,90.0000034332277,2|2,0:1|0:0,0:0:0:0:
493,181,190978,1,8,0:0:0:0:
493,181,191159,2,0,P|444:172|395:186,1,90.0000034332277,2|8,0:0|0:0,0:0:0:0:
346,229,191701,6,0,P|297:238|248:224,1,90.0000034332277,4|0,0:2|0:0,0:0:0:0:
139,132,192424,1,8,0:0:0:0:
139,132,192604,2,0,P|130:181|144:230,1,90.0000034332277,0|8,0:0|0:0,0:0:0:0:
187,279,193146,2,0,P|196:328|182:377,1,90.0000034332277,0|2,0:0|0:0,0:0:0:0:
43,311,193870,1,8,0:0:0:0:
80,162,194231,2,0,L|74:117,1,45.0000017166138,0|2,0:0|0:0,0:0:0:0:
128,63,194592,6,0,P|175:77|246:60,1,112.500004291535,8|0,0:0|0:0,0:0:0:0:
309,200,195406,2,0,P|352:190|406:203,1,90.0000034332277,0|0,0:0|0:2,0:0:0:0:
256,192,196038,12,4,200376,0:2:0:0:
155,122,202183,5,0,0:0:0:0:
112,230,202544,2,0,P|94:270|90:293,2,60,4|0|0,0:2|0:0|0:0,0:0:0:0:
261,184,203267,5,8,0:1:0:0:
416,203,203629,2,0,L|476:197,1,60,0|2,0:0|0:0,0:0:0:0:
484,275,203990,2,0,L|424:281,1,60,8|0,0:0|0:0,0:0:0:0:
347,297,204351,2,0,B|214:300|214:300|238:251,1,180,2|2,0:0|0:0,0:0:0:0:
261,184,205074,1,2,0:0:0:0:
184,197,205255,1,2,0:0:0:0:
184,197,205436,2,0,L|124:203,1,60,2|8,0:0|0:0,0:0:0:0:
116,125,205797,2,0,L|176:119,1,60,2|0,0:0|0:0,0:0:0:0:
253,110,206159,5,2,0:0:0:0:
408,118,206520,2,0,L|468:124,1,60,0|0,0:0|0:0,0:0:0:0:
476,46,206881,2,0,L|416:40,1,60,8|2,0:0|0:0,0:0:0:0:
337,34,207243,2,0,B|204:31|204:31|228:80,1,180,2|2,0:0|0:0,0:0:0:0:
293,111,207966,2,0,P|247:148|177:137,1,120,2|8,0:0|0:0,0:0:0:0:
121,104,208508,1,2,0:0:0:0:
121,104,208689,2,0,L|110:179,1,60,8|8,0:0|0:0,0:0:0:0:
45,203,209050,6,0,P|91:237|159:227,2,120,4|2|8,0:2|0:0|0:0,0:0:0:0:
112,163,209954,1,2,0:0:0:0:
112,163,210135,2,0,L|120:103,1,60,2|8,0:0|0:0,0:0:0:0:
188,64,210496,2,0,P|142:30|74:40,2,120,8|2|8,0:0|0:0|0:0,0:0:0:0:
344,59,211580,2,0,P|296:73|279:95,1,60,2|2,0:0|0:0,0:0:0:0:
344,136,211942,6,0,P|369:191|348:257,1,120,2|2,0:0|0:0,0:0:0:0:
296,296,212484,1,2,0:0:0:0:
218,291,212665,2,0,L|159:296,2,60,8|0|8,0:0|0:0|0:0,0:0:0:0:
296,296,213207,1,8,0:0:0:0:
312,372,213388,2,0,P|363:333|335:228,1,180,4|2,0:0|0:0,0:0:0:0:
298,164,214111,2,0,P|340:150|362:155,2,60,4|2|8,0:0|0:0|0:0,0:0:0:0:
172,256,214833,5,4,0:2:0:0:
79,129,215195,2,0,L|19:135,1,60,0|0,0:0|0:0,0:0:0:0:
13,57,215556,2,0,L|73:51,1,60,8|0,0:1|0:0,0:0:0:0:
151,54,215918,2,0,P|230:78|336:33,1,180,2|2,0:0|0:0,0:0:0:0:
392,19,216641,1,2,0:0:0:0:
438,80,216821,1,0,0:0:0:0:
438,80,217002,2,0,L|444:140,1,60,8|2,0:0|0:0,0:0:0:0:
365,138,217363,2,0,L|371:198,1,60,2|0,0:0|0:0,0:0:0:0:
377,275,217725,5,8,0:0:0:0:
227,319,218086,2,0,L|167:325,1,60,0|0,0:0|0:0,0:0:0:0:
173,246,218448,2,0,L|233:240,1,60,8|2,0:1|0:0,0:0:0:0:
306,212,218809,2,0,P|330:133|285:27,1,180,2|2,0:0|0:0,0:0:0:0:
221,42,219532,2,0,P|164:57|106:37,1,120,2|8,0:0|0:0,0:0:0:0:
46,86,220074,1,2,0:0:0:0:
46,86,220255,2,0,L|56:156,1,60,8|8,0:0|0:0,0:0:0:0:
121,186,220617,6,0,P|177:173|249:193,2,120,4|2|8,0:2|0:0|0:0,0:0:0:0:
52,222,221520,1,2,0:0:0:0:
52,222,221701,2,0,L|62:292,1,60,2|8,0:0|0:0,0:0:0:0:
127,322,222063,2,0,P|183:309|255:329,2,120,8|2|8,0:0|0:0|0:0,0:0:0:0:
73,169,223147,2,0,L|64:109,1,60,2|2,0:0|0:0,0:0:0:0:
116,51,223508,6,0,P|188:69|240:49,1,120,8|2,0:0|0:0,0:0:0:0:
302,24,224050,1,2,0:0:0:0:
318,101,224231,2,0,L|307:171,2,60,8|2|8,0:0|0:0|0:0,0:0:0:0:
302,24,224773,1,8,0:0:0:0:
229,55,224954,2,0,P|172:69|116:51,1,120,4|2,0:0|0:0,0:0:0:0:
57,124,225677,2,0,L|61:174,2,35.9999989013672,4|2|2,0:0|0:0|0:1,0:0:0:0:
49,77,226219,1,2,0:1:0:0:
256,192,226400,12,0,227845,2:0:0:0:
