osu file format v14

[General]
AudioFilename: audio.mp3
AudioLeadIn: 0
PreviewTime: 69171
Countdown: 0
SampleSet: None
StackLeniency: 0.7
Mode: 0
LetterboxInBreaks: 0
WidescreenStoryboard: 0

[Editor]
Bookmarks: 93388,185918
DistanceSpacing: 1.1
BeatDivisor: 4
GridSize: 4
TimelineZoom: 1

[Metadata]
Title:Boy In Luv
TitleUnicode:상남자
Artist:BTS
ArtistUnicode:방탄소년단
Creator:Lilyanna
Version:Firetruck's Normal
Source:
Tags:Bighit Entertainment SKOOL LUV AFFAIR 랩몬스터 슈가 진 제이홉 지민 뷔 정국 Rap Monster Suga Jin J-Hope Jimin V Jungkook K-pop Kpop Firetruck Bangtan Boys Sonyeondan Bulletproof Boy Scouts Bakari Euny
BeatmapID:1126282
BeatmapSetID:529064

[Difficulty]
HPDrainRate:3.5
CircleSize:4
OverallDifficulty:4
ApproachRate:4
SliderMultiplier:2
SliderTickRate:1

[Events]
//Background and Video events
Video,-580,"[MV] BTS.avi"
0,0,"1ifuseethisthenhotyoongi.jpg",0,0
//Break Periods
2,93588,103634
2,174551,184598
2,200576,201947
//Storyboard Layer 0 (Background)
//Storyboard Layer 1 (Fail)
//Storyboard Layer 2 (Pass)
//Storyboard Layer 3 (Foreground)
//Storyboard Sound Samples

[TimingPoints]
858,722.89156626506,4,3,78,55,1,0
12785,-100,4,3,78,65,0,0
47123,-100,4,3,78,65,0,0
47484,-100,4,3,78,65,0,0
70255,-100,4,3,78,70,0,1
93388,-100,4,3,78,55,0,0
127725,-100,4,3,78,70,0,0
151219,-100,4,3,78,70,0,1
174351,-100,4,3,78,70,0,0
184472,-100,4,3,78,55,0,0
203267,-100,4,3,78,70,0,1
214924,-100,4,3,78,5,0,1
215556,-100,4,3,78,70,0,1
217815,-100,4,3,78,5,0,1
218448,-100,4,3,78,70,0,1
226400,-100,4,3,78,70,0,0

[Colours]
Combo1 : 176,176,176
Combo2 : 151,253,240
Combo3 : 238,123,132
Combo4 : 122,122,180

[HitObjects]
28,166,858,6,0,P|73:156|132:167,1,100,2|2,0:0|0:0,0:0:0:0:
213,232,1580,1,8,0:0:0:0:
227,123,1942,1,2,0:0:0:0:
312,184,2303,2,0,P|322:231|310:282,1,100,0|2,0:0|0:0,0:0:0:0:
394,352,3026,1,8,0:0:0:0:
485,289,3388,1,0,0:0:0:0:
434,191,3749,6,0,B|438:140|438:140|430:94|430:94|436:40,2,150,2|0|2,0:0|0:0|0:0,0:0:0:0:
485,289,5195,2,0,P|433:301|384:288,1,100,0|2,0:0|0:0,0:0:0:0:
303,218,5918,1,8,0:0:0:0:
235,304,6279,1,0,0:0:0:0:
180,208,6641,6,0,P|130:199|79:209,1,100,2|0,0:0|0:0,0:0:0:0:
34,108,7364,1,8,0:0:0:0:
80,8,7725,1,2,0:0:0:0:
156,87,8086,2,0,P|205:79|256:88,1,100,0|2,0:0|0:0,0:0:0:0:
343,151,8809,1,8,0:0:0:0:
353,40,9171,1,0,0:0:0:0:
254,87,9532,6,0,P|233:146|268:231,1,150,8|8,0:0|0:0,0:0:0:0:
237,274,10255,2,0,P|180:289|122:276,2,100,8|8|0,0:0|0:0|0:0,0:0:0:0:
333,329,11339,1,8,0:0:0:0:
430,381,11701,2,0,P|443:326|432:282,1,100,8|0,0:0|0:0,0:0:0:0:
390,182,12424,5,4,0:2:0:0:
297,242,12785,2,0,P|247:251|197:242,1,100,0|8,0:0|0:0,0:0:0:0:
97,200,13508,2,0,P|47:191|-3:200,2,100,2|0|2,0:0|0:0|0:0,0:0:0:0:
199,242,14592,2,0,P|210:194|195:146,1,100,4|0,0:1|0:0,0:0:0:0:
276,71,15315,5,4,0:1:0:0:
354,152,15677,2,0,P|369:201|356:249,1,100,0|8,0:0|0:0,0:0:0:0:
260,299,16400,2,0,P|245:250|255:201,2,100,2|0|2,0:0|0:0|0:0,0:0:0:0:
159,344,17484,2,0,P|108:334|59:346,1,100,4|0,0:1|0:0,0:0:0:0:
22,241,18207,5,4,0:1:0:0:
97,161,18568,2,0,P|154:150|197:160,1,100,0|8,0:0|0:0,0:0:0:0:
289,214,19291,2,0,P|337:222|386:211,2,100,2|0|2,0:0|0:0|0:0,0:0:0:0:
193,158,20376,2,0,P|177:214|186:255,1,100,4|0,0:1|0:0,0:0:0:0:
123,343,21098,6,0,L|17:368,2,100,4|0|8,0:0|0:0|0:0,0:0:0:0:
231,323,22183,1,8,0:0:0:0:
338,344,22544,2,0,L|444:369,2,100,4|2|4,0:3|0:3|0:3,0:0:0:0:
231,323,23629,1,2,0:3:0:0:
149,249,23990,6,0,P|132:185|158:99,1,150,4|2,0:0|0:0,0:0:0:0:
195,69,24713,1,8,0:0:0:0:
290,123,25074,2,0,P|342:133|397:120,1,100,2|0,0:0|0:0,0:0:0:0:
477,187,25797,1,2,0:0:0:0:
384,244,26159,2,0,P|332:234|277:247,1,100,8|2,0:0|0:0,0:0:0:0:
220,332,26882,6,0,B|174:302|174:302|178:248|167:192,1,150,4|2,0:0|0:0,0:0:0:0:
152,156,27604,1,8,0:0:0:0:
240,88,27966,2,0,B|288:77|288:77|339:88,1,100,2|2,0:0|0:1,0:0:0:0:
376,192,28689,1,2,0:1:0:0:
336,296,29050,2,0,B|288:307|288:307|237:296,1,100,2|2,0:1|0:1,0:0:0:0:
148,356,29773,6,0,P|131:285|168:214,1,150,4|2,0:0|0:0,0:0:0:0:
208,188,30496,1,8,0:0:0:0:
276,100,30857,2,0,P|266:49|285:0,1,100,2|0,0:0|0:0,0:0:0:0:
376,60,31580,1,2,0:0:0:0:
428,156,31942,2,0,P|443:202|431:250,1,100,8|2,0:0|0:0,0:0:0:0:
319,254,32665,6,0,P|246:237|174:256,1,150,4|8,0:0|0:0,0:0:0:0:
126,282,33388,1,8,0:0:0:0:
61,193,33749,2,0,L|116:161,1,50,8|0,0:0|0:0,0:0:0:0:
198,111,34291,2,0,P|190:70|281:124,1,250,8|2,0:0|0:1,0:0:0:0:
353,206,35556,6,0,L|414:206,2,50,4|0|0,0:0|0:0|0:0,0:0:0:0:
323,310,36279,2,0,L|369:347,2,50,8|0|2,0:0|0:0|0:0,0:0:0:0:
242,237,37002,2,0,P|193:226|145:237,2,100,0|2|8,0:0|0:0|0:0,0:0:0:0:
323,310,38086,1,0,0:0:0:0:
404,236,38448,6,0,L|468:257,2,50,4|0|0,0:0|0:0|0:0,0:0:0:0:
375,129,39171,2,0,L|421:87,2,50,8|0|2,0:0|0:0|0:0,0:0:0:0:
294,204,39894,2,0,B|242:211|242:211|192:204,2,100,0|0|2,0:0|0:0|0:1,0:0:0:0:
243,105,40978,1,2,0:1:0:0:
143,57,41339,6,0,P|81:71|33:140,1,150,4|2,0:0|0:0,0:0:0:0:
20,192,42062,1,10,0:0:0:0:
95,271,42424,1,2,0:0:0:0:
182,205,42785,2,0,P|230:196|285:209,2,100,0|2|8,0:0|0:0|0:0,0:0:0:0:
229,306,43870,1,2,0:0:0:0:
333,342,44231,6,0,B|380:327|380:327|444:240,1,150,0|2,0:0|0:0,0:0:0:0:
468,198,44954,1,8,0:0:0:0:
404,109,45315,1,10,0:0:0:0:
309,164,45677,2,0,B|274:155|262:142|262:142|212:147|165:169|165:169|123:137|61:138|18:189,1,300,0|2,0:0|0:1,0:0:0:0:
102,259,47123,6,0,P|147:282|205:272,1,100,4|2,0:2|0:0,0:0:0:0:
300,304,47845,2,0,P|350:289|408:299,1,100,8|2,0:0|0:0,0:0:0:0:
496,340,48568,1,2,0:1:0:0:
460,44,50014,6,0,L|355:46,1,100,4|0,0:0|0:0,0:0:0:0:
269,104,50737,2,0,L|164:106,1,100,8|2,0:0|0:0,0:0:0:0:
75,47,51460,1,0,0:0:0:0:
52,335,52906,6,0,P|46:292|58:235,1,100,4|0,0:2|0:0,0:0:0:0:
159,195,53629,2,0,P|165:238|153:295,1,100,8|2,0:0|0:0,0:0:0:0:
57,237,54351,1,0,0:0:0:0:
438,68,55797,6,0,P|390:56|341:66,1,100,4|0,0:0|0:0,0:0:0:0:
247,122,56520,2,0,P|199:134|150:124,1,100,8|2,0:0|0:0,0:0:0:0:
133,15,57243,2,0,P|54:70|48:169,1,200,4|2,0:0|0:1,0:0:0:0:
80,271,58327,1,2,0:1:0:0:
182,229,58689,6,0,B|223:225|223:225|249:230|249:230|294:224,1,100,4|4,0:0|0:0,0:0:0:0:
324,328,59412,2,0,B|291:324|291:324|265:329|265:329|224:325,1,100,4|4,0:0|0:0,0:0:0:0:
116,344,60135,2,0,P|137:272|107:151,1,200,0|8,0:0|0:0,0:0:0:0:
60,56,61219,1,4,0:0:0:0:
169,55,61580,6,0,P|218:44|269:54,1,100,4|0,0:0|0:0,0:0:0:0:
321,148,62303,2,0,P|272:159|221:149,1,100,2|4,0:0|0:0,0:0:0:0:
169,55,63026,2,0,P|119:120|152:234,1,200,0|4,0:0|0:0,0:0:0:0:
226,303,64111,1,4,0:0:0:0:
315,239,64472,6,0,P|373:228|420:239,1,100,4|8,0:0|0:0,0:0:0:0:
472,328,65195,2,0,P|414:339|367:328,1,100,4|8,0:0|0:0,0:0:0:0:
315,239,65918,2,0,P|257:228|210:239,1,100,0|8,0:0|0:0,0:0:0:0:
133,307,66641,2,0,P|75:318|28:307,1,100,8|8,0:0|0:0,0:0:0:0:
256,192,67364,12,0,69171,0:0:0:0:
44,71,70255,6,0,P|28:131|46:224,1,150,4|2,0:2|0:0,0:0:0:0:
64,266,70978,1,8,0:0:0:0:
168,232,71339,1,2,0:0:0:0:
266,280,71701,2,0,P|317:292|366:281,1,100,0|2,0:0|0:0,0:0:0:0:
417,186,72424,2,0,P|366:174|317:185,1,100,8|2,0:0|0:0,0:0:0:0:
266,280,73147,6,0,P|231:251|223:133,1,150,2|0,0:0|0:0,0:0:0:0:
236,102,73870,1,8,0:0:0:0:
150,33,74231,1,2,0:0:0:0:
74,113,74592,2,0,L|66:226,1,100,8|2,0:0|0:0,0:0:0:0:
125,306,75315,2,0,P|173:294|223:305,1,100,8|8,0:0|0:0,0:0:0:0:
317,250,76038,6,0,P|299:186|334:106,1,150,4|2,0:2|0:0,0:0:0:0:
364,68,76761,1,8,0:0:0:0:
267,14,77123,1,2,0:0:0:0:
171,67,77484,2,0,P|96:48|29:73,1,150,8|2,0:0|0:0,0:0:0:0:
3,120,78207,1,8,0:0:0:0:
73,204,78568,1,2,0:0:0:0:
146,286,78930,6,0,P|198:297|245:288,1,100,2|2,0:0|0:0,0:0:0:0:
298,193,79653,2,0,P|246:182|199:191,1,100,8|8,0:0|0:0,0:0:0:0:
146,286,80376,2,2,P|101:238|97:153,1,150,4|2,0:0|0:0,0:0:0:0:
123,109,81098,2,0,P|155:71|201:52,1,100,4|8,0:0|0:0,0:0:0:0:
306,20,81821,6,0,B|365:21|365:21|440:85,1,150,4|2,0:2|0:0,0:0:0:0:
462,127,82544,1,8,0:0:0:0:
435,233,82906,1,2,0:0:0:0:
352,160,83267,2,0,P|300:150|248:161,1,100,0|2,0:0|0:0,0:0:0:0:
205,257,83990,2,0,P|257:267|309:256,1,100,8|2,0:0|0:0,0:0:0:0:
352,160,84713,6,0,P|374:122|351:18,1,150,8|2,0:0|0:0,0:0:0:0:
299,26,85436,1,8,0:0:0:0:
202,78,85797,1,2,0:0:0:0:
108,20,86159,2,0,P|95:70|102:124,1,100,8|2,0:0|0:0,0:0:0:0:
195,174,86882,2,0,P|210:126|202:78,1,100,8|8,0:0|0:0,0:0:0:0:
100,117,87604,6,0,P|90:205|122:257,1,150,4|2,0:2|0:0,0:0:0:0:
162,291,88327,1,8,0:0:0:0:
266,256,88689,1,2,0:0:0:0:
350,320,89050,2,0,P|371:244|339:179,1,150,8|2,0:0|0:0,0:0:0:0:
323,131,89773,1,8,0:0:0:0:
246,52,90135,1,2,0:0:0:0:
207,155,90496,6,0,P|154:145|104:158,1,100,8|2,0:0|0:0,0:0:0:0:
40,240,91219,2,0,L|15:342,1,100,8|8,0:0|0:0,0:0:0:0:
124,356,91942,2,0,B|174:331|224:348|224:348|263:361|321:345,1,200,4|4,0:0|0:0,0:0:0:0:
413,288,93026,1,2,0:1:0:0:
369,186,93388,5,4,0:0:0:0:
78,63,104954,6,0,P|65:117|79:173,1,100,4|0,0:2|0:0,0:0:0:0:
164,221,105677,2,0,P|177:275|163:331,1,100,8|2,0:0|0:0,0:0:0:0:
272,356,106400,2,0,P|363:334|468:362,1,200,0|8,0:0|0:0,0:0:0:0:
490,252,107484,1,0,0:0:0:0:
415,171,107845,6,0,L|305:148,1,100,2|0,0:0|0:0,0:0:0:0:
208,169,108568,2,0,L|98:146,1,100,8|2,0:0|0:0,0:0:0:0:
99,38,109291,2,0,P|19:86|8:192,1,200,2|8,0:0|0:0,0:0:0:0:
43,290,110376,1,2,0:1:0:0:
148,264,110737,6,0,P|195:248|243:258,1,100,2|2,0:0|0:0,0:0:0:0:
344,300,111460,2,0,P|401:308|450:287,1,100,8|2,0:0|0:0,0:0:0:0:
384,198,112183,2,0,P|349:111|407:24,1,200,0|8,0:0|0:0,0:0:0:0:
458,120,113267,1,0,0:0:0:0:
483,228,113629,6,0,P|487:291|421:358,1,150,10|10,0:0|0:0,0:0:0:0:
377,355,114351,2,0,B|325:347|325:347|276:355,1,100,10|10,0:0|0:0,0:0:0:0:
173,317,115074,2,0,L|122:328,2,50,10|10|10,0:0|0:0|0:0,0:0:0:0:
179,206,115797,2,0,L|121:193,2,50,2|2|2,0:1|0:1|0:1,0:0:0:0:
283,171,116520,6,0,P|334:181|387:171,1,100,4|0,0:2|0:0,0:0:0:0:
432,75,117243,2,0,P|381:65|328:75,1,100,8|2,0:0|0:0,0:0:0:0:
227,44,117966,1,4,0:1:0:0:
152,124,118327,1,4,0:1:0:0:
57,70,118689,2,0,P|43:126|54:173,1,100,4|0,0:1|0:0,0:0:0:0:
105,260,119412,6,0,B|142:256|142:256|164:260|164:260|206:255,1,100,4|2,0:0|0:0,0:0:0:0:
304,301,120135,2,0,B|341:297|341:297|363:301|363:301|405:296,1,100,8|2,0:0|0:0,0:0:0:0:
490,229,120857,1,2,0:2:0:0:
474,119,121219,1,2,0:2:0:0:
394,196,121580,2,0,P|341:205|295:196,1,100,2|0,0:2|0:0,0:0:0:0:
199,143,122303,6,0,P|186:197|198:248,1,100,4|2,0:2|0:0,0:0:0:0:
229,346,123026,1,2,0:2:0:0:
428,254,123749,2,0,P|439:194|422:141,1,100,2|2,0:0|0:0,0:0:0:0:
379,58,124472,1,2,0:2:0:0:
187,165,125195,6,0,P|137:175|85:166,1,100,6|2,0:2|0:2,0:0:0:0:
32,72,125918,2,2,P|82:62|134:71,1,100,8|2,0:0|0:0,0:0:0:0:
187,165,126641,1,2,0:2:0:0:
254,77,127002,1,2,0:2:0:0:
310,172,127364,2,0,P|361:183|410:172,1,100,2|2,0:2|0:2,0:0:0:0:
489,100,128086,6,0,P|515:179|492:242,1,150,6|2,0:2|0:0,0:0:0:0:
474,291,128809,2,0,L|491:347,2,50,8|0|2,0:0|0:0|0:0,0:0:0:0:
368,255,129532,1,0,0:0:0:0:
264,292,129894,1,2,0:0:0:0:
51,39,130978,6,0,B|40:88|40:88|52:144,1,100,4|0,0:0|0:0,0:0:0:0:
146,191,131701,2,0,B|157:142|157:142|145:86,1,100,8|2,0:0|0:0,0:0:0:0:
50,136,132424,1,0,0:0:0:0:
45,245,132785,1,2,0:0:0:0:
326,73,133870,6,0,P|345:152|328:219,1,150,4|2,0:2|0:0,0:0:0:0:
310,268,134592,1,8,0:0:0:0:
215,212,134954,1,2,0:0:0:0:
123,272,135315,2,0,P|72:282|24:271,1,100,0|0,0:0|0:0,0:0:0:0:
285,68,136761,6,0,P|336:60|386:69,1,100
436,164,137484,2,0,P|385:172|335:163,1,100,0|0,0:0|0:0,0:0:0:0:
227,161,138207,2,0,L|191:209,2,50,4|2|2,0:0|0:0|0:0,0:0:0:0:
285,68,138930,1,2,0:1:0:0:
175,66,139291,1,2,0:1:0:0:
109,154,139653,6,0,P|97:206|110:252,1,100,4|4,0:0|0:0,0:0:0:0:
206,300,140376,2,0,P|218:248|205:202,1,100,4|4,0:0|0:0,0:0:0:0:
270,115,141098,2,0,P|349:141|461:109,1,200,0|4,0:0|0:0,0:0:0:0:
501,212,142183,1,4,0:0:0:0:
447,307,142544,6,0,L|337:304,1,100,4|0,0:0|0:0,0:0:0:0:
250,250,143267,2,0,L|140:247,1,100,2|4,0:0|0:0,0:0:0:0:
81,333,143990,2,0,P|113:274|77:146,1,200,0|4,0:0|0:0,0:0:0:0:
129,51,145074,1,4,0:0:0:0:
218,115,145436,6,0,P|207:162|217:213,1,100,4|8,0:0|0:0,0:0:0:0:
313,264,146159,2,0,P|324:217|314:166,1,100,4|8,0:0|0:0,0:0:0:0:
370,72,146882,2,0,P|420:81|474:72,1,100,0|8,0:0|0:0,0:0:0:0:
477,183,147604,2,0,P|469:232|478:281,1,100,8|8,0:0|0:0,0:0:0:0:
256,192,148327,12,4,150135,0:0:0:0:
468,71,151219,6,0,P|484:131|466:224,1,150,4|2,0:2|0:0,0:0:0:0:
448,267,151942,1,8,0:0:0:0:
344,232,152303,1,2,0:0:0:0:
246,280,152665,2,0,P|195:292|146:281,1,100,0|2,0:0|0:0,0:0:0:0:
95,186,153388,2,0,P|146:174|195:185,1,100,8|2,0:0|0:0,0:0:0:0:
246,280,154111,6,0,P|286:240|292:140,1,150,2|0,0:0|0:0,0:0:0:0:
275,98,154834,1,8,0:0:0:0:
363,32,155195,1,2,0:0:0:0:
438,113,155556,2,0,L|446:226,1,100,8|2,0:0|0:0,0:0:0:0:
387,306,156279,2,0,P|339:294|289:305,1,100,8|8,0:0|0:0,0:0:0:0:
195,250,157002,6,0,P|213:186|178:106,1,150,4|2,0:2|0:0,0:0:0:0:
148,68,157725,1,8,0:0:0:0:
245,14,158087,1,2,0:0:0:0:
341,67,158448,2,0,B|387:48|387:48|489:64,1,150,8|2,0:0|0:0,0:0:0:0:
504,116,159171,1,8,0:0:0:0:
439,204,159532,1,2,0:0:0:0:
366,286,159894,6,0,P|314:297|267:288,1,100,2|2,0:0|0:0,0:0:0:0:
214,193,160617,2,0,P|266:182|313:191,1,100,8|8,0:0|0:0,0:0:0:0:
366,286,161340,2,2,P|411:240|416:155,1,150,4|2,0:0|0:0,0:0:0:0:
392,108,162062,2,0,P|359:70|313:51,1,100,4|8,0:0|0:0,0:0:0:0:
207,21,162785,6,0,B|157:21|157:21|73:86,1,150,4|2,0:2|0:0,0:0:0:0:
49,129,163508,1,8,0:0:0:0:
76,235,163870,1,2,0:0:0:0:
160,160,164231,2,0,P|212:150|264:161,1,100,0|2,0:0|0:0,0:0:0:0:
307,257,164954,2,0,P|255:267|203:256,1,100,8|2,0:0|0:0,0:0:0:0:
160,160,165677,6,0,P|138:122|161:18,1,150,8|2,0:0|0:0,0:0:0:0:
211,15,166400,1,8,0:0:0:0:
306,69,166761,1,2,0:0:0:0:
394,16,167123,2,0,P|408:69|395:120,1,100,8|2,0:0|0:0,0:0:0:0:
302,165,167846,2,0,P|288:112|301:61,1,100,8|8,0:0|0:0,0:0:0:0:
398,112,168568,6,0,P|404:196|369:253,1,150,4|2,0:2|0:0,0:0:0:0:
345,299,169291,1,8,0:0:0:0:
245,251,169653,1,2,0:0:0:0:
160,321,170014,2,0,P|137:251|162:179,1,150,8|2,0:0|0:0,0:0:0:0:
194,137,170737,1,8,0:0:0:0:
265,53,171099,1,2,0:0:0:0:
305,155,171460,6,0,P|358:145|408:158,1,100,8|2,0:0|0:0,0:0:0:0:
472,240,172183,2,0,L|497:342,1,100,8|8,0:0|0:0,0:0:0:0:
388,356,172906,2,0,P|303:333|193:358,1,200,4|4,0:0|0:0,0:0:0:0:
105,294,173990,1,2,0:1:0:0:
131,187,174351,5,4,0:2:0:0:
67,48,185918,6,0,B|84:102|57:142|57:142|86:191|47:252,1,200,4|8,0:2|0:0,0:0:0:0:
136,312,187002,1,0,0:0:0:0:
239,350,187364,2,0,B|287:318|336:347|336:347|376:320|430:337,1,200,2|8,0:0|0:0,0:0:0:0:
475,237,188448,1,2,0:0:0:0:
420,141,188809,6,0,P|406:88|421:41,2,100,2|2|8,0:0|0:0|0:0,0:0:0:0:
360,234,189894,1,2,0:1:0:0:
257,193,190255,2,0,P|160:173|59:198,1,200,2|8,0:1|0:0,0:0:0:0:
17,296,191339,1,2,0:1:0:0:
120,332,191701,2,0,B|167:359|217:339|217:339|273:316|312:340,1,200,4|8,0:0|0:0,0:0:0:0:
400,272,192785,1,0,0:0:0:0:
340,180,193147,2,0,B|301:156|245:179|245:179|195:199|140:168,1,200,0|8,0:0|0:0,0:0:0:0:
204,75,194231,1,0,0:0:0:0:
256,192,194592,12,4,200376,0:2:0:0:
468,313,203267,6,0,P|484:253|466:160,1,150,8|2,0:1|0:0,0:0:0:0:
448,118,203990,1,8,0:0:0:0:
344,152,204351,1,2,0:0:0:0:
246,104,204713,2,0,P|195:92|146:103,1,100,0|2,0:0|0:0,0:0:0:0:
95,198,205436,2,0,P|146:210|195:199,1,100,2|2,0:0|0:0,0:0:0:0:
246,104,206159,6,0,P|279:133|292:248,1,150,2|0,0:0|0:0,0:0:0:0:
272,282,206882,1,8,0:0:0:0:
360,348,207243,1,2,0:0:0:0:
438,271,207604,2,0,L|446:158,1,100,8|2,0:0|0:0,0:0:0:0:
387,78,208327,2,0,P|339:90|289:79,1,100,8|8,0:0|0:0,0:0:0:0:
195,134,209050,6,0,P|213:198|178:278,1,150,4|2,0:2|0:0,0:0:0:0:
148,316,209773,1,8,0:0:0:0:
245,370,210135,1,2,0:0:0:0:
341,317,210496,2,0,P|416:336|487:318,1,150,8|2,0:0|0:0,0:0:0:0:
504,268,211219,1,8,0:0:0:0:
439,180,211580,1,2,0:0:0:0:
366,98,211942,6,0,P|314:87|267:96,1,100,2|2,0:0|0:0,0:0:0:0:
214,191,212665,2,0,P|266:202|313:193,1,100,8|8,0:0|0:0,0:0:0:0:
366,98,213388,2,2,P|411:147|413:237,1,150,4|2,0:0|0:0,0:0:0:0:
385,273,214110,2,0,P|339:292|302:340,1,100,4|8,0:0|0:0,0:0:0:0:
203,365,214833,6,0,B|144:364|144:364|69:300,1,150,4|0,0:2|0:0,0:0:0:0:
50,257,215556,1,8,0:1:0:0:
77,151,215918,1,2,0:0:0:0:
160,224,216279,2,0,P|212:234|264:223,1,100,0|2,0:0|0:0,0:0:0:0:
307,127,217002,2,0,P|255:117|203:128,1,100,8|2,0:0|0:0,0:0:0:0:
160,224,217725,6,0,P|138:262|161:366,1,150,8|0,0:0|0:0,0:0:0:0:
208,376,218448,1,8,0:1:0:0:
288,300,218809,1,2,0:0:0:0:
384,356,219171,2,0,P|398:303|385:252,1,100,8|2,0:0|0:0,0:0:0:0:
291,203,219894,2,0,P|278:250|287:299,1,100,8|8,0:0|0:0,0:0:0:0:
388,259,220616,6,0,P|394:172|355:117,1,150,4|2,0:2|0:0,0:0:0:0:
308,104,221339,1,8,0:0:0:0:
204,144,221701,1,2,0:0:0:0:
116,76,222062,2,0,P|95:151|122:218,1,150,8|2,0:0|0:0,0:0:0:0:
172,240,222785,1,8,0:0:0:0:
252,316,223147,1,2,0:0:0:0:
332,240,223508,6,0,P|385:250|435:237,1,100,8|2,0:0|0:0,0:0:0:0:
476,140,224231,2,0,L|501:38,1,100,8|8,0:0|0:0,0:0:0:0:
392,28,224954,2,0,P|307:51|197:26,1,200,4|4,0:0|0:0,0:0:0:0:
108,88,226038,1,2,0:1:0:0:
60,188,226400,5,0,0:0:0:0:
