osu file format v14

[General]
AudioFilename: audio.mp3
AudioLeadIn: 0
PreviewTime: 69171
Countdown: 0
SampleSet: None
StackLeniency: 0.7
Mode: 0
LetterboxInBreaks: 0
WidescreenStoryboard: 0

[Editor]
Bookmarks: 93388,185918
DistanceSpacing: 1.1
BeatDivisor: 4
GridSize: 4
TimelineZoom: 1

[Metadata]
Title:Boy In Luv
TitleUnicode:상남자
Artist:BTS
ArtistUnicode:방탄소년단
Creator:Lilyanna
Version:Easy
Source:
Tags:Bighit Entertainment SKOOL LUV AFFAIR 랩몬스터 슈가 진 제이홉 지민 뷔 정국 Rap Monster Suga Jin J-Hope Jimin V Jungkook K-pop Kpop Firetruck Bangtan Boys Sonyeondan Bulletproof Boy Scouts Bakari Euny
BeatmapID:1289156
BeatmapSetID:529064

[Difficulty]
HPDrainRate:3
CircleSize:3
OverallDifficulty:3
ApproachRate:3
SliderMultiplier:1.6
SliderTickRate:1

[Events]
//Background and Video events
Video,-580,"[MV] BTS.avi"
0,0,"1ifuseethisthenhotyoongi.jpg",0,0
//Break Periods
2,93588,103514
2,174551,184478
//Storyboard Layer 0 (Background)
//Storyboard Layer 1 (Fail)
//Storyboard Layer 2 (Pass)
//Storyboard Layer 3 (Foreground)
//Storyboard Sound Samples

[TimingPoints]
858,722.89156626506,4,3,78,55,1,0
70255,-100,4,3,78,70,0,1
93388,-100,4,3,78,55,0,0
151219,-100,4,3,78,70,0,1
174351,-100,4,3,78,70,0,0
184472,-100,4,3,78,55,0,0
203267,-100,4,3,78,70,0,1
226400,-100,4,3,78,70,0,0

[Colours]
Combo1 : 176,176,176
Combo2 : 151,253,240
Combo3 : 238,123,132
Combo4 : 122,122,180

[HitObjects]
380,32,858,6,0,P|436:100|416:190,1,160,2|8,0:0|0:0,0:0:0:0:
305,291,2303,2,0,B|222:313|222:280|130:287,1,160,0|8,0:0|0:0,0:0:0:0:
129,111,3749,6,0,B|204:104|204:137|287:115,1,160,2|8,0:0|0:0,0:0:0:0:
449,193,5195,2,0,P|487:283|437:353,1,160,0|8,0:0|0:0,0:0:0:0:
299,267,6641,6,0,B|240:264|240:264|197:272|197:272|117:266,1,160,2|8,0:0|0:0,0:0:0:0:
163,93,8086,2,0,B|220:97|220:97|263:89|263:89|322:92,1,160,0|8,0:0|0:0,0:0:0:0:
494,129,9532,6,0,B|511:234|511:234|469:283,1,160,8|8,0:0|0:0,0:0:0:0:
398,321,10617,1,8,0:0:0:0:
327,269,10978,2,0,B|292:229|292:229|309:124,1,160,0|0,0:0|0:0,0:0:0:0:
457,28,12424,5,4,0:2:0:0:
472,114,12785,2,0,L|478:203,2,80,0|8|2,0:0|0:0|0:0,0:0:0:0:
385,131,13870,2,0,P|316:151|219:131,1,160,0|4,0:0|0:1,0:0:0:0:
57,102,15315,5,4,0:1:0:0:
52,190,15677,2,0,L|58:279,2,80,0|8|2,0:0|0:0|0:0,0:0:0:0:
131,150,16761,2,0,P|200:170|297:150,1,160,0|4,0:0|0:1,0:0:0:0:
450,91,18207,5,4,0:1:0:0:
413,173,18568,2,0,P|402:219|406:274,2,80,0|8|2,0:0|0:0|0:0,0:0:0:0:
351,109,19653,2,0,B|287:107|287:107|253:115|253:115|173:113,1,160,0|4,0:0|0:1,0:0:0:0:
95,260,21098,6,0,B|156:261|156:261|190:253|190:253|254:255,1,160,4|8,0:0|0:0,0:0:0:0:
410,335,22544,2,0,P|438:269|393:183,1,160,4|4,0:3|0:3,0:0:0:0:
277,70,23990,5,4,0:0:0:0:
200,228,24713,2,0,L|110:241,2,80,8|2|0,0:0|0:0|0:0,0:0:0:0:
280,263,25797,1,2,0:0:0:0:
352,213,26159,2,0,L|339:123,1,80,8|2,0:0|0:0,0:0:0:0:
324,47,26882,5,4,0:0:0:0:
152,84,27604,2,0,L|62:97,2,80,8|2|2,0:0|0:0|0:1,0:0:0:0:
219,140,28689,1,2,0:1:0:0:
225,227,29050,2,0,L|236:306,1,80,2|2,0:1|0:1,0:0:0:0:
312,349,29773,5,4,0:0:0:0:
413,205,30496,2,0,L|400:115,2,80,8|2|0,0:0|0:0|0:0,0:0:0:0:
345,261,31580,1,2,0:0:0:0:
263,226,31942,2,0,L|250:136,1,80,8|2,0:0|0:0,0:0:0:0:
235,60,32665,5,4,0:0:0:0:
102,175,33388,2,0,L|113:254,2,80,8|8|0,0:0|0:0|0:0,0:0:0:0:
161,110,34472,1,8,0:0:0:0:
237,152,34833,2,0,L|248:231,1,80,2|2,0:1|0:1,0:0:0:0:
267,317,35556,5,4,0:0:0:0:
382,184,36279,1,8,0:0:0:0:
270,47,37002,2,0,P|186:59|111:49,1,160,0|8,0:0|0:0,0:0:0:0:
34,207,38448,5,4,0:0:0:0:
158,331,39171,1,8,0:0:0:0:
281,206,39894,2,0,P|269:122|279:47,1,160,0|2,0:0|0:1,0:0:0:0:
454,47,41339,6,0,P|466:131|456:206,1,160,4|10,0:0|0:0,0:0:0:0:
337,335,42785,2,0,B|275:333|275:333|243:340|243:340|164:337,1,160,0|8,0:0|0:0,0:0:0:0:
37,231,44231,6,0,P|25:147|35:72,1,160,0|8,0:0|0:0,0:0:0:0:
209,47,45677,2,0,B|271:49|271:49|303:42|303:42|382:45,1,160,0|2,0:0|0:1,0:0:0:0:
461,193,47123,5,4,0:2:0:0:
289,231,47845,2,0,L|188:244,2,80,8|2|2,0:0|0:0|0:1,0:0:0:0:
68,72,50014,6,0,B|135:66|135:66|164:71|164:71|233:64,2,160,4|8|0,0:0|0:0|0:0,0:0:0:0:
407,165,52906,5,4,0:2:0:0:
235,203,53628,2,0,L|134:216,2,80,8|2|0,0:0|0:0|0:0,0:0:0:0:
423,42,55797,6,0,B|445:119|445:119|422:205,1,160,4|8,0:0|0:0,0:0:0:0:
257,138,57243,2,0,B|235:215|235:215|258:301,1,160,4|2,0:0|0:1,0:0:0:0:
370,158,58689,6,0,L|373:67,2,80,4|4|4,0:0|0:0|0:0,0:0:0:0:
194,146,60135,2,0,L|191:55,2,80,0|2|4,0:0|0:0|0:0,0:0:0:0:
193,234,61219,1,4,0:0:0:0:
120,283,61580,6,0,P|182:320|264:288,1,160,4|2,0:0|0:0,0:0:0:0:
397,181,63026,2,0,L|488:184,2,80,0|2|4,0:0|0:0|0:0,0:0:0:0:
255,76,64472,6,0,P|194:91|75:80,2,160,4|4|0,0:0|0:0|0:0,0:0:0:0:
397,182,66641,1,8,0:0:0:0:
253,283,67364,2,0,P|192:268|73:279,2,160,4|4|4,0:0|0:0|0:0,0:0:0:0:
509,41,70255,5,4,0:2:0:0:
333,48,70978,2,0,B|257:48|257:76|175:49,1,160,8|0,0:0|0:0,0:0:0:0:
41,163,72424,2,0,L|54:257,1,80,8|2,0:0|0:0,0:0:0:0:
68,328,73147,5,2,0:0:0:0:
243,318,73870,2,0,B|323:296|323:327|412:318,1,160,8|8,0:0|0:0,0:0:0:0:
503,177,75315,2,0,L|490:83,1,80,8|8,0:0|0:0,0:0:0:0:
476,13,76038,5,4,0:2:0:0:
306,58,76761,2,0,L|319:152,1,80,8|2,0:0|0:0,0:0:0:0:
333,223,77484,1,8,0:0:0:0:
172,295,78207,2,0,L|161:215,1,80,8|2,0:0|0:0,0:0:0:0:
74,201,78930,6,0,P|96:155|215:143,1,160,2|8,0:0|0:0,0:0:0:0:
371,135,80376,2,0,P|449:142|489:219,1,160,4|4,0:0|0:0,0:0:0:0:
455,288,81460,1,4,0:2:0:0:
399,219,81821,5,8,0:0:0:0:
269,338,82544,2,0,B|206:333|206:333|169:339|169:339|84:334,1,160,8|0,0:0|0:0,0:0:0:0:
50,169,83990,2,0,L|45:87,1,80,8|2,0:0|0:0,0:0:0:0:
114,34,84713,5,8,0:0:0:0:
278,95,85436,2,0,B|337:98|337:98|374:92|374:92|437:97,1,160,8|8,0:0|0:0,0:0:0:0:
444,273,86882,2,0,L|350:267,1,80,8|8,0:0|0:0,0:0:0:0:
276,259,87604,5,4,0:2:0:0:
226,90,88327,2,0,L|132:96,1,80,8|2,0:0|0:0,0:0:0:0:
58,104,89049,1,8,0:0:0:0:
150,254,89773,2,0,L|229:248,1,80,8|2,0:0|0:0,0:0:0:0:
284,317,90496,6,0,P|315:266|273:171,1,160,8|8,0:0|0:0,0:0:0:0:
157,52,91942,2,0,B|201:57|201:57|269:49|269:49|333:55,1,160,4|4,0:0|0:0,0:0:0:0:
457,158,93388,5,4,0:0:0:0:
166,177,104954,6,0,P|150:248|179:347,1,160,4|8,0:2|0:0,0:0:0:0:
346,331,106400,2,0,P|362:260|333:161,1,160,0|8,0:0|0:0,0:0:0:0:
206,64,107845,6,0,B|283:85|283:42|387:72,1,160,2|8,0:0|0:0,0:0:0:0:
432,228,109291,2,0,L|449:317,2,80,2|2|8,0:0|0:0|0:0,0:0:0:0:
405,143,110376,1,2,0:1:0:0:
330,190,110737,6,0,B|276:190|276:190|213:197|213:197|152:190,1,160,2|8,0:0|0:0,0:0:0:0:
79,41,112183,2,0,L|177:38,1,80,0|2,0:0|0:0,0:0:0:0:
235,82,112906,2,0,L|333:79,1,80,8|0,0:0|0:0,0:0:0:0:
389,32,113629,6,0,P|401:103|333:165,1,160,10|10,0:0|0:0,0:0:0:0:
279,325,115074,2,0,L|181:328,1,80,10|10,0:0|0:0,0:0:0:0:
123,284,115797,2,0,L|25:287,1,80,2|2,0:1|0:1,0:0:0:0:
29,199,116520,6,0,B|151:198|151:198|170:158,1,160,4|2,0:2|0:1,0:0:0:0:
198,81,117604,1,2,0:0:0:0:
483,199,119412,6,0,B|361:198|361:198|342:158,1,160,4|2,0:2|0:1,0:0:0:0:
314,81,120496,1,2,0:0:0:0:
125,60,122303,6,0,L|126:159,1,80,4|2,0:2|0:0,0:0:0:0:
346,284,123749,2,0,L|345:185,1,80,2|2,0:0|0:0,0:0:0:0:
127,54,125195,6,0,P|23:67|108:203,1,320,6|2,0:2|0:2,0:0:0:0:
439,285,128086,6,0,B|447:204|447:204|431:122,1,160,6|8,0:2|0:0,0:0:0:0:
277,42,129532,2,0,B|196:34|196:34|114:50,1,160,0|2,0:0|0:2,0:0:0:0:
41,207,130978,6,0,P|71:269|47:372,2,160,4|8|0,0:0|0:0|0:0,0:0:0:0:
134,57,133147,1,2,0:2:0:0:
308,80,133870,6,0,B|373:62|373:62|440:79|491:75,1,160,4|8,0:2|0:0,0:0:0:0:
467,251,135315,2,0,B|402:269|402:269|335:252|284:256,1,160,0|0,0:0|0:0,0:0:0:0:
256,192,136761,12,4,139653,0:0:0:0:
65,202,141821,5,4,0:0:0:0:
199,88,142544,6,0,P|305:102|382:80,1,160,4|2,0:0|0:0,0:0:0:0:
502,188,143990,2,0,B|469:261|469:261|499:342,1,160,0|4,0:0|0:0,0:0:0:0:
320,329,145436,6,0,L|152:345,2,160,4|4|0,0:0|0:0|0:0,0:0:0:0:
419,184,147604,1,8,0:0:0:0:
305,49,148327,6,0,L|137:33,2,160,4|4|4,0:0|0:0|0:0,0:0:0:0:
61,303,151219,5,4,0:2:0:0:
159,156,151942,2,0,B|209:148|209:148|272:162|272:162|348:159,1,160,8|0,0:0|0:0,0:0:0:0:
455,50,153388,2,0,L|458:149,1,80,8|2,0:0|0:0,0:0:0:0:
459,218,154111,5,2,0:0:0:0:
311,313,154833,2,0,B|261:321|261:321|198:307|198:307|122:310,1,160,8|8,0:0|0:0,0:0:0:0:
52,163,156279,2,0,L|51:75,1,80,8|8,0:0|0:0,0:0:0:0:
124,34,157002,5,4,0:2:0:0:
292,84,157725,2,0,L|293:172,1,80,8|2,0:0|0:0,0:0:0:0:
220,213,158448,1,8,0:0:0:0:
49,256,159171,2,0,L|49:161,1,80,8|2,0:0|0:0,0:0:0:0:
21,92,159894,6,0,B|65:79|111:113|111:113|194:92,1,160,2|8,0:0|0:0,0:0:0:0:
341,47,161339,2,0,P|369:128|351:208,1,160,4|4,0:0|0:0,0:0:0:0:
293,261,162424,1,8,0:0:0:0:
270,176,162785,5,4,0:2:0:0:
111,253,163508,2,0,P|97:174|125:100,1,160,8|0,0:0|0:0,0:0:0:0:
298,66,164954,2,0,L|394:69,1,80,8|2,0:0|0:0,0:0:0:0:
465,75,165677,5,8,0:0:0:0:
459,250,166400,2,0,B|383:246|387:275|294:253,1,160,8|8,0:0|0:0,0:0:0:0:
128,291,167845,2,0,P|121:215|129:188,1,80,8|8,0:0|0:0,0:0:0:0:
158,132,168568,5,4,0:2:0:0:
310,44,169291,2,0,P|317:120|309:147,1,80,8|2,0:0|0:0,0:0:0:0:
280,203,170014,1,8,0:0:0:0:
430,294,170737,2,0,L|427:198,1,80,8|2,0:0|0:0,0:0:0:0:
386,135,171460,6,0,P|331:157|232:131,1,160,8|8,0:0|0:0,0:0:0:0:
60,149,172906,2,0,B|50:235|50:235|62:328,1,160,4|4,0:0|0:0,0:0:0:0:
225,249,174351,5,4,0:2:0:0:
368,68,185918,6,0,P|404:124|376:224,1,160,4|8,0:2|0:0,0:0:0:0:
227,286,187364,2,0,B|175:282|175:282|111:290|111:290|51:286,1,160,2|8,0:0|0:0,0:0:0:0:
75,111,188809,6,0,B|118:113|118:113|182:105|182:105|234:109,2,160,2|8|2,0:0|0:0|0:1,0:0:0:0:
28,280,190978,1,8,0:0:0:0:
196,332,191701,6,0,P|256:323|361:349,1,160,4|8,0:2|0:0,0:0:0:0:
454,200,193147,2,0,P|445:140|471:35,1,160,0|8,0:0|0:0,0:0:0:0:
256,192,194592,12,4,200376,0:2:0:0:
89,309,203267,5,8,0:1:0:0:
264,313,203990,2,0,B|314:305|314:305|453:316,1,160,8|0,0:0|0:0,0:0:0:0:
485,148,205436,2,0,L|482:68,1,80,2|2,0:0|0:0,0:0:0:0:
399,39,206159,5,2,0:0:0:0:
224,59,206881,2,0,B|174:67|174:67|35:56,1,160,8|8,0:0|0:0,0:0:0:0:
20,228,208327,2,0,L|20:307,1,80,8|8,0:0|0:0,0:0:0:0:
99,348,209050,5,4,0:2:0:0:
270,306,209773,2,0,L|269:226,1,80,8|2,0:0|0:0,0:0:0:0:
333,165,210496,1,8,0:0:0:0:
191,60,211219,2,0,L|191:140,1,80,8|2,0:0|0:0,0:0:0:0:
190,228,211942,6,0,B|124:244|124:244|34:223,1,160,2|8,0:0|0:0,0:0:0:0:
45,47,213388,2,0,B|110:30|110:30|200:51,1,160,4|4,0:0|0:0,0:0:0:0:
231,134,214472,1,8,0:0:0:0:
291,70,214833,5,4,0:2:0:0:
437,167,215556,2,0,P|464:241|450:318,1,160,8|0,0:1|0:0,0:0:0:0:
274,333,217002,2,0,L|194:330,1,80,8|2,0:0|0:0,0:0:0:0:
105,326,217725,5,8,0:0:0:0:
36,163,218448,2,0,P|110:146|213:189,1,160,8|8,0:1|0:0,0:0:0:0:
345,250,219893,2,0,P|352:174|344:147,1,80,8|8,0:0|0:0,0:0:0:0:
314,91,220616,5,4,0:2:0:0:
139,111,221339,2,0,P|132:187|140:214,1,80,8|2,0:0|0:0,0:0:0:0:
190,255,222062,1,8,0:0:0:0:
342,343,222785,2,0,L|339:247,1,80,8|2,0:0|0:0,0:0:0:0:
408,207,223508,6,0,P|386:152|412:53,1,160,8|8,0:0|0:0,0:0:0:0:
232,55,224954,2,0,P|177:77|78:51,1,160,4|4,0:0|0:0,0:0:0:0:
29,221,226399,5,4,0:2:0:0:
