osu file format v14

[General]
AudioFilename: audio.mp3
AudioLeadIn: 0
PreviewTime: 69171
Countdown: 0
SampleSet: None
StackLeniency: 0.7
Mode: 0
LetterboxInBreaks: 0
WidescreenStoryboard: 0

[Editor]
Bookmarks: 12424,49562,49653,49743,49833,49924,52273,52364,52454,52544,52635,52725,52815,55165,55255,55345,55436,55526,55617,55707,93388,103508,185918,206520
DistanceSpacing: 1.6
BeatDivisor: 8
GridSize: 8
TimelineZoom: 2.2

[Metadata]
Title:Boy In Luv
TitleUnicode:상남자
Artist:BTS
ArtistUnicode:방탄소년단
Creator:Lilyanna
Version:Bakari's Insane
Source:
Tags:Bighit Entertainment SKOOL LUV AFFAIR 랩몬스터 슈가 진 제이홉 지민 뷔 정국 Rap Monster Suga Jin J-Hope Jimin V Jungkook K-pop Kpop Firetruck Bangtan Boys Sonyeondan Bulletproof Boy Scouts Bakari Euny
BeatmapID:1289155
BeatmapSetID:529064

[Difficulty]
HPDrainRate:5
CircleSize:4
OverallDifficulty:7
ApproachRate:8
SliderMultiplier:2.65
SliderTickRate:2

[Events]
//Background and Video events
Video,-580,"[MV] BTS.avi"
0,0,"1ifuseethisthenhotyoongi.jpg",0,0
//Break Periods
2,174351,185168
//Storyboard Layer 0 (Background)
//Storyboard Layer 1 (Fail)
//Storyboard Layer 2 (Pass)
//Storyboard Layer 3 (Foreground)
//Storyboard Sound Samples

[TimingPoints]
858,722.89156626506,4,3,78,55,1,0
858,-133.333333333333,4,3,78,55,0,0
12424,-100,4,3,78,65,0,0
12604,-100,4,3,78,5,0,0
12785,-100,4,3,78,65,0,0
23990,-76.9230769230769,4,3,78,65,0,0
24351,-100,4,3,78,65,0,0
29773,-76.9230769230769,4,3,78,65,0,0
30135,-100,4,3,78,65,0,0
32665,-76.9230769230769,4,3,78,65,0,0
33026,-100,4,3,78,65,0,0
46761,-133.333333333333,4,3,78,65,0,0
47123,-100,4,3,78,65,0,0
47484,-100,4,3,78,65,0,0
49653,-133.333333333333,4,3,78,65,0,0
50014,-100,4,3,78,65,0,0
52544,-133.333333333333,4,3,78,65,0,0
52906,-100,4,3,78,65,0,0
55436,-133.333333333333,4,3,78,65,0,0
55797,-100,4,3,78,65,0,0
58689,-133.333333333333,4,3,78,65,0,0
66098,-133.333333333333,4,3,78,65,0,0
69171,-100,4,3,78,65,0,0
70255,-100,4,3,78,70,0,1
81821,-100,4,3,78,70,0,1
83990,-100,4,3,78,70,0,1
84713,-100,4,3,78,70,0,1
93388,-100,4,3,78,55,0,0
111641,-100,4,3,78,5,0,0
111821,-100,4,3,78,55,0,0
116159,-133.333333333333,4,3,78,55,0,0
116520,-100,4,3,78,55,0,0
118237,-100,4,3,78,5,0,0
118327,-100,4,3,78,55,0,0
118598,-100,4,3,78,5,0,0
118689,-100,4,3,78,55,0,0
119231,-100,4,3,78,5,0,0
119412,-100,4,3,78,55,0,0
121219,-100,4,3,78,55,0,0
121580,-100,4,3,78,55,0,0
121671,-100,4,3,78,5,0,0
122303,-100,4,3,78,55,0,0
123207,-100,4,3,78,5,0,0
123749,-100,4,3,78,55,0,0
127725,-90.9090909090909,4,3,78,70,0,0
128086,-100,4,3,78,70,0,0
130255,-125,4,3,78,55,0,0
130978,-100,4,3,78,55,0,0
133147,-125,4,3,78,55,0,0
133237,-125,4,3,78,5,0,0
133327,-125,4,3,78,55,0,0
133689,-125,4,3,78,5,0,0
133870,-100,4,3,78,55,0,0
136038,-125,4,3,78,55,0,0
136129,-125,4,3,78,5,0,0
136219,-125,4,3,78,55,0,0
136580,-125,4,3,78,5,0,0
136761,-100,4,3,78,55,0,0
139653,-133.333333333333,4,3,78,55,0,0
147062,-133.333333333333,4,3,78,55,0,0
150496,-100,4,3,78,55,0,0
151219,-100,4,3,78,70,0,1
174351,-133.333333333333,4,3,78,70,0,0
184472,-133.333333333333,4,3,78,55,0,0
195767,-133.333333333333,4,3,78,5,0,0
196038,-133.333333333333,4,3,78,55,0,0
201821,-100,4,3,78,55,0,0
203267,-100,4,3,78,70,0,1
225677,-166.666666666667,4,3,78,70,0,1
226400,-100,4,3,78,70,0,0
228568,-100,4,3,78,5,0,0

[Colours]
Combo1 : 176,176,176
Combo2 : 151,253,240
Combo3 : 238,123,132
Combo4 : 122,122,180

[HitObjects]
120,296,858,5,2,0:0:0:0:
176,128,1219,2,0,L|168:72,2,49.6875018954278,2|2|8,0:0|0:0|0:0,0:0:0:0:
320,240,1942,2,0,L|311:172,2,49.6875018954278,2|0|0,0:0|0:0|0:0,0:0:0:0:
464,352,2665,2,0,L|455:284,2,49.6875018954278,2|0|8,0:0|0:0|0:0,0:0:0:0:
288,344,3388,5,0,0:0:0:0:
320,264,3568,1,2,0:0:0:0:
400,224,3749,1,2,0:0:0:0:
296,80,4111,6,0,P|290:115|289:141,1,49.6875018954278,0|0,0:0|0:0,0:0:0:0:
128,200,4653,2,0,P|148:228|166:248,2,49.6875018954278,0|2|0,0:0|0:0|0:0,0:0:0:0:
112,112,5195,1,0,0:0:0:0:
296,80,5556,2,0,P|281:94|247:116,2,49.6875018954278,2|0|8,0:0|0:0|0:0,0:0:0:0:
472,112,6279,6,0,P|440:88|424:72,1,49.6875018954278,0|8,0:0|0:0,0:0:0:0:
392,0,6641,1,2,0:0:0:0:
352,176,7002,2,0,L|356:231,2,49.6875018954278,0|2|8,0:0|0:0|0:0,0:0:0:0:
232,304,7725,2,0,L|236:369,2,49.6875018954278,2|0|0,0:0|0:0|0:0,0:0:0:0:
64,256,8448,2,0,L|67:321,2,49.6875018954278,2|0|8,0:0|0:0|0:0,0:0:0:0:
0,144,9171,1,0,0:0:0:0:
118,178,9532,5,8,0:0:0:0:
136,161,9894,2,0,L|126:99,1,49.6875018954278,0|8,0:0|0:0,0:0:0:0:
280,217,10436,2,0,L|269:164,1,49.6875018954278,0|8,0:0|0:0,0:0:0:0:
414,256,10978,1,0,0:0:0:0:
414,256,11339,1,8,0:0:0:0:
431,255,11701,6,0,P|436:214|401:261,1,149.062505686283,0|0,0:0|0:0,0:0:0:0:
412,280,12424,5,4,0:2:0:0:
504,136,12785,1,0,0:0:0:0:
412,280,13147,1,8,0:0:0:0:
320,128,13508,2,0,L|312:48,2,66.25,2|0|0,0:0|0:0|0:0,0:0:0:0:
208,264,14231,2,0,L|224:136,1,66.25,2|0,0:0|0:0,0:0:0:0:
184,112,14592,1,4,0:1:0:0:
312,232,14954,1,0,0:0:0:0:
474,67,15315,6,0,P|496:136|504:231,1,132.5,4|0,0:1|0:0,0:0:0:0:
472,280,15857,1,0,0:0:0:0:
424,208,16038,1,8,0:0:0:0:
280,368,16400,2,0,P|248:361|198:357,1,66.25,2|0,0:0|0:0,0:0:0:0:
160,253,16761,2,0,P|222:234|300:240,1,132.5,0|2,0:0|0:0,0:0:0:0:
407,289,17303,1,0,0:0:0:0:
396,308,17484,2,0,P|362:303|301:278,1,66.25,4|2,0:1|0:0,0:0:0:0:
418,184,17845,2,0,P|474:193|509:207,1,66.25,0|0,0:0|0:0,0:0:0:0:
288,75,18207,5,4,0:1:0:0:
354,274,18568,1,0,0:0:0:0:
288,212,18749,1,0,0:0:0:0:
346,135,18930,1,8,0:0:0:0:
256,307,19291,1,2,0:0:0:0:
192,243,19472,1,0,0:0:0:0:
204,157,19653,1,0,0:0:0:0:
144,321,20014,2,0,P|128:341|93:366,1,66.25,2|0,0:0|0:0,0:0:0:0:
9,235,20376,2,0,P|75:232|146:250,1,132.5,4|0,0:1|0:0,0:0:0:0:
224,311,20918,1,0,0:0:0:0:
289,196,21098,5,4,0:0:0:0:
302,211,21460,2,0,L|311:277,2,66.25,0|0|8,0:0|0:0|0:0,0:0:0:0:
286,119,22002,1,0,0:0:0:0:
403,59,22183,2,0,L|406:10,2,33.125,8|0|0,0:0|0:0|0:0,0:0:0:0:
301,202,22544,5,4,0:3:0:0:
380,243,22725,1,2,0:3:0:0:
289,205,22906,1,2,0:3:0:0:
411,175,23086,1,2,0:3:0:0:
277,216,23267,1,4,0:3:0:0:
413,101,23448,1,2,0:3:0:0:
265,224,23629,2,0,L|227:221,2,33.125,2|0|0,0:3|0:0|0:0,0:0:0:0:
387,22,23990,6,0,P|322:43|217:28,1,172.249992115021,4|0,0:0|0:0,0:0:0:0:
220,29,24532,1,2,0:0:0:0:
139,131,24713,2,0,P|147:91|147:52,1,66.25,8|0,0:0|0:0,0:0:0:0:
267,164,25074,2,0,P|236:119|207:94,2,66.25,2|2|0,0:0|0:0|0:0,0:0:0:0:
215,276,25617,1,2,0:0:0:0:
368,208,25797,1,2,0:0:0:0:
201,290,26159,6,0,L|187:216,1,66.25,8|0,0:0|0:0,0:0:0:0:
297,161,26520,2,0,L|295:241,1,66.25,2|0,0:0|0:0,0:0:0:0:
389,278,26882,5,4,0:0:0:0:
382,278,27243,2,0,L|435:221,1,66.25,0|2,0:0|0:0,0:0:0:0:
378,357,27604,1,8,0:0:0:0:
136,336,27966,2,0,P|176:344|208:368,1,66.25,2|0,0:0|0:0,0:0:0:0:
60,366,28327,1,2,0:1:0:0:
98,245,28508,1,2,0:1:0:0:
51,368,28689,1,2,0:1:0:0:
302,306,29050,6,0,P|255:275|152:259,1,132.5,2|2,0:1|0:1,0:0:0:0:
95,319,29592,1,2,0:1:0:0:
48,232,29773,2,0,L|65:43,1,172.249992115021,4|0,0:0|0:0,0:0:0:0:
63,60,30315,1,2,0:0:0:0:
145,190,30496,2,0,L|151:119,1,66.25,8|0,0:0|0:0,0:0:0:0:
71,241,30857,1,2,0:0:0:0:
53,42,31038,1,2,0:0:0:0:
300,213,31400,6,0,L|289:290,2,66.25,2|2|0,0:0|0:0|0:0,0:0:0:0:
382,90,31942,2,0,P|404:136|503:180,1,132.5,8|2,0:0|0:0,0:0:0:0:
447,36,32484,1,0,0:0:0:0:
281,111,32665,6,0,P|211:110|118:40,1,172.249992115021,4|0,0:0|0:0,0:0:0:0:
266,38,33207,5,8,0:0:0:0:
196,151,33388,2,0,L|206:237,1,66.25,8|0,0:0|0:0,0:0:0:0:
171,121,33749,2,0,L|177:214,1,66.25,8|0,0:0|0:0,0:0:0:0:
142,366,34291,1,8,0:0:0:0:
48,336,34472,1,8,0:0:0:0:
280,353,34833,2,0,L|275:306,3,33.125,2|2|2|2,0:1|0:1|0:1|0:1,0:0:0:0:
309,281,35195,2,0,L|312:228,3,33.125,2|2|2|2,0:1|0:1|0:1|0:1,0:0:0:0:
280,208,35556,6,0,P|272:152|280:72,1,132.5,4|0,0:0|0:0,0:0:0:0:
364,153,36098,1,2,0:0:0:0:
199,223,36279,2,0,P|133:194|72:201,1,132.5,8|2,0:0|0:0,0:0:0:0:
151,303,36821,1,2,0:0:0:0:
229,234,37002,1,0,0:0:0:0:
325,287,37183,2,0,L|333:370,1,66.25,2|2,0:0|0:0,0:0:0:0:
296,272,37544,1,0,0:0:0:0:
371,158,37725,2,0,L|359:253,1,66.25,8|0,0:0|0:0,0:0:0:0:
460,73,38086,2,0,L|437:146,1,66.25,0|0,0:0|0:0,0:0:0:0:
512,13,38448,5,4,0:0:0:0:
443,61,38629,1,0,0:0:0:0:
355,53,38809,1,0,0:0:0:0:
280,8,38990,1,2,0:0:0:0:
380,25,39171,2,0,L|391:180,1,132.5,8|2,0:0|0:0,0:0:0:0:
493,241,39713,1,2,0:0:0:0:
381,150,39894,6,0,P|364:185|353:240,1,66.25,0|0,0:0|0:0,0:0:0:0:
304,288,40255,2,0,P|275:259|240:240,1,66.25,0|0,0:0|0:0,0:0:0:0:
81,271,40617,2,0,P|71:304|72:341,1,66.25
156,204,40978,1,2,0:0:0:0:
169,296,41159,1,2,0:1:0:0:
27,212,41339,6,0,L|38:132,1,66.25,4|0,0:0|0:0,0:0:0:0:
123,75,41701,2,0,L|111:164,1,66.25,0|2,0:0|0:0,0:0:0:0:
58,15,42062,1,10,0:0:0:0:
257,110,42424,2,0,P|260:79|253:32,1,66.25,2|2,0:0|0:0,0:0:0:0:
318,181,42785,2,0,P|361:188|398:181,1,66.25,0|2,0:0|0:0,0:0:0:0:
234,214,43147,1,2,0:0:0:0:
223,221,43508,2,0,P|202:294|233:367,1,132.5,8|2,0:0|0:0,0:0:0:0:
340,366,44050,1,2,0:0:0:0:
320,262,44231,5,0,0:0:0:0:
120,344,44592,2,0,L|129:274,1,66.25,2|2,0:0|0:0,0:0:0:0:
70,173,44954,1,8,0:0:0:0:
305,184,45315,2,0,L|314:104,1,66.25,10|10,0:0|0:0,0:0:0:0:
271,14,45677,1,0,0:0:0:0:
313,112,45857,1,10,0:0:0:0:
260,8,46038,1,10,0:0:0:0:
317,106,46219,1,0,0:0:0:0:
192,115,46400,2,0,B|208:178|208:178|271:222|271:222|284:289,1,198.75,2|2,0:1|0:1,0:0:0:0:
182,286,47123,5,4,0:2:0:0:
290,127,47484,1,2,0:0:0:0:
248,40,47665,1,2,0:0:0:0:
192,115,47845,2,0,L|112:104,2,66.25,8|0|2,0:0|0:0|0:0,0:0:0:0:
322,127,48388,1,2,0:0:0:0:
250,21,48568,5,2,0:1:0:0:
169,125,48749,1,2,0:1:0:0:
333,140,48930,1,2,0:1:0:0:
250,8,49111,1,2,0:1:0:0:
259,225,49291,6,0,L|248:82,1,132.5,2|0,0:1|0:0,0:0:0:0:
169,317,50014,6,0,P|263:308|303:330,1,132.5,4|0,0:0|0:0,0:0:0:0:
361,375,50556,1,0,0:0:0:0:
400,296,50737,2,0,L|404:203,1,66.25,8|0,0:0|0:0,0:0:0:0:
486,202,51098,2,0,L|482:283,1,66.25,2|2,0:0|0:0,0:0:0:0:
424,129,51460,1,0,0:0:0:0:
439,116,51641,2,0,L|433:45,2,66.25,0|0|0,0:0|0:0|0:0,0:0:0:0:
355,172,52183,2,0,P|302:155|225:180,1,132.5
177,50,52906,6,0,P|105:71|34:42,1,132.5,4|0,0:2|0:0,0:0:0:0:
21,158,53448,1,0,0:0:0:0:
56,248,53629,1,8,0:0:0:0:
68,241,53809,2,0,L|64:318,2,66.25,0|2|2,0:0|0:0|0:0,0:0:0:0:
144,208,54351,5,0,0:0:0:0:
152,219,54532,2,0,L|147:292,2,66.25,0|0|0,0:0|0:0|0:0,0:0:0:0:
160,232,55074,2,0,L|308:229,1,132.5
14,239,55797,6,0,P|25:310|82:363,1,132.5,4|0,0:0|0:0,0:0:0:0:
152,320,56339,1,0,0:0:0:0:
269,371,56520,2,0,L|360:364,2,66.25,8|0|2,0:0|0:0|0:0,0:0:0:0:
232,288,57062,1,2,0:0:0:0:
288,216,57243,1,4,0:0:0:0:
376,184,57424,1,2,0:0:0:0:
464,216,57604,2,0,P|472:248|472:296,1,66.25,2|2,0:0|0:0,0:0:0:0:
449,125,57966,6,0,L|456:56,1,66.25,2|2,0:1|0:1,0:0:0:0:
362,14,58327,2,0,L|369:102,1,66.25,2|2,0:1|0:1,0:0:0:0:
302,153,58689,6,0,P|236:156|192:128,1,99.3750037908555,4|4,0:0|0:0,0:0:0:0:
168,67,59231,1,2,0:0:0:0:
172,77,59412,1,4,0:0:0:0:
136,240,59773,1,4,0:0:0:0:
8,128,60135,2,0,P|74:125|118:153,1,99.3750037908555,0|2,0:0|0:0,0:0:0:0:
185,295,60857,1,4,0:0:0:0:
192,280,61038,1,0,0:0:0:0:
199,264,61219,1,4,0:0:0:0:
360,150,61580,6,0,P|376:216|336:296,1,149.062505686283,4|4,0:0|0:0,0:0:0:0:
264,320,62303,1,2,0:0:0:0:
272,240,62484,1,0,0:0:0:0:
344,287,62665,1,4,0:0:0:0:
192,352,63026,1,0,0:0:0:0:
216,184,63388,6,0,P|208:144|192:112,1,49.6875018954278,2|0,0:0|0:0,0:0:0:0:
128,96,63749,1,4,0:0:0:0:
120,184,63930,1,0,0:0:0:0:
168,256,64111,1,4,0:0:0:0:
256,264,64291,1,0,0:0:0:0:
353,196,64472,6,0,P|430:180|485:256,1,149.062505686283,4|2,0:0|0:0,0:0:0:0:
353,196,65195,2,0,P|431:194|471:280,1,149.062505686283,4|8,0:0|0:0,0:0:0:0:
393,267,65918,1,0,0:0:0:0:
312,272,66098,2,0,L|304:336,2,49.6875018954278,8|8|2,0:0|0:0|0:0,0:0:0:0:
248,224,66641,1,8,0:0:0:0:
120,336,67002,1,8,0:0:0:0:
159,196,67364,6,0,P|82:180|27:256,1,149.062505686283,4|2,0:0|0:0,0:0:0:0:
159,196,68087,2,0,P|80:194|40:280,1,149.062505686283,4|2,0:0|0:0,0:0:0:0:
86,373,68809,1,4,0:0:0:0:
120,269,68990,1,4,0:0:0:0:
35,224,69171,6,0,P|34:191|43:144,1,66.25,4|0,0:0|0:0,0:0:0:0:
106,60,70255,5,4,0:2:0:0:
272,232,70617,2,0,P|280:200|280:152,1,66.25,0|2,0:0|0:0,0:0:0:0:
196,291,70978,1,8,0:0:0:0:
189,276,71339,2,0,B|264:284|264:284|316:249|316:249|390:255,1,198.75,2|2,0:0|0:0,0:0:0:0:
470,366,72062,1,2,0:0:0:0:
436,135,72424,5,8,0:0:0:0:
393,269,72604,1,2,0:0:0:0:
446,145,72785,1,2,0:0:0:0:
383,259,72966,1,0,0:0:0:0:
161,248,73147,6,0,P|121:182|117:89,1,132.5,2|0,0:0|0:0,0:0:0:0:
216,192,73689,1,0,0:0:0:0:
137,333,73870,2,0,P|101:315|69:305,1,66.25,8|2,0:0|0:0,0:0:0:0:
274,285,74231,2,0,P|238:288|187:308,1,66.25,2|2,0:0|0:0,0:0:0:0:
384,324,74592,2,0,P|361:264|369:180,1,132.5,8|2,0:0|0:0,0:0:0:0:
491,247,75135,1,0,0:0:0:0:
381,357,75315,2,0,P|361:331|342:294,1,66.25,8|2,0:0|0:0,0:0:0:0:
240,240,75677,2,0,P|223:283|198:319,1,66.25,8|8,0:0|0:0,0:0:0:0:
20,349,76038,6,0,P|25:292|8:184,1,132.5,4|2,0:2|0:0,0:0:0:0:
40,104,76580,1,2,0:0:0:0:
29,227,76761,1,8,0:0:0:0:
113,46,76942,1,2,0:0:0:0:
119,168,77123,1,2,0:0:0:0:
128,51,77303,1,8,0:0:0:0:
129,178,77484,2,0,P|113:252|109:323,1,132.5,8|2,0:0|0:0,0:0:0:0:
200,224,78026,1,2,0:0:0:0:
49,143,78207,2,0,L|56:65,1,66.25,8|2,0:0|0:0,0:0:0:0:
180,14,78568,2,0,L|189:79,1,66.25,2|2,0:0|0:0,0:0:0:0:
308,179,78930,5,2,0:0:0:0:
490,14,79291,2,0,P|488:48|472:96,1,66.25,2|2,0:0|0:0,0:0:0:0:
303,168,79653,1,8,0:0:0:0:
360,64,79833,1,0,0:0:0:0:
436,188,80014,1,8,0:0:0:0:
431,208,80104,1,2,0:1:0:0:
426,230,80195,1,8,0:0:0:0:
408,116,80376,5,4,0:0:0:0:
498,247,80556,1,2,0:0:0:0:
351,298,80737,1,2,0:0:0:0:
403,94,80918,1,2,0:0:0:0:
512,266,81098,1,4,0:0:0:0:
338,318,81279,1,2,0:0:0:0:
436,188,81460,1,8,0:0:0:0:
431,208,81550,1,2,0:1:0:0:
426,230,81641,1,8,0:0:0:0:
420,250,81731,1,0,0:0:0:0:
416,270,81821,5,4,0:2:0:0:
512,64,82183,1,0,0:0:0:0:
400,96,82364,1,2,0:0:0:0:
246,32,82544,1,8,0:0:0:0:
281,146,82725,1,0,0:0:0:0:
248,48,82906,1,2,0:0:0:0:
100,131,83086,2,0,P|102:103|118:43,1,66.25,8|0,0:0|0:0,0:0:0:0:
203,192,83448,2,0,P|215:230|214:275,2,66.25,2|2|0,0:0|0:0|0:0,0:0:0:0:
16,340,83990,1,8,0:0:0:0:
120,280,84171,1,2,0:0:0:0:
232,304,84351,1,2,0:0:0:0:
312,384,84532,1,0,0:0:0:0:
370,234,84713,6,0,P|431:215|507:231,1,132.5,8|2,0:0|0:0,0:0:0:0:
353,308,85255,1,2,0:0:0:0:
394,138,85436,2,0,P|331:151|243:122,1,132.5,8|2,0:0|0:0,0:0:0:0:
184,30,85978,1,2,0:0:0:0:
145,199,86159,2,0,L|156:115,1,66.25,8|2,0:0|0:0,0:0:0:0:
62,288,86520,2,0,L|45:204,1,66.25,2|0,0:0|0:0,0:0:0:0:
243,203,86882,1,8,0:0:0:0:
208,328,87062,1,2,0:0:0:0:
258,209,87243,1,8,0:0:0:0:
200,320,87424,1,8,0:0:0:0:
397,299,87604,6,0,P|357:290|253:286,1,132.5,4|2,0:2|0:0,0:0:0:0:
122,363,88147,1,2,0:0:0:0:
273,292,88327,1,8,0:0:0:0:
77,250,88508,5,2,0:0:0:0:
183,320,88689,1,2,0:0:0:0:
73,261,88870,1,8,0:0:0:0:
193,315,89050,2,0,P|199:263|197:177,1,132.5,8|2,0:0|0:0,0:0:0:0:
157,61,89592,1,2,0:0:0:0:
219,186,89773,2,0,P|227:141|228:98,1,66.25,8|2,0:0|0:0,0:0:0:0:
110,241,90135,2,0,P|114:288|127:321,1,66.25,2|2,0:0|0:0,0:0:0:0:
307,365,90496,5,8,0:0:0:0:
37,372,90857,1,2,0:0:0:0:
123,286,91038,1,2,0:0:0:0:
29,149,91219,2,0,P|17:220|17:287,1,132.5,8|8,0:0|0:0,0:0:0:0:
104,200,91761,1,8,0:0:0:0:
24,112,91942,1,4,0:0:0:0:
144,128,92123,1,2,0:0:0:0:
264,128,92303,1,2,0:0:0:0:
376,96,92484,1,2,0:0:0:0:
448,0,92665,1,4,0:0:0:0:
444,12,93026,2,0,L|455:96,1,66.25,2|2,0:1|0:1,0:0:0:0:
416,205,93388,6,0,P|470:156|498:209,1,132.5,4|0,0:0|0:0,0:0:0:0:
369,272,93930,1,0,0:0:0:0:
264,196,94111,2,0,L|346:201,1,66.25,8|0,0:0|0:0,0:0:0:0:
175,210,94472,2,0,L|257:215,1,66.25,2|0,0:0|0:0,0:0:0:0:
134,240,94833,1,0,0:0:0:0:
11,175,95014,1,2,0:0:0:0:
120,265,95195,1,2,0:0:0:0:
139,123,95376,1,0,0:0:0:0:
11,268,95556,1,4,0:1:0:0:
337,173,95918,1,0,0:0:0:0:
18,258,96279,6,0,P|29:193|23:92,1,132.5,4|0,0:1|0:0,0:0:0:0:
13,17,96821,1,0,0:0:0:0:
20,145,97002,1,8,0:0:0:0:
22,11,97183,1,0,0:0:0:0:
14,157,97364,2,0,L|10:85,1,66.25,2|0,0:0|0:0,0:0:0:0:
93,222,97725,2,0,L|83:310,1,66.25,0|2,0:0|0:0,0:0:0:0:
177,152,98086,1,2,0:0:0:0:
318,96,98267,1,0,0:0:0:0:
469,121,98448,2,0,P|492:144|525:192,1,66.25,4|2,0:1|0:0,0:0:0:0:
381,304,98809,2,0,P|383:284|408:229,1,66.25,0|0,0:0|0:0,0:0:0:0:
252,99,99171,6,0,P|287:164|293:245,1,132.5,4|0,0:1|0:0,0:0:0:0:
216,327,99713,1,0,0:0:0:0:
95,189,99894,2,0,P|140:180|180:183,1,66.25,8|0,0:0|0:0,0:0:0:0:
283,230,100255,2,0,P|238:239|198:236,1,66.25,2|0,0:0|0:0,0:0:0:0:
112,103,100617,1,0,0:0:0:0:
118,94,100978,5,2,0:0:0:0:
77,243,101159,1,0,0:0:0:0:
118,79,101339,2,0,L|113:7,1,66.25,4|0,0:1|0:0,0:0:0:0:
82,231,101701,2,0,L|77:158,1,66.25,4|0,0:1|0:0,0:0:0:0:
161,314,102062,6,0,P|200:283|290:274,1,132.5,4|0,0:0|0:0,0:0:0:0:
404,367,102604,1,0,0:0:0:0:
312,173,102785,1,8,0:0:0:0:
324,160,103147,2,0,L|327:111,3,33.125,0|0|8|0,3:0|3:0|3:0|0:0,0:0:0:0:
352,96,103508,5,4,0:3:0:0:
376,128,103598,1,0,0:0:0:0:
416,152,103689,1,2,0:3:0:0:
456,160,103779,1,0,0:0:0:0:
496,144,103870,1,2,0:3:0:0:
450,55,104050,1,2,0:3:0:0:
355,216,104231,2,0,P|347:241|333:303,1,66.25,4|2,0:3|0:3,0:0:0:0:
237,169,104592,2,0,P|225:138|217:87,1,66.25,2|0,0:3|0:0,0:0:0:0:
115,299,104954,5,4,0:2:0:0:
115,299,105315,1,0,0:0:0:0:
193,358,105496,1,0,0:0:0:0:
150,224,105677,1,8,0:0:0:0:
65,369,106038,6,0,L|-4:378,1,66.25,2|2,0:0|0:0,0:0:0:0:
72,354,106400,1,0,0:0:0:0:
231,301,106761,1,2,0:0:0:0:
149,177,106942,1,0,0:0:0:0:
149,177,107123,2,0,L|157:265,1,66.25,8|2,0:0|0:0,0:0:0:0:
151,161,107484,1,0,0:0:0:0:
80,208,107665,1,2,0:0:0:0:
20,143,107845,6,0,L|10:59,1,66.25,2|2,0:0|0:0,0:0:0:0:
173,256,108207,2,0,L|183:340,1,66.25,0|2,0:0|0:0,0:0:0:0:
181,250,108568,1,8,0:0:0:0:
264,240,108749,1,0,0:0:0:0:
336,288,108930,1,2,0:0:0:0:
368,368,109111,1,0,0:0:0:0:
354,276,109291,2,0,L|358:207,1,66.25,2|0,0:0|0:0,0:0:0:0:
424,160,109653,2,0,L|432:48,1,99.375,2|0,0:0|0:0,0:0:0:0:
387,46,110014,2,0,L|390:-14,2,33.125,8|0|0,0:0|0:0|0:0,0:0:0:0:
357,209,110376,1,2,0:1:0:0:
296,119,110556,1,0,0:0:0:0:
122,94,110737,6,0,P|82:119|29:221,1,132.5,2|0,0:0|0:0,0:0:0:0:
188,154,111279,1,2,0:0:0:0:
120,88,111460,1,8,0:0:0:0:
276,142,111821,1,2,0:0:0:0:
192,168,112002,1,0,0:0:0:0:
160,248,112183,2,0,P|160:280|168:328,2,66.25,0|2|2,0:0|0:0|0:0,0:0:0:0:
192,168,112725,1,0,0:0:0:0:
128,112,112906,1,8,0:0:0:0:
296,152,113267,1,0,0:0:0:0:
152,248,113629,6,0,P|152:305|195:278,1,132.5,10|0,0:0|0:0,0:0:0:0:
224,192,114171,1,10,0:0:0:0:
144,160,114351,1,10,0:0:0:0:
288,256,114713,1,10,0:0:0:0:
296,88,115074,1,10,0:0:0:0:
256,168,115255,1,10,0:0:0:0:
344,160,115436,1,10,0:0:0:0:
296,88,115617,1,10,0:0:0:0:
256,168,115797,1,2,0:1:0:0:
421,148,116159,1,2,0:1:0:0:
327,8,116520,6,0,P|336:80|336:152,1,132.5,4|0,0:2|0:0,0:0:0:0:
264,184,117062,1,2,0:0:0:0:
336,232,117243,2,0,P|384:208|424:200,1,66.25,8|2,0:0|0:0,0:0:0:0:
307,291,117604,2,0,P|319:260|336:232,1,66.25,2|8,0:0|0:0,0:0:0:0:
202,228,117966,5,4,0:1:0:0:
267,28,118327,1,4,0:1:0:0:
169,190,118689,2,0,P|213:156|228:210,1,132.5,4|0,0:1|0:0,0:0:0:0:
154,351,119412,6,0,P|112:368|154:306,1,198.75,4|2,0:0|0:0,0:0:0:0:
232,373,120135,2,0,P|275:368|327:372,1,66.25,8|0,0:0|0:0,0:0:0:0:
384,368,120496,2,0,P|408:368|472:360,1,66.25,2|0,0:0|0:0,0:0:0:0:
512,304,120857,5,2,0:2:0:0:
373,372,121219,1,2,0:2:0:0:
512,304,121580,2,0,P|512:232|504:168,1,132.5,2|0,0:2|0:0,0:0:0:0:
491,161,122303,6,0,L|496:80,1,66.25,4|0,0:2|0:0,0:0:0:0:
414,205,122665,1,2,0:0:0:0:
508,88,123026,2,0,L|512:22,1,66.25,2|0,0:2|0:0,0:0:0:0:
482,168,123749,6,0,L|487:102,1,66.25,2|2,0:0|0:0,0:0:0:0:
432,231,124111,1,2,0:0:0:0:
509,78,124472,2,0,L|512:10,1,66.25,2|0,0:2|0:0,0:0:0:0:
458,139,124833,1,0,0:0:0:0:
495,326,125195,5,6,0:2:0:0:
442,146,125556,2,0,L|451:240,1,66.25,2|2,0:2|0:0,0:0:0:0:
502,335,125918,1,8,0:0:0:0:
424,131,126279,2,0,L|431:208,1,66.25,2|2,0:0|0:0,0:0:0:0:
509,348,126641,5,2,0:2:0:0:
463,334,127002,1,2,0:2:0:0:
415,321,127364,1,2,0:2:0:0:
255,368,127725,6,0,L|356:352,1,72.8750022239686,2|0,0:2|0:0,0:0:0:0:
180,306,128086,6,0,P|116:338|2:353,1,132.5,6|2,0:2|0:2,0:0:0:0:
113,245,128629,1,2,0:0:0:0:
192,296,128809,2,0,L|272:312,1,66.25,8|0,0:0|0:0,0:0:0:0:
329,200,129171,2,0,L|274:208,2,33.125,2|0|8,0:0|0:0|0:0,0:0:0:0:
391,306,129532,1,0,0:0:0:0:
416,297,129713,1,2,0:0:0:0:
393,284,129894,1,2,0:0:0:0:
391,306,130255,6,0,P|413:327|394:284,1,159,2|0,0:2|0:0,0:0:0:0:
274,355,130978,6,0,P|227:354|140:366,1,132.5,4|0,0:0|0:0,0:0:0:0:
72,304,131520,1,2,0:0:0:0:
182,227,131701,2,0,L|186:148,1,66.25,8|0,0:0|0:0,0:0:0:0:
200,241,132062,2,0,L|191:176,1,66.25,2|8,0:0|0:0,0:0:0:0:
231,259,132424,2,0,L|202:189,1,66.25,0|8,0:0|0:0,0:0:0:0:
282,269,132785,1,2,0:0:0:0:
72,290,133147,6,0,P|40:277|80:328,1,159,2|0,0:2|0:0,0:0:0:0:
36,211,133870,6,0,P|11:270|67:263,1,132.5,4|0,0:2|0:0,0:0:0:0:
122,238,134412,1,2,0:0:0:0:
52,130,134592,2,0,P|8:180|69:200,1,132.5,8|2,0:0|0:0,0:0:0:0:
143,156,135135,2,0,L|133:76,1,66.25,8|0,0:0|0:0,0:0:0:0:
129,239,135496,1,8,0:0:0:0:
235,121,135677,1,0,0:0:0:0:
347,237,136038,6,0,P|374:265|362:206,1,159,0|0,0:0|0:0,0:0:0:0:
264,176,136761,6,0,P|256:248|280:312,1,132.5,0|0,0:0|0:0,0:0:0:0:
368,352,137303,1,0,0:0:0:0:
213,333,137484,2,0,L|285:320,1,66.25,0|0,0:0|0:0,0:0:0:0:
148,358,137845,2,0,L|212:345,1,66.25,0|0,0:0|0:0,0:0:0:0:
58,354,138207,1,0,0:0:0:0:
90,271,138388,1,0,0:0:0:0:
0,290,138568,1,0,0:0:0:0:
70,367,138749,1,0,0:0:0:0:
112,252,138930,5,2,0:1:0:0:
12,177,139111,1,0,0:0:0:0:
0,290,139291,1,0,0:0:0:0:
299,226,139653,5,4,0:0:0:0:
488,176,140376,2,0,L|479:281,1,99.3750037908555,4|4,0:0|0:0,0:0:0:0:
392,208,141098,2,0,L|384:328,1,99.3750037908555,0|2,0:0|0:0,0:0:0:0:
488,176,141821,1,4,0:0:0:0:
384,39,142183,1,4,0:0:0:0:
216,88,142544,6,0,P|256:120|336:144,1,99.3750037908555,4|0,0:0|0:0,0:0:0:0:
368,96,143086,1,4,0:0:0:0:
376,176,143267,2,0,L|384:256,1,49.6875018954278,2|0,0:0|0:0,0:0:0:0:
463,194,143629,2,0,L|456:136,1,49.6875018954278,4|2,0:0|0:0,0:0:0:0:
443,269,143990,2,0,L|434:374,1,99.3750037908555,0|2,0:0|0:0,0:0:0:0:
477,195,144713,1,4,0:0:0:0:
344,288,145074,1,4,0:0:0:0:
503,334,145436,6,0,P|464:288|408:264,1,99.3750037908555,4|8,0:0|0:0,0:0:0:0:
360,304,145978,1,2,0:0:0:0:
512,343,146159,6,0,P|473:297|417:273,1,99.3750037908555,4|8,0:0|0:0,0:0:0:0:
341,302,146701,1,8,0:0:0:0:
412,369,146882,1,2,0:0:0:0:
447,272,147062,1,8,0:0:0:0:
324,300,147243,1,8,0:0:0:0:
416,383,147424,1,2,0:0:0:0:
458,260,147604,2,0,P|462:226|455:195,1,49.6875018954278,8|2,0:0|0:0,0:0:0:0:
403,115,147966,2,0,P|372:94|340:83,1,49.6875018954278,8|2,0:0|0:0,0:0:0:0:
249,158,148327,6,0,P|233:209|322:226,1,149.062505686283,4|2,0:0|0:0,0:0:0:0:
249,158,149050,2,0,P|242:198|293:158,1,149.062505686283,4|2,0:0|0:0,0:0:0:0:
274,129,149773,5,4,0:0:0:0:
249,158,149954,1,4,0:0:0:0:
298,164,150135,1,4,0:0:0:0:
209,24,150496,5,0,0:0:0:0:
254,365,151219,5,4,0:2:0:0:
250,354,151580,6,0,L|260:278,1,66.25,0|2,0:0|0:0,0:0:0:0:
216,184,151942,1,8,0:0:0:0:
422,348,152303,2,0,P|446:312|459:277,1,66.25,2|8,0:0|0:0,0:0:0:0:
338,159,152665,2,0,P|338:212|388:300,1,132.5,0|2,0:0|0:0,0:0:0:0:
413,108,153207,1,2,0:0:0:0:
225,176,153388,2,0,P|182:130|169:108,1,66.25,8|2,0:0|0:0,0:0:0:0:
244,337,153749,2,0,P|265:302|271:253,1,66.25,2|0,0:0|0:0,0:0:0:0:
90,203,154111,6,0,P|61:274|73:329,1,132.5,2|0,0:0|0:0,0:0:0:0:
161,276,154653,1,0,0:0:0:0:
10,164,154833,2,0,P|23:121|24:81,1,66.25,8|2,0:0|0:0,0:0:0:0:
166,14,155195,2,0,P|166:50|174:96,1,66.25,2|2,0:0|0:0,0:0:0:0:
234,190,155556,1,8,0:0:0:0:
0,168,155918,1,2,0:0:0:0:
244,162,156279,1,8,0:0:0:0:
128,104,156460,1,2,0:0:0:0:
144,240,156641,1,8,0:0:0:0:
120,105,156821,1,8,0:0:0:0:
23,279,157002,6,0,P|68:257|153:253,1,132.5,4|2,0:2|0:0,0:0:0:0:
258,311,157544,1,2,0:0:0:0:
285,177,157725,1,8,0:0:0:0:
445,200,157906,5,2,0:0:0:0:
456,349,158086,1,2,0:0:0:0:
453,193,158267,1,8,0:0:0:0:
453,341,158448,2,0,P|399:350|316:348,1,132.5,8|2,0:0|0:0,0:0:0:0:
208,312,158990,1,2,0:0:0:0:
320,344,159171,1,8,0:0:0:0:
129,374,159351,2,0,L|36:362,1,66.25,2|2,0:0|0:0,0:0:0:0:
204,306,159713,1,2,0:0:0:0:
304,368,159894,5,2,0:0:0:0:
160,200,160255,1,2,0:0:0:0:
204,306,160436,1,2,0:0:0:0:
104,368,160617,1,8,0:0:0:0:
204,306,160797,1,0,0:0:0:0:
313,376,160978,2,0,L|275:368,2,33.125,8|2|8,0:0|0:1|0:0,0:0:0:0:
401,252,161339,6,0,P|438:274|469:309,1,66.25,4|2,0:0|0:0,0:0:0:0:
373,161,161701,2,0,P|364:112|364:83,1,66.25,2|2,0:0|0:0,0:0:0:0:
300,241,162062,1,4,0:0:0:0:
185,186,162243,1,2,0:0:0:0:
190,207,162333,1,0,0:0:0:0:
180,225,162424,1,8,0:0:0:0:
166,242,162514,1,2,0:1:0:0:
167,264,162604,1,8,0:0:0:0:
8,328,162785,6,0,P|2:281|4:254,1,66.25,4|0,0:2|0:0,0:0:0:0:
104,173,163147,1,0,0:0:0:0:
13,263,163327,1,2,0:0:0:0:
0,115,163508,1,8,0:0:0:0:
96,176,163689,1,0,0:0:0:0:
120,288,163870,1,2,0:0:0:0:
242,217,164050,2,0,P|280:229|312:256,1,66.25,8|0,0:0|0:0,0:0:0:0:
213,134,164412,2,0,P|204:97|202:47,2,66.25,2|2|0,0:0|0:0|0:0,0:0:0:0:
164,223,164954,1,8,0:0:0:0:
38,282,165135,1,2,0:0:0:0:
168,207,165315,1,2,0:0:0:0:
33,305,165496,1,0,0:0:0:0:
70,84,165677,6,0,P|76:145|83:239,1,132.5,8|2,0:0|0:0,0:0:0:0:
141,333,166219,1,2,0:0:0:0:
73,211,166400,2,0,L|68:296,1,66.25,8|2,0:0|0:0,0:0:0:0:
108,118,166761,2,0,L|103:202,1,66.25,2|2,0:0|0:0,0:0:0:0:
138,79,167123,1,8,0:0:0:0:
32,104,167303,1,2,0:0:0:0:
64,8,167484,1,2,0:0:0:0:
268,169,167845,2,0,P|249:227|189:293,1,132.5,8|8,0:0|0:0,0:0:0:0:
56,302,168388,1,8,0:0:0:0:
224,192,168568,6,0,L|358:213,1,132.5,4|2,0:2|0:0,0:0:0:0:
470,318,169111,1,2,0:0:0:0:
336,288,169291,1,8,0:0:0:0:
486,231,169472,5,2,0:0:0:0:
389,363,169653,1,2,0:0:0:0:
486,231,169833,1,8,0:0:0:0:
389,346,170014,2,0,P|397:297|389:212,1,132.5,8|2,0:0|0:0,0:0:0:0:
334,114,170556,1,2,0:0:0:0:
384,224,170737,1,8,0:0:0:0:
338,95,170918,1,2,0:0:0:0:
304,249,171098,1,2,0:0:0:0:
416,145,171279,1,2,0:0:0:0:
309,334,171460,5,8,0:0:0:0:
60,21,171821,1,2,0:0:0:0:
25,166,172002,1,2,0:0:0:0:
42,14,172183,2,0,P|40:51|47:96,1,66.25,8|2,0:0|0:0,0:0:0:0:
179,172,172544,2,0,L|184:135,2,33.125,8|2|8,0:0|0:0|0:0,0:0:0:0:
66,251,172906,2,0,P|51:289|41:344,1,66.25,4|2,0:0|0:0,0:0:0:0:
187,303,173267,2,0,P|196:329|221:372,1,66.25,2|2,0:0|0:0,0:0:0:0:
335,299,173629,1,4,0:0:0:0:
297,188,173809,1,2,0:0:0:0:
200,280,173990,1,2,0:1:0:0:
154,113,185918,6,0,P|146:57|224:109,1,198.750007581711,4|8,0:2|0:0,0:0:0:0:
209,165,186821,2,0,L|198:287,2,99.3750037908555,0|8|8,0:0|0:0|0:0,0:0:0:0:
262,110,187725,1,2,0:0:0:0:
124,216,188086,2,0,P|105:163|99:65,1,149.062505686283,8|2,0:0|0:0,0:0:0:0:
161,21,188809,6,0,P|174:70|174:121,2,99.3750037908555,2|2|8,0:0|0:0|0:0,0:0:0:0:
264,72,189894,2,0,P|288:56|320:24,1,49.6875018954278,2|0,0:1|0:0,0:0:0:0:
376,43,190255,2,0,P|418:69|478:81,2,99.3750037908555,2|2|8,0:1|0:0|0:0,0:0:0:0:
413,174,191339,5,2,0:1:0:0:
375,149,191520,1,8,0:0:0:0:
374,201,191701,2,0,P|396:259|403:356,1,149.062505686283,4|0,0:2|0:0,0:0:0:0:
393,361,192424,6,0,L|398:243,1,99.3750037908555,8|0,0:0|0:0,0:0:0:0:
413,174,193147,5,0,0:0:0:0:
375,149,193328,1,2,0:0:0:0:
374,201,193508,1,2,0:0:0:0:
410,375,193870,6,0,L|413:270,1,99.3750037908555,8|0,0:0|0:0,0:0:0:0:
256,192,194592,12,4,200376,0:2:0:0:
224,240,201821,5,0,0:0:0:0:
213,256,202183,2,0,L|210:325,1,66.25,0|0,0:0|0:0,0:0:0:0:
112,352,202544,2,0,L|104:272,2,66.25,4|0|0,0:2|0:0|0:0,0:0:0:0:
106,363,203267,6,0,L|122:210,1,132.5,8|0,0:1|0:0,0:0:0:0:
216,176,203809,1,2,0:0:0:0:
342,252,203990,2,0,P|305:293|209:314,1,132.5,8|2,0:0|0:0,0:0:0:0:
303,175,204532,1,8,0:0:0:0:
424,299,204713,2,0,P|436:255|431:210,1,66.25,0|2,0:0|0:0,0:0:0:0:
400,128,205074,1,2,0:0:0:0:
442,235,205255,1,2,0:0:0:0:
408,128,205436,1,2,0:0:0:0:
456,24,205617,1,8,0:0:0:0:
317,77,205797,2,0,P|295:57|264:16,1,66.25,2|0,0:0|0:0,0:0:0:0:
305,206,206159,6,0,P|275:223|158:224,1,132.5,2|0,0:0|0:0,0:0:0:0:
78,121,206701,1,0,0:0:0:0:
21,252,206882,2,0,L|13:171,1,66.25,8|2,0:0|0:0,0:0:0:0:
96,306,207243,2,0,L|104:230,1,66.25,2|2,0:0|0:0,0:0:0:0:
179,371,207604,2,0,P|206:350|245:330,1,66.25,8|2,0:0|0:0,0:0:0:0:
406,314,207966,2,0,P|378:333|326:348,1,66.25,2|0,0:0|0:0,0:0:0:0:
270,213,208327,2,0,P|278:161|270:70,1,132.5,8|8,0:0|0:0,0:0:0:0:
193,128,208870,1,8,0:0:0:0:
366,227,209050,6,0,L|376:373,1,132.5,4|2,0:2|0:0,0:0:0:0:
449,327,209592,1,2,0:0:0:0:
286,310,209773,2,0,P|260:335|237:381,1,66.25,8|2,0:0|0:0,0:0:0:0:
308,193,210135,2,0,P|281:157|243:132,1,66.25,2|8,0:0|0:0,0:0:0:0:
62,264,210496,2,0,P|118:282|210:270,1,132.5,8|2,0:0|0:0,0:0:0:0:
321,207,211038,1,2,0:0:0:0:
208,280,211219,1,8,0:0:0:0:
336,217,211400,1,2,0:0:0:0:
220,217,211580,2,0,P|220:256|231:308,1,66.25,2|2,0:0|0:0,0:0:0:0:
90,367,211942,6,0,P|103:330|111:276,1,66.25,2|0,0:0|0:0,0:0:0:0:
56,128,212303,1,2,0:0:0:0:
38,256,212484,1,2,0:0:0:0:
79,48,212665,1,8,0:0:0:0:
161,161,212845,1,0,0:0:0:0:
307,206,213026,1,8,0:0:0:0:
307,206,213117,1,2,0:1:0:0:
307,206,213207,1,8,0:0:0:0:
415,84,213388,6,0,P|420:117|418:150,1,66.25,4|2,0:0|0:0,0:0:0:0:
306,12,213749,1,2,0:0:0:0:
424,71,213930,1,2,0:0:0:0:
240,127,214111,2,0,L|151:117,1,66.25,4|2,0:0|0:0,0:0:0:0:
268,250,214472,1,8,0:0:0:0:
296,232,214562,1,2,0:1:0:0:
330,226,214652,1,8,0:0:0:0:
360,232,214742,1,0,0:0:0:0:
387,249,214833,5,4,0:2:0:0:
217,55,215195,1,0,0:0:0:0:
160,168,215376,1,0,0:0:0:0:
28,108,215556,2,0,P|12:76|-4:28,1,66.25,8|0,0:1|0:0,0:0:0:0:
66,267,215918,2,0,P|43:301|4:340,1,66.25,2|8,0:0|0:0,0:0:0:0:
153,170,216279,5,0,0:0:0:0:
272,136,216460,1,2,0:0:0:0:
384,192,216641,1,2,0:0:0:0:
408,312,216821,1,0,0:0:0:0:
375,98,217002,2,0,P|415:89|461:82,1,66.25,8|2,0:0|0:0,0:0:0:0:
305,275,217364,2,0,P|297:221|303:176,1,66.25,2|0,0:0|0:0,0:0:0:0:
483,364,217725,5,0,0:0:0:0:
129,230,218267,1,0,0:0:0:0:
9,350,218448,2,0,L|2:278,1,66.25,8|2,0:1|0:0,0:0:0:0:
57,159,218809,2,0,L|47:236,1,66.25,2|2,0:0|0:0,0:0:0:0:
17,85,219171,2,0,L|10:13,1,66.25,8|2,0:0|0:0,0:0:0:0:
69,149,219532,2,0,P|125:109|195:102,1,132.5,2|8,0:0|0:0,0:0:0:0:
288,192,220074,1,2,0:0:0:0:
206,102,220255,1,8,0:0:0:0:
270,207,220436,1,8,0:0:0:0:
86,41,220617,6,0,P|145:26|237:28,1,132.5,4|2,0:2|0:0,0:0:0:0:
317,111,221159,1,2,0:0:0:0:
371,16,221339,1,8,0:0:0:0:
474,125,221520,5,2,0:0:0:0:
464,0,221701,1,2,0:0:0:0:
455,147,221882,1,8,0:0:0:0:
481,285,222062,2,0,P|443:308|346:329,1,132.5,8|2,0:0|0:0,0:0:0:0:
248,280,222604,1,2,0:0:0:0:
352,352,222785,1,8,0:0:0:0:
267,265,222966,1,2,0:0:0:0:
150,347,223147,2,0,L|62:333,1,66.25,2|2,0:0|0:0,0:0:0:0:
288,248,223508,5,8,0:0:0:0:
358,364,223870,1,2,0:0:0:0:
369,281,224050,1,2,0:0:0:0:
281,330,224231,2,0,P|247:333|190:325,1,66.25,8|2,0:0|0:0,0:0:0:0:
160,216,224592,1,8,0:0:0:0:
160,216,224683,1,2,0:1:0:0:
160,216,224773,1,8,0:0:0:0:
72,347,224954,2,0,P|71:315|76:265,1,66.25,4|2,0:0|0:0,0:0:0:0:
19,136,225315,2,0,P|26:186|22:232,1,66.25,2|2,0:0|0:0,0:0:0:0:
82,54,225677,5,4,0:0:0:0:
182,18,225857,1,2,0:0:0:0:
286,60,226038,2,0,L|253:74,1,19.8749993934632,2|2,0:1|0:1,0:0:0:0:
357,110,226219,2,0,L|375:102,1,19.8749993934632,2|2,0:1|0:1,0:0:0:0:
256,192,226400,5,4,0:2:0:0:
256,192,226490,12,0,228568,2:0:0:0:
