osu file format v14

[General]
AudioFilename: audio.mp3
AudioLeadIn: 0
PreviewTime: 25342
Countdown: 0
SampleSet: Soft
StackLeniency: 0.7
Mode: 0
LetterboxInBreaks: 0
WidescreenStoryboard: 1

[Editor]
Bookmarks: 4536,36471,67439,88084,108729,129374,150020,170665,180987,191310
DistanceSpacing: 1.1
BeatDivisor: 4
GridSize: 32
TimelineZoom: 0.8999999

[Metadata]
Title:Blood Sweat & Tears
TitleUnicode:피 땀 눈물
Artist:BTS
ArtistUnicode:방탄소년단
Creator:[ M I N A K O ]
Version:Normal
Source:
Tags:curulean veyron kpop k-pop wings you never walk alone project full version rap monster suga jin jungkook v taehyung jimin jhope j-hope 랩몬스터 진 슈가 제이홉 지민 뷔 정국
BeatmapID:1351599
BeatmapSetID:637101

[Difficulty]
HPDrainRate:4
CircleSize:3.3
OverallDifficulty:3.5
ApproachRate:5
SliderMultiplier:1.8
SliderTickRate:1

[Events]
//Background and Video events
0,0,"BG.jpg",0,0
//Break Periods
2,67639,76562
2,129574,138497
2,170865,179787
//Storyboard Layer 0 (Background)
//Storyboard Layer 1 (Fail)
//Storyboard Layer 2 (Pass)
//Storyboard Layer 3 (Foreground)
//Storyboard Sound Samples

[TimingPoints]
5504,645.161290322581,4,2,1,80,1,0
23568,-100,4,3,0,80,0,0
24858,-100,4,2,1,80,0,0
26149,-100,4,2,2,80,0,1
35181,-100,4,3,0,80,0,1
36471,-100,4,2,1,80,0,0
85504,-100,4,3,0,80,0,0
86794,-100,4,2,0,80,0,0
88084,-100,4,2,2,80,0,1
97116,-100,4,3,0,80,0,1
98326,-100,4,2,1,80,0,0
98407,-100,4,2,2,80,0,1
107439,-100,4,3,0,80,0,1
108729,-100,4,2,1,80,0,0
113245,-100,4,2,1,20,0,0
113891,-100,4,2,1,80,0,0
147439,-100,4,3,0,80,0,0
148729,-100,4,2,1,80,0,0
150020,-100,4,2,2,80,0,1
159052,-100,4,3,0,80,0,1
160262,-100,4,2,1,80,0,0
160342,-100,4,2,2,80,0,1
169374,-100,4,3,0,80,0,1
170665,-100,4,2,1,80,0,0
180987,-100,4,2,1,80,0,0
188729,-100,4,3,1,80,0,0
190020,-100,4,2,1,80,0,0
191310,-100,4,2,2,80,0,1
200342,-100,4,3,0,80,0,1
201552,-100,4,2,1,80,0,0
201633,-100,4,2,2,80,0,1
210665,-100,4,3,0,80,0,1
211955,-100,4,2,1,80,0,0
214536,-100,4,2,1,5,0,0

[Colours]
Combo1 : 63,71,114
Combo2 : 253,215,225
Combo3 : 229,229,229
Combo4 : 254,240,194

[HitObjects]
256,192,987,12,0,4536,0:0:0:0:
175,88,5504,6,0,L|179:218,2,90,4|0|0,0:0|0:0|0:0,0:0:0:0:
244,33,6471,1,2,0:0:0:0:
303,97,6794,2,0,P|361:113|418:101,1,90,2|0,0:0|0:0,0:0:0:0:
424,102,7278,1,2,0:0:0:0:
464,182,7600,2,0,L|450:246,1,45
407,298,8084,2,0,P|361:317|296:307,2,90,2|0|0,0:0|0:0|0:0,0:0:0:0:
347,237,9052,2,0,P|296:238|255:263,1,90,0|2,0:0|0:0,0:0:0:0:
127,191,10020,1,0,0:0:0:0:
198,138,10342,1,0,0:0:0:0:
276,177,10665,6,0,B|365:157|366:203|468:171,1,180,2|0,0:0|0:0,0:0:0:0:
402,101,11633,1,0,0:0:0:0:
434,20,11955,2,0,L|523:10,2,90
283,52,13245,2,0,B|241:65|205:46|205:46|145:53|128:119,1,180,2|0,0:0|0:0,0:0:0:0:
105,188,14213,1,0,0:0:0:0:
140,268,14536,2,0,B|185:295|185:295|316:291,1,180,2|0,0:0|0:0,0:0:0:0:
386,242,15504,1,0,0:0:0:0:
386,242,15826,6,0,P|402:180|395:133,1,90,2|0,0:0|0:0,0:0:0:0:
350,82,16471,1,8,0:0:0:0:
277,131,16794,1,2,0:0:0:0:
277,131,17116,2,0,L|173:121,1,90,2|0,0:0|0:0,0:0:0:0:
101,105,17762,2,0,B|88:138|88:138|95:200,1,90,8|0,0:0|0:0,0:0:0:0:
135,269,18407,2,0,L|265:286,1,90,2|0,0:0|0:0,0:0:0:0:
305,246,19052,1,8,0:0:0:0:
377,295,19374,1,0,0:0:0:0:
377,295,19697,2,0,P|390:234|312:160,1,180,2|8,0:0|0:0,0:0:0:0:
238,112,20665,1,0,0:0:0:0:
171,168,20987,6,0,L|-27:183,1,180,8|8,0:0|0:0,0:0:0:0:
126,261,22278,2,0,L|324:246,1,180,8|8,0:0|0:0,0:0:0:0:
416,137,23568,2,0,P|414:84|397:45,1,90,8|0,0:0|0:0,0:0:0:0:
312,33,24213,2,0,P|258:49|204:40,1,90
177,25,24697,1,0,0:0:0:0:
177,25,24858,5,2,0:0:0:0:
83,227,25826,1,0,0:0:0:0:
83,227,26149,6,4,B|128:212|128:212|196:212,1,90,4|0,0:0|0:0,0:0:0:0:
223,223,26633,1,0,0:0:0:0:
271,241,26794,2,0,P|321:250|368:240,1,90,2|10,0:0|0:0,0:0:0:0:
415,172,27439,2,0,B|426:77|426:77|408:13,2,135,2|8|8,0:0|0:0|0:0,0:0:0:0:
341,124,28729,6,0,P|272:109|214:115,1,90
201,126,29213,1,0,0:0:0:0:
151,153,29374,2,0,P|98:157|50:140,1,90,2|10,0:0|0:0,0:0:0:0:
116,72,30020,2,0,B|163:71|203:23|203:23|246:37,2,135,2|8|8,0:0|0:0|0:0,0:0:0:0:
63,146,31310,6,0,L|43:252,1,90,4|0,0:0|0:0,0:0:0:0:
31,288,31794,1,0,0:0:0:0:
55,338,31955,2,0,P|128:331|170:344,1,90,2|10,0:0|0:0,0:0:0:0:
223,299,32600,2,0,B|263:289|263:289|363:291,2,135,2|8|8,0:0|0:0|0:0,0:0:0:0:
154,246,33891,2,0,B|148:216|148:216|163:131,1,90
217,91,34536,2,0,P|272:89|323:53,1,90,0|8,0:0|0:0,0:0:0:0:
381,33,35181,1,8,0:0:0:0:
381,33,35342,2,0,B|392:77|392:77|368:183,1,135,8|8,0:0|0:0,0:0:0:0:
336,244,36149,1,0,0:0:0:0:
336,244,36471,6,0,B|299:226|299:226|201:226|201:226|152:260,1,180,6|8,0:0|0:0,0:0:0:0:
105,311,37439,1,2,0:0:0:0:
77,228,37762,2,0,B|59:128|59:128|68:81,1,135,2|2,0:0|0:0,0:0:0:0:
91,49,38407,2,0,L|198:34,1,90,8|0,0:0|0:0,0:0:0:0:
252,89,39052,2,0,B|305:89|305:89|379:72|379:72|453:74,1,180,2|8,0:0|0:0,0:0:0:0:
387,154,40020,1,0,0:0:0:0:
326,216,40342,2,0,P|377:236|461:195,1,135,2|2,0:0|0:0,0:0:0:0:
473,171,40987,2,0,L|473:275,1,90,8|0,0:0|0:0,0:0:0:0:
413,324,41633,6,0,P|365:324|323:312,1,90,2|0,0:0|0:0,0:0:0:0:
265,249,42278,2,0,P|197:246|165:260,1,90,8|0,0:0|0:0,0:0:0:0:
111,309,42923,2,0,L|140:161,1,135,2|2,0:0|0:0,0:0:0:0:
149,126,43568,1,8,0:0:0:0:
228,160,43891,1,0,0:0:0:0:
297,108,44213,2,0,L|408:102,1,90,2|0,0:0|0:0,0:0:0:0:
448,166,44858,2,0,P|461:222|453:267,1,90,8|0,0:0|0:0,0:0:0:0:
408,325,45504,1,2,0:0:0:0:
272,243,46149,2,0,L|270:328,2,67.5,2|2|0,0:0|0:0|0:0,0:0:0:0:
273,182,46794,6,0,B|182:207|181:153|81:182,1,180,4|8,0:0|0:0,0:0:0:0:
139,257,47762,1,2,0:0:0:0:
209,321,48084,2,0,B|300:346|301:292|401:321,1,180,2|8,0:0|0:0,0:0:0:0:
475,347,49052,1,0,0:0:0:0:
495,257,49374,2,0,P|503:204|486:132,1,90
428,107,50020,1,8,0:0:0:0:
348,154,50342,1,0,0:0:0:0:
279,92,50665,2,0,P|213:93|148:197,1,180,2|0,0:0|0:0,0:0:0:0:
242,175,51633,1,0,0:0:0:0:
197,262,51955,6,0,B|166:291|166:291|64:291,1,135,2|0,0:0|0:0,0:0:0:0:
45,294,52600,2,0,P|60:224|52:185,1,90,8|0,0:0|0:0,0:0:0:0:
25,120,53245,2,0,P|72:107|210:122,1,180,0|8,0:0|0:0,0:0:0:0:
287,157,54213,1,0,0:0:0:0:
377,126,54536,2,0,B|402:96|402:96|404:217,1,135
408,229,55181,2,0,P|350:229|292:254,1,90,8|0,0:0|0:0,0:0:0:0:
252,302,55826,2,0,P|161:324|69:293,1,180,2|8,0:0|0:0,0:0:0:0:
43,213,56794,1,0,0:0:0:0:
43,213,57116,6,0,L|41:111,2,90,6|0|8,0:0|0:0|0:0,0:0:0:0:
133,188,58084,1,0,0:0:0:0:
211,133,58407,2,0,L|209:31,2,90,4|0|8,0:0|0:0|0:0,0:0:0:0:
281,193,59374,1,0,0:0:0:0:
346,120,59697,2,0,P|408:110|449:113,2,90,4|0|8,0:0|0:0|0:0,0:0:0:0:
398,200,60665,1,0,0:0:0:0:
357,284,60987,2,0,B|310:269|268:284|268:284|221:305|157:284,1,180,2|8,0:0|0:0,0:0:0:0:
217,203,61955,1,0,0:0:0:0:
141,142,62278,6,0,L|39:151,2,90,6|0|8,0:0|0:0|0:0,0:0:0:0:
192,60,63245,1,0,0:0:0:0:
277,100,63568,2,0,L|380:88,2,90,4|0|8,0:0|0:0|0:0,0:0:0:0:
336,177,64536,1,0,0:0:0:0:
264,235,64858,2,0,P|218:258|81:220,1,180,12|8,0:0|0:0,0:0:0:0:
185,181,65826,1,0,0:0:0:0:
185,181,66149,2,0,L|182:-7,1,180,2|2,0:0|0:0,0:0:0:0:
362,134,67439,5,6,0:0:0:0:
254,192,77762,6,0,P|244:252|248:288,1,90,6|0,0:0|0:0,0:0:0:0:
316,346,78407,1,8,0:0:0:0:
390,293,78729,1,2,0:0:0:0:
390,293,79052,2,0,P|398:220|385:165,1,90,2|0,0:0|0:0,0:0:0:0:
336,133,79697,2,0,P|334:80|354:35,1,90,8|0,0:0|0:0,0:0:0:0:
255,47,80342,2,0,L|155:40,1,90,2|0,0:0|0:0,0:0:0:0:
77,69,80987,1,8,0:0:0:0:
130,144,81310,1,2,0:0:0:0:
130,144,81633,2,0,B|178:136|218:168|218:168|258:136|322:152,1,180,2|8,0:0|0:0,0:0:0:0:
281,235,82600,1,0,0:0:0:0:
201,282,82923,6,0,L|5:266,1,180,2|8,0:0|0:0,0:0:0:0:
145,114,84213,2,0,L|341:130,1,180,2|8,0:0|0:0,0:0:0:0:
321,320,85504,6,0,P|373:329|420:316,1,90,4|0,0:0|0:0,0:0:0:0:
458,241,86149,2,0,P|443:179|471:121,1,90,8|0,0:0|0:0,0:0:0:0:
474,109,86633,1,0,0:0:0:0:
474,109,86794,1,2,0:0:0:0:
294,49,87439,2,0,L|235:49,1,45
224,73,87762,2,0,L|172:73,1,45
145,79,88084,6,0,P|158:157|154:199,1,90,4|0,0:0|0:0,0:0:0:0:
136,212,88568,1,0,0:0:0:0:
119,258,88729,2,0,L|144:345,1,90,2|8,0:0|0:0,0:0:0:0:
219,279,89374,2,0,P|295:295|357:268,2,135,0|10|2,0:0|0:0|0:0,0:0:0:0:
278,199,90665,2,0,L|280:99,1,90
257,64,91149,1,0,0:0:0:0:
208,52,91310,2,0,P|148:64|89:51,1,90,2|8,0:0|0:0,0:0:0:0:
46,128,91955,2,0,B|32:166|32:166|43:271,2,135,0|10|10,0:0|0:0|0:0,0:0:0:0:
131,178,93245,6,0,B|174:185|174:185|230:177,1,90,4|0,0:0|0:0,0:0:0:0:
263,154,93729,1,0,0:0:0:0:
312,155,93891,2,0,L|301:252,1,90,2|8,0:0|0:0,0:0:0:0:
389,198,94536,2,0,L|403:48,2,135,0|10|10,0:0|0:0|0:0,0:0:0:0:
382,296,95826,1,2,0:0:0:0:
382,296,95987,2,0,P|320:282|252:308,1,135,2|0,0:0|0:0,0:0:0:0:
210,329,96633,2,0,P|126:335|79:292,1,135,2|0,0:0|0:0,0:0:0:0:
77,257,97278,2,0,L|98:110,1,135,2|8,0:0|0:0,0:0:0:0:
178,67,98084,1,0,0:0:0:0:
248,136,98407,6,0,L|351:136,1,90,4|0,0:0|0:0,0:0:0:0:
387,136,98891,1,0,0:0:0:0:
429,160,99052,2,0,P|415:213|421:258,1,90,2|8,0:0|0:0,0:0:0:0:
436,344,99697,2,0,P|344:349|272:327,2,135,0|10|10,0:0|0:0|0:0,0:0:0:0:
372,267,100987,2,0,L|371:160,1,90
369,127,101471,1,0,0:0:0:0:
342,85,101633,2,0,P|276:83|237:95,1,90,2|8,0:0|0:0,0:0:0:0:
178,153,102278,2,0,P|125:163|37:140,2,135,0|10|10,0:0|0:0|0:0,0:0:0:0:
266,196,103568,6,0,B|253:224|253:224|259:302,1,90,4|0,0:0|0:0,0:0:0:0:
275,329,104052,1,0,0:0:0:0:
314,359,104213,2,0,P|368:360|406:352,1,90,2|8,0:0|0:0,0:0:0:0:
458,270,104858,2,0,P|459:178|451:120,2,135,0|10|10,0:0|0:0|0:0,0:0:0:0:
380,207,106149,1,2,0:0:0:0:
380,207,106310,2,0,L|221:206,1,135,2|0,0:0|0:0,0:0:0:0:
200,183,106955,2,0,P|145:197|55:175,1,135,2|8,0:0|0:0,0:0:0:0:
53,135,107600,2,0,L|57:288,1,135,8|0,0:0|0:0,0:0:0:0:
142,320,108407,1,0,0:0:0:0:
222,262,108729,6,0,P|270:248|415:268,1,180,6|8,0:0|0:0,0:0:0:0:
474,310,109697,1,0,0:0:0:0:
477,215,110020,2,0,L|488:99,1,90
423,54,110665,2,0,P|375:58|316:47,1,90,8|0,0:0|0:0,0:0:0:0:
248,17,111310,2,0,B|205:35|205:35|156:97|156:97|97:120,1,180,2|8,0:0|0:0,0:0:0:0:
41,186,112278,1,0,0:0:0:0:
123,232,112600,2,0,B|171:224|211:256|211:256|251:224|315:240,1,180,2|0,0:0|0:0,0:0:0:0:
291,235,113891,6,0,P|287:303|298:332,1,90,6|0,0:0|0:0,0:0:0:0:
377,274,114536,1,8,0:0:0:0:
360,184,114858,1,0,0:0:0:0:
428,122,115181,2,0,P|356:96|265:180,1,180,2|8,0:0|0:0,0:0:0:0:
232,235,116149,1,0,0:0:0:0:
167,169,116471,2,0,L|177:73,1,90,2|0,0:0|0:0,0:0:0:0:
84,107,117116,2,0,L|88:208,1,90,8|0,0:0|0:0,0:0:0:0:
125,280,117762,2,0,L|332:280,1,180,2|6,0:0|0:0,0:0:0:0:
381,226,118729,1,0,0:0:0:0:
316,160,119052,6,0,L|334:23,2,135,4|2|0,0:0|0:0|0:0,0:0:0:0:
232,125,120342,2,0,L|214:262,2,135,4|2|0,0:0|0:0|0:0,0:0:0:0:
199,38,121633,2,0,P|139:38|98:61,1,90
59,127,122278,2,0,P|50:189|61:230,1,90
125,278,122923,2,0,B|192:260|188:302|285:273,2,135,2|2|0,0:0|0:0|0:0,0:0:0:0:
173,362,124213,6,0,L|297:362,1,90,4|0,0:0|0:0,0:0:0:0:
338,308,124858,2,0,L|440:308,1,90,8|0,0:0|0:0,0:0:0:0:
481,232,125504,2,0,P|460:164|475:94,2,135,4|2|0,0:0|0:0|0:0,0:0:0:0:
441,317,126794,2,0,P|392:329|325:311,1,90,8|0,0:0|0:0,0:0:0:0:
280,261,127439,2,0,P|216:258|167:281,1,90,8|0,0:0|0:0,0:0:0:0:
153,348,128084,2,0,L|173:158,1,180,2|0,0:0|0:0,0:0:0:0:
237,103,129052,1,0,0:0:0:0:
314,156,129374,5,6,0:0:0:0:
176,117,139697,6,0,P|253:100|299:110,1,90,6|0,0:0|0:0,0:0:0:0:
332,165,140342,1,8,0:0:0:0:
408,109,140665,1,2,0:0:0:0:
408,109,140987,2,0,B|428:160|428:160|412:296,1,180,2|8,0:0|0:0,0:0:0:0:
330,340,141955,1,0,0:0:0:0:
257,277,142278,2,0,P|193:274|154:291,1,90
106,354,142923,1,8,0:0:0:0:
82,262,143245,1,2,0:0:0:0:
82,262,143568,2,0,B|77:213|77:213|106:142|106:142|97:73,1,180,2|0,0:0|0:0,0:0:0:0:
173,32,144536,1,0,0:0:0:0:
250,83,144858,6,0,P|309:106|413:44,1,180,2|8,0:0|0:0,0:0:0:0:
445,225,146149,2,0,P|386:202|282:264,1,180,2|8,0:0|0:0,0:0:0:0:
111,335,147439,2,0,L|130:228,1,90,2|0,0:0|0:0,0:0:0:0:
201,187,148084,2,0,L|192:87,1,90,8|0,0:0|0:0,0:0:0:0:
185,43,148568,1,0,0:0:0:0:
185,43,148729,1,0,0:0:0:0:
354,95,149374,2,0,L|354:154,1,45,2|0,0:0|0:0,0:0:0:0:
375,166,149697,2,0,L|375:224,1,45,2|2,0:0|0:0,0:0:0:0:
361,243,150020,6,0,P|305:271|269:273,1,90,4|0,0:0|0:0,0:0:0:0:
236,246,150504,1,0,0:0:0:0:
186,247,150665,2,0,P|131:262|98:288,1,90,2|8,0:0|0:0,0:0:0:0:
66,189,151310,2,0,L|63:40,2,135,0|10|10,0:0|0:0|0:0,0:0:0:0:
150,136,152600,2,0,L|252:124,1,90
287,139,153084,1,0,0:0:0:0:
331,159,153245,2,0,L|446:147,1,90,2|8,0:0|0:0,0:0:0:0:
398,246,153891,2,0,L|253:265,2,135,0|10|10,0:0|0:0|0:0,0:0:0:0:
362,338,155181,6,0,P|304:351|258:350,1,90,4|0,0:0|0:0,0:0:0:0:
228,331,155665,1,0,0:0:0:0:
183,310,155826,2,0,P|116:312|78:326,1,90,2|8,0:0|0:0,0:0:0:0:
44,232,156471,2,0,L|57:82,2,135,0|10|10,0:0|0:0|0:0,0:0:0:0:
130,182,157762,1,2,0:0:0:0:
130,182,157923,2,0,B|206:165|186:206|271:182,1,135,2|0,0:0|0:0,0:0:0:0:
309,166,158568,2,0,P|295:218|322:299,1,135,2|8,0:0|0:0,0:0:0:0:
364,311,159213,2,0,L|223:340,1,135,8|0,0:0|0:0,0:0:0:0:
141,296,160020,1,0,0:0:0:0:
170,201,160342,6,0,P|175:131|167:100,1,90,4|0,0:0|0:0,0:0:0:0:
143,70,160826,1,0,0:0:0:0:
155,22,160987,2,0,L|256:11,1,90,2|8,0:0|0:0,0:0:0:0:
338,43,161633,2,0,B|366:69|366:69|367:130|367:130|326:183,2,135,0|10|10,0:0|0:0|0:0,0:0:0:0:
248,86,162923,2,0,P|197:93|152:75,1,90
122,49,163407,1,0,0:0:0:0:
78,24,163568,2,0,L|70:133,1,90,2|8,0:0|0:0,0:0:0:0:
67,212,164213,2,0,P|36:304|-16:347,2,135,0|10|10,0:0|0:0|0:0,0:0:0:0:
153,260,165504,6,0,P|203:269|254:258,1,90,4|0,0:0|0:0,0:0:0:0:
284,238,165987,1,0,0:0:0:0:
327,213,166149,2,0,P|390:209|428:222,1,90,2|8,0:0|0:0,0:0:0:0:
466,300,166794,2,0,L|488:132,2,135,0|10|10,0:0|0:0|0:0,0:0:0:0:
373,336,168084,1,2,0:0:0:0:
373,336,168245,2,0,P|310:318|232:341,1,135,2|0,0:0|0:0,0:0:0:0:
198,354,168891,2,0,P|140:358|73:305,1,135,2|8,0:0|0:0,0:0:0:0:
65,267,169536,2,0,B|84:239|84:239|84:131,1,135,8|0,0:0|0:0,0:0:0:0:
142,58,170342,1,0,0:0:0:0:
216,123,170665,5,4,0:0:0:0:
216,123,180987,6,0,P|205:184|224:228,1,90,4|0,0:0|0:0,0:0:0:0:
302,167,181633,2,0,P|313:106|294:62,1,90,8|0,0:0|0:0,0:0:0:0:
233,12,182278,2,0,L|46:31,1,180,8|8,0:0|0:0,0:0:0:0:
4,115,183245,1,0,0:0:0:0:
53,200,183568,2,0,L|40:303,1,90,8|0,0:0|0:0,0:0:0:0:
134,253,184213,2,0,L|125:142,1,90,8|0,0:0|0:0,0:0:0:0:
126,64,184858,2,0,P|177:81|316:40,1,180,8|8,0:0|0:0,0:0:0:0:
391,23,185826,1,0,0:0:0:0:
366,118,186149,6,0,P|356:180|364:223,1,90,10|0,0:0|0:0,0:0:0:0:
395,298,186794,2,0,P|348:317|281:311,1,90,10|0,0:0|0:0,0:0:0:0:
232,253,187439,2,0,P|173:246|120:265,1,90,10|0,0:0|0:0,0:0:0:0:
61,304,188084,2,0,P|49:234|74:192,1,90,10|0,0:0|0:0,0:0:0:0:
256,192,188729,12,2,190020,0:0:0:0:
256,192,190665,5,2,0:0:0:0:
190,118,190987,1,0,0:0:0:0:
112,180,191310,6,0,P|108:249|125:296,1,90,4|0,0:0|0:0,0:0:0:0:
147,304,191794,1,0,0:0:0:0:
196,300,191955,2,0,P|279:290|316:301,1,90,2|8,0:0|0:0,0:0:0:0:
379,318,192600,2,0,P|366:236|302:193,2,135,0|10|10,0:0|0:0|0:0,0:0:0:0:
284,290,193891,2,0,L|185:290,1,90
144,293,194374,1,0,0:0:0:0:
94,297,194536,2,0,P|100:217|85:182,1,90,2|8,0:0|0:0,0:0:0:0:
26,139,195181,2,0,P|75:156|163:138,2,135,0|10|10,0:0|0:0|0:0,0:0:0:0:
92,65,196471,6,0,P|147:47|203:51,1,90,4|0,0:0|0:0,0:0:0:0:
226,59,196955,1,0,0:0:0:0:
272,76,197116,2,0,P|332:81|378:69,1,90,2|8,0:0|0:0,0:0:0:0:
450,32,197762,2,0,L|445:180,2,135,0|10|10,0:0|0:0|0:0,0:0:0:0:
351,39,199052,2,0,P|288:51|237:40,1,90
165,27,199697,2,0,P|105:29|58:49,1,90,0|8,0:0|0:0,0:0:0:0:
33,127,200342,1,8,0:0:0:0:
33,127,200504,2,0,B|3:113|3:113|25:253,1,135,8|0,0:0|0:0,0:0:0:0:
56,305,201310,1,0,0:0:0:0:
140,253,201633,6,0,P|188:246|234:260,1,90,4|0,0:0|0:0,0:0:0:0:
265,287,202116,1,0,0:0:0:0:
305,315,202278,2,0,P|365:319|409:304,1,90,2|8,0:0|0:0,0:0:0:0:
449,229,202923,2,0,L|464:84,2,135,0|10|10,0:0|0:0|0:0,0:0:0:0:
369,169,204213,2,0,L|262:164,1,90
229,163,204697,1,0,0:0:0:0:
179,162,204858,2,0,P|155:213|157:269,1,90,2|8,0:0|0:0,0:0:0:0:
228,310,205504,2,0,B|261:322|261:322|368:322,2,135,0|10|10,0:0|0:0|0:0,0:0:0:0:
299,240,206794,6,0,P|303:175|297:137,1,90,4|0,0:0|0:0,0:0:0:0:
273,108,207278,1,0,0:0:0:0:
234,76,207439,2,0,L|129:91,1,90,2|8,0:0|0:0,0:0:0:0:
64,146,208084,2,0,B|46:191|46:191|32:242|65:297,2,135,0|10|10,0:0|0:0|0:0,0:0:0:0:
129,220,209374,2,0,P|145:273|137:329,1,90
241,292,210020,2,0,P|225:239|233:183,1,90,0|8,0:0|0:0,0:0:0:0:
272,116,210665,1,8,0:0:0:0:
272,116,210826,2,0,L|421:105,1,135,8|0,0:0|0:0,0:0:0:0:
479,173,211633,1,0,0:0:0:0:
417,250,211955,5,6,0:0:0:0:
256,192,212116,12,0,214536,0:0:0:0:
