osu file format v14

[General]
AudioFilename: audio.mp3
AudioLeadIn: 0
PreviewTime: 25342
Countdown: 0
SampleSet: Soft
StackLeniency: 0.4
Mode: 0
LetterboxInBreaks: 0
WidescreenStoryboard: 0

[Editor]
Bookmarks: 4536,36471,67439,88084,108729,129374,150020,170665,180987,191310
DistanceSpacing: 1.1
BeatDivisor: 8
GridSize: 32
TimelineZoom: 2

[Metadata]
Title:Blood Sweat & Tears
TitleUnicode:피 땀 눈물
Artist:BTS
ArtistUnicode:방탄소년단
Creator:[ M I N A K O ]
Version:Insane
Source:
Tags:curulean veyron kpop k-pop wings you never walk alone project full version rap monster suga jin jungkook v taehyung jimin jhope j-hope 랩몬스터 진 슈가 제이홉 지민 뷔 정국
BeatmapID:1351598
BeatmapSetID:637101

[Difficulty]
HPDrainRate:6
CircleSize:4
OverallDifficulty:8
ApproachRate:8.5
SliderMultiplier:3.1
SliderTickRate:1

[Events]
//Background and Video events
0,0,"BG.jpg",0,0
//Break Periods
2,67639,77087
2,129574,139022
//Storyboard Layer 0 (Background)
//Storyboard Layer 1 (Fail)
//Storyboard Layer 2 (Pass)
//Storyboard Layer 3 (Foreground)
//Storyboard Sound Samples

[TimingPoints]
5504,645.161290322581,4,2,1,80,1,0
5504,-166.666666666667,4,2,1,80,0,0
10665,-111.111111111111,4,2,1,80,0,0
23568,-111.111111111111,4,3,0,80,0,0
24858,-111.111111111111,4,2,1,80,0,0
26149,-83.3333333333333,4,2,2,80,0,1
35181,-100,4,3,0,80,0,1
36471,-142.857142857143,4,2,1,80,0,0
77762,-111.111111111111,4,2,1,80,0,0
85504,-111.111111111111,4,3,0,80,0,0
86794,-200,4,2,0,80,0,0
88084,-83.3333333333333,4,2,2,80,0,1
97116,-83.3333333333333,4,3,0,80,0,1
98326,-100,4,2,1,80,0,0
98407,-100,4,2,2,80,0,1
107439,-83.3333333333333,4,3,0,80,0,1
108729,-125,4,2,1,80,0,0
113245,-200,4,2,1,20,0,0
113891,-125,4,2,1,80,0,0
139697,-100,4,2,1,80,0,0
147439,-100,4,3,0,80,0,0
148729,-100,4,2,1,80,0,0
150020,-83.3333333333333,4,2,2,80,0,1
159052,-83.3333333333333,4,3,0,80,0,1
160262,-100,4,2,1,80,0,0
160342,-83.3333333333333,4,2,2,80,0,1
169374,-83.3333333333333,4,3,0,80,0,1
170665,-200,4,2,1,80,0,0
180987,-100,4,2,1,80,0,0
188729,-100,4,3,1,80,0,0
190020,-100,4,2,1,80,0,0
191310,-76.9230769230769,4,2,2,80,0,1
200342,-76.9230769230769,4,3,0,80,0,1
201552,-100,4,2,1,80,0,0
201633,-76.9230769230769,4,2,2,80,0,1
210665,-76.9230769230769,4,3,0,80,0,1
211955,-100,4,2,1,80,0,0
214536,-100,4,2,1,5,0,0

[Colours]
Combo1 : 63,71,114
Combo2 : 253,215,225
Combo3 : 229,229,229
Combo4 : 254,240,194

[HitObjects]
256,192,987,12,0,4536,0:0:0:0:
379,109,5504,6,0,B|316:89|325:126|252:100,2,116.249996452332
461,149,6471,2,0,P|432:186|380:200,1,92.9999971618653,0|2,0:0|0:0,0:0:0:0:
201,152,7116,1,0,0:0:0:0:
204,241,7278,2,0,B|192:218|192:218|203:136,1,92.9999971618653,2|0,0:0|0:0,0:0:0:0:
217,59,7762,1,0,0:0:0:0:
136,259,8084,2,0,B|114:262|89:243|89:243|102:269|100:314,2,116.249996452332,2|0|0,0:0|0:0|0:0,0:0:0:0:
319,230,9052,2,0,L|216:250,1,92.9999971618653,0|2,0:0|0:0,0:0:0:0:
112,77,10020,1,0,0:0:0:0:
297,137,10342,1,0,0:0:0:0:
466,51,10665,5,2,0:0:0:0:
415,126,10826,1,0,0:0:0:0:
428,213,10987,1,0,0:0:0:0:
502,264,11149,2,0,P|430:254|359:277,1,139.499995742798
439,329,11633,1,0,0:0:0:0:
359,361,11794,1,0,0:0:0:0:
285,318,11955,1,2,0:0:0:0:
206,106,12278,1,0,0:0:0:0:
67,278,12600,1,0,0:0:0:0:
206,106,13245,5,2,0:0:0:0:
292,61,13407,1,0,0:0:0:0:
363,124,13568,1,0,0:0:0:0:
445,72,13729,2,0,B|471:88|502:78|502:78|510:125|482:172,1,139.499995742798
415,221,14213,1,0,0:0:0:0:
448,312,14374,1,0,0:0:0:0:
361,350,14536,2,0,B|329:367|329:367|278:339|217:373,1,139.499995742798,2|0,0:0|0:0,0:0:0:0:
150,184,15181,1,0,0:0:0:0:
323,97,15504,1,0,0:0:0:0:
150,184,15826,6,0,P|86:200|-8:163,1,139.499995742798,2|0,0:0|0:0,0:0:0:0:
87,123,16310,1,0,0:0:0:0:
150,184,16471,2,0,L|142:271,1,69.749997871399,8|0,0:0|0:0,0:0:0:0:
222,190,16794,2,0,L|230:103,1,69.749997871399,2|0,0:0|0:0,0:0:0:0:
264,35,17116,2,0,P|312:15|339:92,1,139.499995742798
264,35,17600,2,0,P|222:42|177:44,1,69.749997871399,0|8,0:0|0:0,0:0:0:0:
107,11,17923,1,0,0:0:0:0:
107,11,18084,2,0,P|112:60|104:104,1,69.749997871399
56,158,18407,6,0,L|208:138,1,139.499995742798,2|0,0:0|0:0,0:0:0:0:
286,120,18891,1,0,0:0:0:0:
251,206,19052,2,0,P|243:248|251:285,1,69.749997871399,8|0,0:0|0:0,0:0:0:0:
348,249,19374,2,0,P|356:207|348:170,1,69.749997871399
286,120,19697,2,0,B|253:131|218:116|218:116|183:105|148:118,1,139.499995742798,2|0,0:0|0:0,0:0:0:0:
185,197,20181,1,0,0:0:0:0:
112,101,20342,2,0,L|130:22,1,69.749997871399,2|0,0:0|0:0,0:0:0:0:
58,147,20665,2,0,L|40:226,1,69.749997871399,2|0,0:0|0:0,0:0:0:0:
195,73,20987,5,4,0:0:0:0:
256,145,21149,1,0,0:0:0:0:
272,52,21310,1,0,0:0:0:0:
182,152,21471,2,0,P|195:192|222:213,1,69.749997871399,0|8,0:0|0:0,0:0:0:0:
307,206,21794,1,0,0:0:0:0:
382,151,21955,2,0,P|424:148|465:155,1,69.749997871399
307,206,22278,2,0,L|297:124,1,69.749997871399,10|0,0:0|0:0,0:0:0:0:
248,248,22600,2,0,L|264:336,1,69.749997871399
180,272,22923,2,0,P|185:210|308:207,1,209.249993614197,8|0,0:0|0:0,0:0:0:0:
306,205,23568,5,8,0:0:0:0:
400,117,23729,1,0,0:0:0:0:
385,243,23891,1,0,0:0:0:0:
322,128,24052,1,8,0:0:0:0:
445,188,24213,1,0,0:0:0:0:
403,59,24374,1,0,0:0:0:0:
403,59,24455,1,0,0:0:0:0:
403,59,24536,1,0,0:0:0:0:
322,128,24697,1,8,0:0:0:0:
184,71,24858,5,0,0:0:0:0:
192,77,25826,1,0,0:0:0:0:
192,77,25907,1,0,0:0:0:0:
192,77,25987,1,0,0:0:0:0:
183,260,26149,6,0,B|174:220|174:220|192:68,1,185.999994323731,4|0,0:0|0:0,0:0:0:0:
308,27,26633,1,2,0:0:0:0:
112,136,26794,2,0,P|55:143|19:132,1,92.9999971618653
110,37,27116,2,0,P|164:50|200:94,1,92.9999971618653,8|0,0:0|0:0,0:0:0:0:
123,256,27439,2,0,B|173:247|215:266|215:266|258:280|309:260,1,185.999994323731,8|0,0:0|0:0,0:0:0:0:
166,184,27923,2,0,B|133:184|133:184|61:204,1,92.9999971618653,2|0,0:0|0:0,0:0:0:0:
243,184,28245,1,0,0:0:0:0:
243,184,28407,2,0,B|276:184|276:184|348:164,1,92.9999971618653,2|0,0:0|0:0,0:0:0:0:
248,32,28729,6,0,B|236:85|189:96|189:96|200:143|161:189,1,185.999994323731,6|0,0:0|0:0,0:0:0:0:
108,117,29213,1,2,0:0:0:0:
340,41,29374,2,0,L|238:30,1,92.9999971618653
402,88,29697,2,0,L|504:99,1,92.9999971618653,8|0,0:0|0:0,0:0:0:0:
342,218,30020,2,0,P|317:142|356:17,1,185.999994323731
407,252,30504,2,0,P|357:288|301:282,1,92.9999971618653,2|0,0:0|0:0,0:0:0:0:
413,180,30826,1,0,0:0:0:0:
413,180,30987,2,0,P|463:144|519:150,1,92.9999971618653,2|0,0:0|0:0,0:0:0:0:
463,325,31310,6,0,L|497:112,1,185.999994323731,4|0,0:0|0:0,0:0:0:0:
506,49,31794,1,2,0:0:0:0:
353,139,31955,2,0,B|306:125|306:158|244:130,1,92.9999971618653
82,134,32278,2,0,B|129:148|129:115|191:143,1,92.9999971618653,8|0,0:0|0:0,0:0:0:0:
337,250,32600,2,0,P|334:314|235:287,1,185.999994323731
369,184,33084,2,0,P|402:214|419:277,1,92.9999971618653,2|0,0:0|0:0,0:0:0:0:
310,137,33407,1,0,0:0:0:0:
310,137,33568,2,0,P|361:113|419:128,1,92.9999971618653,2|0,0:0|0:0,0:0:0:0:
213,176,33891,6,0,B|124:191|124:191|19:171,1,185.999994323731,4|0,0:0|0:0,0:0:0:0:
124,114,34374,1,2,0:0:0:0:
181,254,34536,2,0,L|170:363,1,92.9999971618653
213,176,34858,2,0,L|224:67,1,92.9999971618653,8|0,0:0|0:0,0:0:0:0:
274,250,35181,5,8,0:0:0:0:
144,40,35342,1,8,0:0:0:0:
230,10,35504,1,0,0:0:0:0:
315,64,35665,1,0,0:0:0:0:
315,64,35745,1,0,0:0:0:0:
315,64,35826,1,0,0:0:0:0:
222,83,35987,1,0,0:0:0:0:
77,70,36149,2,0,L|-28:62,1,77.5,2|0,0:0|0:0,0:0:0:0:
133,129,36471,6,0,P|177:160|296:159,1,162.749995033264,6|0,0:0|0:0,0:0:0:0:
362,125,37116,2,0,P|368:177|328:242,1,108.499996688843,8|2,0:0|0:0,0:0:0:0:
260,354,37762,2,0,B|250:322|250:322|264:280|264:280|243:228,1,108.499996688843,2|0,0:0|0:0,0:0:0:0:
204,175,38245,1,2,0:0:0:0:
204,175,38407,1,8,0:0:0:0:
384,64,38729,1,0,0:0:0:0:
306,35,38891,1,0,0:0:0:0:
239,82,39052,6,0,P|192:96|74:75,1,162.749995033264,2|0,0:0|0:0,0:0:0:0:
146,25,39697,2,0,L|75:181,1,162.749995033264,8|0,0:0|0:0,0:0:0:0:
36,245,40342,2,0,B|75:283|75:283|140:288,1,108.499996688843,2|0,0:0|0:0,0:0:0:0:
223,249,40826,1,0,0:0:0:0:
223,249,40907,1,0,0:0:0:0:
223,249,40987,1,8,0:0:0:0:
364,84,41310,1,0,0:0:0:0:
368,173,41471,1,0,0:0:0:0:
326,28,41633,6,0,L|451:40,1,108.499996688843,2|0,0:0|0:0,0:0:0:0:
509,83,42116,1,0,0:0:0:0:
318,96,42278,2,0,L|443:108,1,108.499996688843,10|2,0:0|0:0,0:0:0:0:
501,151,42761,1,0,0:0:0:0:
308,164,42923,2,0,P|272:149|286:36,1,162.749995033264,2|2,0:0|0:0,0:0:0:0:
354,8,43568,1,8,0:0:0:0:
134,61,43891,1,0,0:0:0:0:
103,141,44052,1,0,0:0:0:0:
192,12,44213,6,0,L|73:7,1,108.499996688843,2|0,0:0|0:0,0:0:0:0:
83,7,44697,1,0,0:0:0:0:
303,46,44858,2,0,L|422:44,1,108.499996688843,10|0,0:0|0:0,0:0:0:0:
411,44,45342,1,0,0:0:0:0:
220,113,45504,2,0,B|200:172|220:217|220:217|243:261|220:337,1,216.999993377686,2|8,0:0|0:0,0:0:0:0:
125,267,46391,1,8,0:0:0:0:
220,113,46552,1,8,0:0:0:0:
241,108,46633,1,0,0:0:0:0:
263,103,46713,1,0,0:0:0:0:
283,98,46794,6,0,B|330:86|330:86|400:80|441:125,1,162.749995033264,6|8,0:0|0:0,0:0:0:0:
357,174,47439,1,0,0:0:0:0:
421,246,47600,1,0,0:0:0:0:
345,304,47762,1,10,0:0:0:0:
357,174,48084,2,0,L|372:9,1,162.749995033264,2|10,0:0|0:0,0:0:0:0:
274,42,48729,2,0,P|238:48|152:35,1,108.499996688843,0|8,0:0|0:0,0:0:0:0:
79,3,49213,1,0,0:0:0:0:
143,148,49374,6,0,B|157:185|157:185|137:321,1,162.749995033264,2|8,0:0|0:0,0:0:0:0:
143,148,50020,2,0,L|266:164,1,108.499996688843,0|8,0:0|0:0,0:0:0:0:
321,97,50504,1,0,0:0:0:0:
93,89,50665,2,0,P|69:124|118:220,1,162.749995033264,2|10,0:0|0:0,0:0:0:0:
139,222,51229,1,2,0:0:0:0:
165,214,51310,1,2,0:0:0:0:
235,164,51471,1,2,0:0:0:0:
174,309,51633,2,0,L|140:370,1,54.2499983444214,8|0,0:0|0:0,0:0:0:0:
240,266,51955,6,0,L|366:264,1,108.499996688843,2|0,0:0|0:0,0:0:0:0:
432,222,52439,1,0,0:0:0:0:
237,193,52600,2,0,L|363:191,1,108.499996688843,10|2,0:0|0:0,0:0:0:0:
429,149,53084,1,0,0:0:0:0:
216,119,53245,2,0,B|174:109|137:119|137:119|94:136|50:119,1,162.749995033264,2|10,0:0|0:0,0:0:0:0:
139,48,53891,2,0,P|201:89|217:124,1,108.499996688843,2|8,0:0|0:0,0:0:0:0:
183,199,54374,1,0,0:0:0:0:
301,78,54536,6,0,L|418:66,1,108.499996688843,2|0,0:0|0:0,0:0:0:0:
499,56,55020,1,0,0:0:0:0:
280,154,55181,2,0,L|397:142,1,108.499996688843,10|0,0:0|0:0,0:0:0:0:
478,132,55665,1,0,0:0:0:0:
258,225,55826,2,0,P|212:191|242:93,1,162.749995033264,2|8,0:0|0:0,0:0:0:0:
292,182,56471,2,0,L|252:231,1,54.2499983444214,2|0,0:0|0:0,0:0:0:0:
387,178,56794,2,0,L|347:227,1,54.2499983444214,8|0,0:0|0:0,0:0:0:0:
448,103,57116,5,6,0:0:0:0:
349,33,57278,1,0,0:0:0:0:
435,34,57439,1,0,0:0:0:0:
295,100,57600,2,0,P|230:100|230:100,2,54.2499983444214,0|8|0,0:0|0:0|0:0,0:0:0:0:
245,24,58084,1,0,0:0:0:0:
166,72,58245,1,0,0:0:0:0:
262,231,58407,5,4,0:0:0:0:
145,343,58568,1,0,0:0:0:0:
136,256,58729,1,0,0:0:0:0:
266,358,58891,2,0,P|321:372|361:355,1,54.2499983444214,0|8,0:0|0:0,0:0:0:0:
395,323,59213,1,0,0:0:0:0:
395,323,59374,1,0,0:0:0:0:
395,323,59536,1,0,0:0:0:0:
437,167,59697,5,4,0:0:0:0:
377,235,59858,1,0,0:0:0:0:
406,93,60020,1,0,0:0:0:0:
337,156,60181,1,0,0:0:0:0:
337,156,60342,2,0,L|273:162,1,54.2499983444214,8|0,0:0|0:0,0:0:0:0:
214,214,60665,2,0,L|282:227,1,54.2499983444214
141,232,60987,6,0,P|154:172|222:137,1,108.499996688843
86,149,61471,1,2,0:0:0:0:
86,149,61552,1,2,0:0:0:0:
86,149,61633,2,0,P|84:113|94:79,1,54.2499983444214,10|0,0:0|0:0,0:0:0:0:
142,27,61955,2,0,P|176:4|203:-3,1,54.2499983444214
357,100,62278,5,4,0:0:0:0:
278,240,62439,1,0,0:0:0:0:
373,218,62600,1,0,0:0:0:0:
219,137,62762,2,0,P|182:160|168:178,2,54.2499983444214,0|8|0,0:0|0:0|0:0,0:0:0:0:
247,218,63245,1,0,0:0:0:0:
160,237,63407,1,0,0:0:0:0:
343,64,63568,5,4,0:0:0:0:
422,197,63729,1,0,0:0:0:0:
451,113,63891,1,0,0:0:0:0:
301,153,64052,2,0,L|306:220,1,54.2499983444214,0|8,0:0|0:0,0:0:0:0:
305,207,64536,2,0,P|299:250|307:308,1,81.3749975166321
313,306,64858,6,0,P|262:305|203:331,1,108.499996688843,4|0,0:0|0:0,0:0:0:0:
228,153,65504,1,8,0:0:0:0:
158,203,65665,1,0,0:0:0:0:
149,117,65826,2,0,P|181:81|248:65,1,108.499996688843
349,283,66633,1,2,0:0:0:0:
349,283,66794,2,0,L|358:144,1,135.624995861054,2|2,0:0|0:0,0:0:0:0:
115,304,67439,5,4,0:0:0:0:
376,84,77762,6,0,B|368:128|368:128|386:235,1,139.499995742798,2|0,0:0|0:0,0:0:0:0:
419,302,78245,1,0,0:0:0:0:
328,281,78407,2,0,L|252:291,1,69.749997871399,8|0,0:0|0:0,0:0:0:0:
202,211,78729,2,0,L|282:216,1,69.749997871399
142,253,79052,2,0,P|132:227|198:133,1,139.499995742798,2|0,0:0|0:0,0:0:0:0:
268,114,79536,1,0,0:0:0:0:
166,107,79697,2,0,P|122:102|88:92,2,69.749997871399,8|0|0,0:0|0:0|0:0,0:0:0:0:
285,16,80342,6,0,P|330:26|372:110,1,139.499995742798,2|0,0:0|0:0,0:0:0:0:
341,185,80826,1,0,0:0:0:0:
394,255,80987,2,0,P|399:293|390:340,1,69.749997871399,8|0,0:0|0:0,0:0:0:0:
305,326,81310,2,0,P|300:288|309:241,1,69.749997871399
458,348,81633,2,0,B|474:295|457:236|457:236|443:186|455:132,1,209.249993614197,2|0,0:0|0:0,0:0:0:0:
474,54,82278,2,0,P|430:49|375:44,1,69.749997871399,10|0,0:0|0:0,0:0:0:0:
329,87,82600,2,0,P|319:36|330:-2,1,69.749997871399,2|0,0:0|0:0,0:0:0:0:
306,188,82923,5,2,0:0:0:0:
243,121,83084,1,0,0:0:0:0:
235,213,83245,1,0,0:0:0:0:
169,139,83407,2,0,P|172:94|192:66,1,69.749997871399,0|8,0:0|0:0,0:0:0:0:
263,27,83729,1,0,0:0:0:0:
346,62,83891,1,0,0:0:0:0:
425,22,84052,1,0,0:0:0:0:
481,89,84213,6,0,L|466:256,1,139.499995742798,2|0,0:0|0:0,0:0:0:0:
459,315,84858,1,8,0:0:0:0:
459,315,85504,5,8,0:0:0:0:
405,219,85665,1,8,0:0:0:0:
489,245,85826,1,0,0:0:0:0:
387,291,85987,1,8,0:0:0:0:
405,219,86149,1,0,0:0:0:0:
307,241,86310,1,0,0:0:0:0:
180,179,86471,1,0,0:0:0:0:
179,164,86552,1,0,0:0:0:0:
179,148,86633,1,0,0:0:0:0:
179,131,86713,1,0,0:0:0:0:
178,114,86794,5,0,0:0:0:0:
178,114,87439,1,2,0:0:0:0:
252,68,87600,1,2,0:0:0:0:
97,66,87762,1,2,0:0:0:0:
97,66,87842,1,0,0:0:0:0:
97,66,87923,1,2,0:0:0:0:
270,197,88084,5,6,0:0:0:0:
270,197,88245,2,0,P|339:184|394:193,1,92.9999971618653,2|0,0:0|0:0,0:0:0:0:
327,270,88568,1,0,0:0:0:0:
193,175,88729,2,0,L|206:61,1,92.9999971618653
120,190,89052,2,0,L|149:306,1,92.9999971618653,8|0,0:0|0:0,0:0:0:0:
44,178,89374,2,0,B|33:133|58:90|58:90|87:44|69:-11,1,185.999994323731
117,140,89858,1,8,0:0:0:0:
117,140,90020,2,0,L|219:133,1,92.9999971618653
310,123,90342,1,10,0:0:0:0:
246,63,90504,1,2,0:0:0:0:
209,133,90665,5,2,0:0:0:0:
379,46,90826,1,2,0:0:0:0:
379,46,90987,2,0,P|401:94|421:164,1,92.9999971618653
364,297,91310,2,0,L|368:196,1,92.9999971618653
282,298,91633,2,0,L|287:171,1,92.9999971618653,8|0,0:0|0:0,0:0:0:0:
345,367,91955,2,0,P|284:378|178:305,1,185.999994323731
144,230,92439,1,8,0:0:0:0:
144,230,92600,1,2,0:0:0:0:
172,112,92762,1,2,0:0:0:0:
223,187,92923,1,10,0:0:0:0:
70,165,93084,1,2,0:0:0:0:
172,112,93245,5,6,0:0:0:0:
70,165,93407,2,0,P|27:149|-9:109,1,92.9999971618653,2|0,0:0|0:0,0:0:0:0:
91,67,93729,1,0,0:0:0:0:
127,220,93891,2,0,B|134:246|134:246|117:344,1,92.9999971618653,2|0,0:0|0:0,0:0:0:0:
198,215,94213,2,0,B|191:189|191:189|208:91,1,92.9999971618653,8|0,0:0|0:0,0:0:0:0:
229,277,94536,2,0,B|229:304|251:327|251:327|293:255|258:186,1,185.999994323731
202,123,95020,1,8,0:0:0:0:
202,123,95181,2,0,P|258:104|314:115,1,92.9999971618653
435,160,95504,1,10,0:0:0:0:
435,160,95665,1,2,0:0:0:0:
374,105,95826,5,6,0:0:0:0:
374,105,95987,2,0,P|430:80|517:168,1,185.999994323731,2|0,0:0|0:0,0:0:0:0:
435,160,96471,1,2,0:0:0:0:
435,160,96633,2,0,P|384:184|297:77,1,185.999994323731,2|0,0:0|0:0,0:0:0:0:
308,23,97116,5,8,0:0:0:0:
271,230,97278,2,0,P|204:259|230:164,1,185.999994323731,8|0,0:0|0:0,0:0:0:0:
194,173,97762,1,0,0:0:0:0:
158,89,97923,1,0,0:0:0:0:
158,89,98004,1,0,0:0:0:0:
158,89,98084,1,0,0:0:0:0:
101,153,98245,1,0,0:0:0:0:
257,82,98407,5,6,0:0:0:0:
257,82,98568,2,0,P|319:82|368:95,1,77.5,2|0,0:0|0:0,0:0:0:0:
421,110,98891,1,0,0:0:0:0:
265,176,99052,2,0,L|160:151,1,77.5,2|0,0:0|0:0,0:0:0:0:
261,267,99374,2,0,L|340:235,1,77.5,8|0,0:0|0:0,0:0:0:0:
181,233,99697,2,0,P|185:308|277:347,1,155
385,375,100181,1,8,0:0:0:0:
385,375,100342,2,0,B|399:347|399:347|390:272,1,77.5
365,149,100665,1,10,0:0:0:0:
332,238,100826,1,2,0:0:0:0:
424,209,100987,5,2,0:0:0:0:
285,162,101149,2,0,P|296:103|333:71,1,77.5,2|0,0:0|0:0,0:0:0:0:
381,39,101471,1,0,0:0:0:0:
226,78,101633,2,0,L|126:91,1,77.5
82,97,101874,1,0,0:0:0:0:
82,97,101955,2,0,P|77:157|90:209,1,77.5,8|0,0:0|0:0,0:0:0:0:
151,339,102278,2,0,P|155:238|142:174,1,155
83,266,102762,1,8,0:0:0:0:
83,266,102923,1,2,0:0:0:0:
59,168,103084,1,2,0:0:0:0:
125,89,103245,1,10,0:0:0:0:
145,185,103407,1,2,0:0:0:0:
257,70,103568,5,6,0:0:0:0:
338,103,103729,2,0,P|388:109|428:100,1,77.5,2|0,0:0|0:0,0:0:0:0:
374,28,104052,1,0,0:0:0:0:
305,174,104213,2,0,L|314:273,1,77.5,2|0,0:0|0:0,0:0:0:0:
321,323,104455,1,0,0:0:0:0:
321,323,104536,2,0,P|365:296|382:266,1,77.5,8|0,0:0|0:0,0:0:0:0:
230,315,104858,2,0,B|188:313|156:334|156:334|124:314|49:317,1,155
152,249,105342,1,8,0:0:0:0:
152,249,105504,2,0,L|152:151,1,77.5
234,57,105826,1,10,0:0:0:0:
141,80,105987,1,2,0:0:0:0:
311,86,106149,5,2,0:0:0:0:
311,86,106310,2,0,L|319:278,1,155
385,61,106794,1,2,0:0:0:0:
385,61,106955,2,0,L|393:253,1,155
455,43,107439,5,8,0:0:0:0:
257,33,107600,2,0,B|208:22|165:40|165:40|121:56|72:38,1,185.999994323731,8|0,0:0|0:0,0:0:0:0:
215,99,108084,1,0,0:0:0:0:
162,184,108245,1,0,0:0:0:0:
162,184,108326,1,0,0:0:0:0:
162,184,108407,1,2,0:0:0:0:
123,100,108568,1,0,0:0:0:0:
255,247,108729,6,0,L|397:218,1,124,6|0,0:0|0:0,0:0:0:0:
462,188,109213,1,0,0:0:0:0:
386,143,109374,2,0,P|370:81|366:18,1,124,8|2,0:0|0:0,0:0:0:0:
365,21,110020,2,0,L|268:39,2,93,2|0|2,0:0|0:0|0:0,0:0:0:0:
243,109,110665,2,0,P|198:49|213:-10,1,124,8|0,0:0|0:0,0:0:0:0:
274,37,111149,1,0,0:0:0:0:
317,119,111310,6,0,P|301:157|267:185,1,62
199,198,111633,1,0,0:0:0:0:
126,148,111794,1,0,0:0:0:0:
61,211,111955,2,0,P|54:254|53:287,1,62,8|0,0:0|0:0,0:0:0:0:
110,344,112278,1,0,0:0:0:0:
137,257,112439,1,0,0:0:0:0:
137,257,112520,1,0,0:0:0:0:
137,257,112600,1,0,0:0:0:0:
348,343,113084,5,0,0:0:0:0:
348,343,113245,2,0,B|365:279|365:279|350:195,1,135.625
334,144,113891,6,0,P|236:150|192:145,1,124,2|0,0:0|0:0,0:0:0:0:
147,91,114374,1,0,0:0:0:0:
122,175,114536,2,0,L|136:328,1,124,8|2,0:0|0:0,0:0:0:0:
133,298,115181,2,0,P|87:297|35:304,2,93,2|0|2,0:0|0:0|0:0,0:0:0:0:
221,317,115826,2,0,B|283:295|283:337|359:306,1,124,8|0,0:0|0:0,0:0:0:0:
423,267,116310,1,0,0:0:0:0:
344,225,116471,6,0,P|339:172|346:144,1,62
410,109,116794,1,0,0:0:0:0:
331,66,116955,1,0,0:0:0:0:
257,112,117116,2,0,P|238:144|232:184,1,62,8|0,0:0|0:0,0:0:0:0:
248,257,117439,1,0,0:0:0:0:
201,331,117600,1,0,0:0:0:0:
150,258,117762,2,0,B|126:259|108:274|108:274|126:228|108:188,1,124,2|0,0:0|0:0,0:0:0:0:
34,231,118245,1,0,0:0:0:0:
232,167,118407,5,4,0:0:0:0:
274,91,118568,1,0,0:0:0:0:
319,186,118729,1,0,0:0:0:0:
319,186,118810,1,0,0:0:0:0:
319,186,118891,1,0,0:0:0:0:
200,92,119052,6,0,P|218:45|294:17,1,124,4|0,0:0|0:0,0:0:0:0:
370,15,119536,1,0,0:0:0:0:
370,15,119697,2,0,P|359:65|341:88,1,62,8|0,0:0|0:0,0:0:0:0:
200,92,120020,1,0,0:0:0:0:
234,172,120181,1,0,0:0:0:0:
154,33,120342,6,0,L|155:175,1,124,4|0,0:0|0:0,0:0:0:0:
154,245,120826,1,0,0:0:0:0:
154,245,120987,2,0,P|149:300|154:330,1,62,8|0,0:0|0:0,0:0:0:0:
230,279,121310,1,0,0:0:0:0:
61,189,121633,5,4,0:0:0:0:
56,275,121794,1,0,0:0:0:0:
82,194,121955,1,0,0:0:0:0:
37,270,122116,1,0,0:0:0:0:
105,201,122278,1,8,0:0:0:0:
20,265,122439,1,0,0:0:0:0:
124,209,122600,1,0,0:0:0:0:
0,259,122762,1,0,0:0:0:0:
136,136,122923,6,0,P|181:123|272:147,1,124,2|0,0:0|0:0,0:0:0:0:
192,201,123407,1,2,0:0:0:0:
192,201,123487,1,2,0:0:0:0:
192,201,123568,1,10,0:0:0:0:
143,301,123729,1,2,0:0:0:0:
274,244,123891,2,0,L|335:206,1,62
282,359,124213,6,0,P|258:295|276:240,1,124,4|0,0:0|0:0,0:0:0:0:
352,296,124697,1,0,0:0:0:0:
352,296,124858,2,0,L|424:295,1,62,8|0,0:0|0:0,0:0:0:0:
487,248,125181,1,0,0:0:0:0:
489,333,125342,1,0,0:0:0:0:
416,214,125504,2,0,B|408:185|408:185|428:134|395:66,1,124,4|0,0:0|0:0,0:0:0:0:
335,142,125987,1,0,0:0:0:0:
339,51,126149,1,8,0:0:0:0:
262,194,126471,1,0,0:0:0:0:
221,113,126633,1,0,0:0:0:0:
181,244,126794,6,0,P|178:295|186:333,1,62,12|0,0:0|0:0,0:0:0:0:
262,194,127116,2,0,P|266:247|257:278,1,62,8|0,0:0|0:0,0:0:0:0:
208,128,127439,1,8,0:0:0:0:
240,111,127520,1,8,0:0:0:0:
280,106,127600,1,8,0:0:0:0:
319,119,127681,1,8,0:0:0:0:
347,144,127762,1,8,0:0:0:0:
374,57,127923,1,0,0:0:0:0:
208,128,128084,6,0,P|125:158|148:42,1,248,2|2,0:0|0:0,0:0:0:0:
228,37,129052,1,2,0:0:0:0:
45,195,129374,5,6,0:0:0:0:
45,195,139697,6,0,P|88:191|214:196,1,155,2|0,0:0|0:0,0:0:0:0:
283,233,140181,1,0,0:0:0:0:
270,146,140342,2,0,L|264:55,1,77.5,8|0,0:0|0:0,0:0:0:0:
350,28,140665,2,0,L|339:115,1,77.5
205,25,140987,2,0,B|129:11|119:46|44:19,1,155,2|0,0:0|0:0,0:0:0:0:
7,97,141471,1,0,0:0:0:0:
26,184,141633,2,0,P|66:204|101:210,1,77.5,8|0,0:0|0:0,0:0:0:0:
167,153,141955,2,0,P|221:148|260:154,1,77.5
227,304,142278,6,0,L|245:137,1,155,2|0,0:0|0:0,0:0:0:0:
254,62,142762,1,0,0:0:0:0:
327,17,142923,2,0,B|350:11|350:11|423:14,1,77.5,8|0,0:0|0:0,0:0:0:0:
456,81,143245,2,0,B|433:87|433:87|360:84,1,77.5
266,216,143568,2,0,P|393:125|378:83,1,232.5,2|0,0:0|0:0,0:0:0:0:
307,138,144213,2,0,P|263:128|212:140,1,77.5,8|0,0:0|0:0,0:0:0:0:
266,216,144536,2,0,P|310:226|361:214,1,77.5
451,117,144858,5,2,0:0:0:0:
465,210,145020,1,0,0:0:0:0:
379,89,145181,1,0,0:0:0:0:
403,178,145342,1,0,0:0:0:0:
403,178,145504,2,0,P|399:209|414:257,1,77.5,8|0,0:0|0:0,0:0:0:0:
474,325,145826,1,0,0:0:0:0:
379,349,145987,1,0,0:0:0:0:
336,266,146149,6,0,L|259:291,1,77.5,2|0,0:0|0:0,0:0:0:0:
270,213,146471,2,0,L|363:187,1,77.5
292,135,146794,2,0,L|135:186,1,155,8|0,0:0|0:0,0:0:0:0:
61,216,147278,1,0,0:0:0:0:
112,48,147439,5,8,0:0:0:0:
64,128,147600,1,0,0:0:0:0:
158,115,147762,1,0,0:0:0:0:
64,128,147923,1,8,0:0:0:0:
119,198,148084,1,0,0:0:0:0:
158,115,148245,1,0,0:0:0:0:
203,195,148407,1,8,0:0:0:0:
267,122,148568,1,0,0:0:0:0:
267,122,148649,1,0,0:0:0:0:
267,122,148729,5,0,0:0:0:0:
367,47,149374,1,2,0:0:0:0:
376,144,149536,1,2,0:0:0:0:
473,111,149697,1,2,0:0:0:0:
473,111,149778,1,0,0:0:0:0:
473,111,149858,1,2,0:0:0:0:
279,102,150020,5,6,0:0:0:0:
279,102,150181,2,0,P|211:113|173:139,1,92.9999971618653,2|0,0:0|0:0,0:0:0:0:
258,182,150504,1,0,0:0:0:0:
134,82,150665,2,0,L|145:209,1,92.9999971618653,2|0,0:0|0:0,0:0:0:0:
58,102,150987,2,0,L|83:11,1,92.9999971618653,8|0,0:0|0:0,0:0:0:0:
206,170,151310,2,0,P|170:233|78:177,1,185.999994323731
236,97,151794,2,0,P|274:147|283:191,1,92.9999971618653,8|0,0:0|0:0,0:0:0:0:
183,44,152116,1,0,0:0:0:0:
183,44,152278,2,0,P|237:22|300:57,1,92.9999971618653,10|2,0:0|0:0,0:0:0:0:
99,37,152600,5,2,0:0:0:0:
63,124,152762,2,0,B|57:152|57:152|68:255,1,92.9999971618653,2|0,0:0|0:0,0:0:0:0:
82,303,153084,1,0,0:0:0:0:
174,198,153245,2,0,B|198:179|198:179|272:180,1,92.9999971618653
323,241,153568,2,0,B|299:260|299:260|225:259,1,92.9999971618653,8|0,0:0|0:0,0:0:0:0:
374,168,153891,2,0,L|304:349,1,185.999994323731
420,244,154374,2,0,L|452:145,1,92.9999971618653,8|2,0:0|0:0,0:0:0:0:
451,58,154697,1,2,0:0:0:0:
372,115,154858,1,10,0:0:0:0:
506,108,155020,1,2,0:0:0:0:
375,41,155181,5,6,0:0:0:0:
375,41,155342,2,0,P|328:55|299:108,1,92.9999971618653,2|0,0:0|0:0,0:0:0:0:
323,179,155665,1,0,0:0:0:0:
280,52,155826,2,0,P|215:31|161:45,1,92.9999971618653,2|0,0:0|0:0,0:0:0:0:
116,97,156149,2,0,P|181:118|235:104,1,92.9999971618653,8|0,0:0|0:0,0:0:0:0:
73,19,156471,2,0,P|119:105|114:231,1,185.999994323731
26,312,156955,2,0,B|60:343|60:343|118:344,1,92.9999971618653,8|0,0:0|0:0,0:0:0:0:
217,290,157278,1,0,0:0:0:0:
217,290,157439,2,0,B|255:267|255:267|345:277,1,92.9999971618653,10|2,0:0|0:0,0:0:0:0:
127,203,157762,5,6,0:0:0:0:
127,203,157923,2,0,B|117:146|126:111|126:111|141:66|127:16,1,185.999994323731,2|0,0:0|0:0,0:0:0:0:
53,148,158407,1,2,0:0:0:0:
53,148,158568,2,0,B|43:205|52:239|52:239|67:285|53:335,1,185.999994323731,2|0,0:0|0:0,0:0:0:0:
127,203,159052,5,8,0:0:0:0:
166,365,159213,2,0,P|241:339|367:377,1,185.999994323731,8|0,0:0|0:0,0:0:0:0:
254,267,159697,1,0,0:0:0:0:
291,181,159858,1,0,0:0:0:0:
201,194,160020,1,0,0:0:0:0:
201,194,160100,1,0,0:0:0:0:
201,194,160181,1,0,0:0:0:0:
398,268,160342,5,6,0:0:0:0:
449,202,160504,2,2,P|451:135|435:88,1,92.9999971618653
479,33,160826,1,0,0:0:0:0:
335,95,160987,2,0,L|239:107,1,92.9999971618653,2|0,0:0|0:0,0:0:0:0:
175,113,161229,1,0,0:0:0:0:
175,113,161310,2,0,B|169:146|169:146|177:216,1,92.9999971618653,8|0,0:0|0:0,0:0:0:0:
242,106,161633,2,0,P|215:53|106:87,1,185.999994323731
310,94,162116,2,0,P|290:35|252:-7,1,92.9999971618653,8|0,0:0|0:0,0:0:0:0:
372,134,162439,1,0,0:0:0:0:
372,134,162600,2,0,P|369:51|349:9,1,92.9999971618653,10|2,0:0|0:0,0:0:0:0:
311,190,162923,5,2,0:0:0:0:
311,190,163084,2,0,B|304:231|304:231|316:318,1,92.9999971618653,2|0,0:0|0:0,0:0:0:0:
388,233,163407,1,0,0:0:0:0:
388,233,163487,1,0,0:0:0:0:
388,233,163568,2,0,P|406:162|392:113,1,92.9999971618653
373,77,163810,1,0,0:0:0:0:
373,77,163891,2,0,L|247:84,1,92.9999971618653,8|0,0:0|0:0,0:0:0:0:
157,86,164213,2,0,B|129:86|107:68|107:68|134:131|121:211,1,185.999994323731
41,84,164697,2,0,P|52:29|109:0,1,92.9999971618653,8|2,0:0|0:0,0:0:0:0:
45,158,165020,1,2,0:0:0:0:
81,249,165181,1,10,0:0:0:0:
182,248,165342,1,2,0:0:0:0:
162,122,165504,5,6,0:0:0:0:
222,55,165665,2,0,L|345:49,1,92.9999971618653,2|0,0:0|0:0,0:0:0:0:
275,133,165987,1,0,0:0:0:0:
372,2,166149,2,0,P|382:66|368:108,1,92.9999971618653,2|0,0:0|0:0,0:0:0:0:
348,158,166391,1,0,0:0:0:0:
348,158,166471,2,0,L|354:264,1,92.9999971618653,8|0,0:0|0:0,0:0:0:0:
205,160,166794,2,0,B|190:132|163:122|163:122|110:169|33:151,1,185.999994323731
205,64,167278,2,0,P|250:102|276:148,1,92.9999971618653,8|0,0:0|0:0,0:0:0:0:
210,284,167600,1,0,0:0:0:0:
299,206,167762,1,10,0:0:0:0:
179,206,167923,1,2,0:0:0:0:
305,295,168084,5,6,0:0:0:0:
305,295,168245,2,0,B|354:279|354:279|498:279,1,185.999994323731,2|0,0:0|0:0,0:0:0:0:
293,226,168729,1,2,0:0:0:0:
293,226,168890,2,0,B|342:210|342:210|486:210,1,185.999994323731,2|0,0:0|0:0,0:0:0:0:
265,154,169374,5,8,0:0:0:0:
190,302,169536,2,0,B|180:320|175:346|175:346|177:263|144:175,1,185.999994323731,8|0,0:0|0:0,0:0:0:0:
126,120,170020,1,0,0:0:0:0:
71,194,170181,1,0,0:0:0:0:
71,194,170262,1,0,0:0:0:0:
71,194,170342,1,0,0:0:0:0:
42,104,170504,1,0,0:0:0:0:
190,279,170665,6,0,P|264:264|356:284,1,155,6|8,0:0|0:0,0:0:0:0:
417,317,171633,1,0,0:0:0:0:
435,231,171955,2,0,L|417:71,1,155,0|8,0:0|0:0,0:0:0:0:
351,22,172923,1,0,0:0:0:0:
283,73,173245,2,0,B|238:62|206:72|206:72|165:84|123:73,1,155,2|8,0:0|0:0,0:0:0:0:
71,10,174213,1,0,0:0:0:0:
50,95,174536,2,0,B|40:138|40:138|50:255,1,155,0|8,0:0|0:0,0:0:0:0:
57,336,175504,1,0,0:0:0:0:
133,290,175826,6,0,B|164:258|195:249|195:249|238:252|282:287,1,155,2|8,0:0|0:0,0:0:0:0:
205,337,176794,1,0,0:0:0:0:
195,249,177116,2,0,L|176:91,1,155,2|8,0:0|0:0,0:0:0:0:
152,12,178084,1,0,0:0:0:0:
233,42,178407,2,0,P|294:47|394:36,1,155,0|8,0:0|0:0,0:0:0:0:
467,11,179374,1,0,0:0:0:0:
437,90,179697,2,0,B|434:120|448:146|448:146|434:177|448:217,1,116.25,0|2,0:0|0:0,0:0:0:0:
466,289,180342,1,10,0:0:0:0:
377,273,180504,1,2,0:0:0:0:
293,296,180665,1,2,0:0:0:0:
211,274,180826,1,2,0:0:0:0:
149,70,180987,6,0,B|133:113|133:113|145:221,1,155,8|8,0:0|0:0,0:0:0:0:
211,105,181471,2,0,P|216:53|196:10,1,77.5,0|8,0:0|0:0,0:0:0:0:
235,183,181794,1,0,0:0:0:0:
235,183,181955,2,0,L|321:192,1,77.5,8|0,0:0|0:0,0:0:0:0:
403,282,182278,2,8,L|222:256,1,155
381,363,182923,1,10,0:0:0:0:
466,324,183084,1,2,0:0:0:0:
488,235,183245,1,2,0:0:0:0:
447,155,183407,1,2,0:0:0:0:
285,120,183568,6,0,B|251:134|251:134|397:158,1,155,10|8,0:0|0:0,0:0:0:0:
242,66,184052,2,0,P|203:88|180:144,1,77.5,0|8,0:0|0:0,0:0:0:0:
303,30,184374,1,0,0:0:0:0:
303,30,184536,2,0,B|341:20|341:20|401:30,1,77.5
242,66,184858,2,0,B|166:78|166:78|75:61,2,155,8|8|0,0:0|0:0|0:0,0:0:0:0:
166,6,185665,1,0,0:0:0:0:
166,6,185745,1,0,0:0:0:0:
166,6,185826,1,0,0:0:0:0:
124,143,185987,1,0,0:0:0:0:
128,298,186149,6,8,P|192:289|279:308,1,155,10|8,0:0|0:0,0:0:0:0:
365,267,186633,2,0,L|374:182,1,77.5,0|8,0:0|0:0,0:0:0:0:
305,102,186955,1,0,0:0:0:0:
401,73,187116,1,8,0:0:0:0:
401,73,187439,2,8,P|368:30|257:11,1,155,10|8,0:0|0:0,0:0:0:0:
192,53,187923,2,0,P|139:59|97:48,1,77.5,0|8,0:0|0:0,0:0:0:0:
42,2,188245,1,0,0:0:0:0:
44,95,188407,1,8,0:0:0:0:
44,95,188729,5,8,0:0:0:0:
34,195,188891,1,0,0:0:0:0:
122,143,189052,1,0,0:0:0:0:
101,236,189213,1,8,0:0:0:0:
195,181,189374,1,0,0:0:0:0:
181,276,189536,1,0,0:0:0:0:
280,234,189697,1,8,0:0:0:0:
262,322,189858,1,0,0:0:0:0:
262,322,189939,1,0,0:0:0:0:
262,322,190020,5,2,0:0:0:0:
262,322,190745,1,2,0:0:0:0:
194,135,190987,1,0,0:0:0:0:
194,135,191068,1,0,0:0:0:0:
194,135,191149,1,0,0:0:0:0:
199,304,191310,6,0,P|266:301|280:183,1,201.499990776062,4|2,0:0|0:0,0:0:0:0:
191,205,191794,1,0,0:0:0:0:
317,208,191955,2,0,L|432:224,1,100.749995388031
485,129,192278,2,0,L|367:146,1,100.749995388031,8|0,0:0|0:0,0:0:0:0:
505,224,192600,2,0,L|461:22,1,201.499990776062,2|0,0:0|0:0,0:0:0:0:
384,58,193084,2,0,B|357:67|357:67|283:67,1,100.749995388031,10|0,0:0|0:0,0:0:0:0:
201,15,193407,1,0,0:0:0:0:
174,111,193568,2,0,B|168:137|168:137|178:219,1,100.749995388031,10|0,0:0|0:0,0:0:0:0:
194,354,193891,6,0,B|178:211|178:211|219:272,1,201.499990776062,0|2,0:0|0:0,0:0:0:0:
114,275,194374,1,0,0:0:0:0:
254,192,194536,2,0,P|320:155|375:147,1,100.749995388031
496,142,194858,2,0,P|430:179|375:187,1,100.749995388031,8|0,0:0|0:0,0:0:0:0:
508,43,195181,2,0,P|495:129|509:257,1,201.499990776062,2|0,0:0|0:0,0:0:0:0:
464,329,195665,2,0,B|414:313|415:358|337:321,1,100.749995388031,10|0,0:0|0:0,0:0:0:0:
197,326,195987,1,0,0:0:0:0:
197,326,196149,2,0,B|247:310|246:355|324:318,1,100.749995388031,10|0,0:0|0:0,0:0:0:0:
153,241,196471,6,0,B|114:270|98:327|98:327|82:262|39:238,1,201.499990776062,4|2,0:0|0:0,0:0:0:0:
174,160,196955,1,0,0:0:0:0:
174,160,197116,2,0,P|227:200|230:266,1,100.749995388031
155,88,197439,2,0,P|220:98|273:148,1,100.749995388031,8|0,0:0|0:0,0:0:0:0:
77,53,197762,2,0,P|132:25|287:65,1,201.499990776062,2|0,0:0|0:0,0:0:0:0:
336,113,198245,2,0,P|389:120|450:109,1,100.749995388031,10|0,0:0|0:0,0:0:0:0:
388,197,198568,1,0,0:0:0:0:
437,285,198729,2,0,P|387:277|337:284,1,100.749995388031,10|0,0:0|0:0,0:0:0:0:
250,326,199052,6,0,B|147:346|147:346|33:317,1,201.499990776062
147,264,199536,1,0,0:0:0:0:
147,264,199697,2,0,P|137:210|140:153,1,100.749995388031
184,109,199939,1,0,0:0:0:0:
184,109,200020,2,0,L|311:121,1,100.749995388031,8|0,0:0|0:0,0:0:0:0:
155,29,200342,5,8,0:0:0:0:
401,62,200504,1,8,0:0:0:0:
432,148,200665,1,0,0:0:0:0:
346,118,200826,1,0,0:0:0:0:
374,208,200987,1,8,0:0:0:0:
282,184,201149,1,0,0:0:0:0:
282,184,201229,1,0,0:0:0:0:
282,184,201310,1,0,0:0:0:0:
202,238,201471,1,0,0:0:0:0:
246,61,201633,6,0,B|213:75|185:64|155:46|155:46|99:69|91:110|122:166,1,201.499990776062,4|2,0:0|0:0,0:0:0:0:
120,218,202116,1,0,0:0:0:0:
62,32,202278,2,0,P|39:83|38:135,1,100.749995388031
52,196,202520,1,0,0:0:0:0:
52,196,202600,2,0,B|61:226|61:226|57:315,1,100.749995388031,8|0,0:0|0:0,0:0:0:0:
196,235,202923,2,0,P|279:227|370:324,1,201.499990776062,2|0,0:0|0:0,0:0:0:0:
174,170,203407,2,0,P|230:156|306:162,1,100.749995388031,10|0,0:0|0:0,0:0:0:0:
127,222,203729,1,0,0:0:0:0:
127,222,203891,2,0,P|71:236|-5:230,1,100.749995388031,10|0,0:0|0:0,0:0:0:0:
272,155,204213,6,0,B|292:182|286:212|286:212|354:178|435:216,1,201.499990776062,0|2,0:0|0:0,0:0:0:0:
351,277,204697,1,0,0:0:0:0:
361,121,204858,2,0,L|361:9,1,100.749995388031
296,45,205100,1,0,0:0:0:0:
296,45,205181,2,0,L|296:145,1,100.749995388031,8|0,0:0|0:0,0:0:0:0:
233,329,205504,2,0,B|195:355|135:346|135:346|89:307|97:224,1,201.499990776062,2|0,0:0|0:0,0:0:0:0:
233,329,205987,2,0,L|343:346,1,100.749995388031,10|0,0:0|0:0,0:0:0:0:
226,249,206310,1,0,0:0:0:0:
226,249,206471,2,0,L|336:266,1,100.749995388031,10|0,0:0|0:0,0:0:0:0:
200,186,206794,6,0,B|223:211|225:248|225:248|246:71,1,201.499990776062,4|2,0:0|0:0,0:0:0:0:
186,44,207278,1,0,0:0:0:0:
281,29,207439,2,0,P|336:40|377:77,1,100.749995388031
377,136,207681,1,0,0:0:0:0:
377,136,207762,2,0,P|370:202|397:268,1,100.749995388031,8|0,0:0|0:0,0:0:0:0:
468,105,208084,2,0,L|270:169,1,201.499990776062,2|0,0:0|0:0,0:0:0:0:
192,253,208568,2,0,P|156:196|163:143,1,100.749995388031,10|0,0:0|0:0,0:0:0:0:
266,282,208891,1,0,0:0:0:0:
266,282,209052,2,0,P|206:331|142:322,1,100.749995388031,10|0,0:0|0:0,0:0:0:0:
297,198,209374,6,0,B|395:169|406:226|506:191,1,201.499990776062,2|0,0:0|0:0,0:0:0:0:
432,126,209858,1,0,0:0:0:0:
348,260,210020,2,0,P|332:312|346:371,1,100.749995388031
404,314,210262,1,0,0:0:0:0:
404,314,210342,2,0,P|472:297|512:318,1,100.749995388031
258,253,210665,5,8,0:0:0:0:
455,366,210826,1,8,0:0:0:0:
339,356,210987,1,0,0:0:0:0:
356,258,211149,1,0,0:0:0:0:
258,253,211310,1,8,0:0:0:0:
285,159,211471,1,0,0:0:0:0:
285,159,211552,1,0,0:0:0:0:
285,159,211633,1,0,0:0:0:0:
188,133,211794,1,0,0:0:0:0:
361,118,211955,5,2,0:0:0:0:
256,192,212036,12,0,214536,0:0:0:0:
