osu file format v14

[General]
AudioFilename: audio.mp3
AudioLeadIn: 0
PreviewTime: 25342
Countdown: 0
SampleSet: Soft
StackLeniency: 0.4
Mode: 0
LetterboxInBreaks: 0
WidescreenStoryboard: 1

[Editor]
Bookmarks: 4536,36471,67439,88084,108729,129374,150020,170665,180987,191310
DistanceSpacing: 1.1
BeatDivisor: 8
GridSize: 32
TimelineZoom: 1.1

[Metadata]
Title:Blood Sweat & Tears
TitleUnicode:피 땀 눈물
Artist:BTS
ArtistUnicode:방탄소년단
Creator:[ M I N A K O ]
Version:Hard
Source:
Tags:curulean veyron kpop k-pop wings you never walk alone project full version rap monster suga jin jungkook v taehyung jimin jhope j-hope 랩몬스터 진 슈가 제이홉 지민 뷔 정국
BeatmapID:1351597
BeatmapSetID:637101

[Difficulty]
HPDrainRate:5
CircleSize:3.8
OverallDifficulty:5.6
ApproachRate:7
SliderMultiplier:2.2
SliderTickRate:1

[Events]
//Background and Video events
0,0,"BG.jpg",0,0
//Break Periods
2,67639,76862
2,129574,138797
2,170865,180087
//Storyboard Layer 0 (Background)
//Storyboard Layer 1 (Fail)
//Storyboard Layer 2 (Pass)
//Storyboard Layer 3 (Foreground)
//Storyboard Sound Samples

[TimingPoints]
5504,645.161290322581,4,2,1,80,1,0
5504,-111.111111111111,4,2,1,80,0,0
10665,-100,4,2,1,80,0,0
23568,-100,4,3,0,80,0,0
24858,-111.111111111111,4,2,1,80,0,0
26149,-83.3333333333333,4,2,2,80,0,1
35181,-83.3333333333333,4,3,0,80,0,1
36471,-111.111111111111,4,2,1,80,0,0
77762,-100,4,2,1,80,0,0
85504,-100,4,3,0,80,0,0
86794,-200,4,2,0,80,0,0
88084,-83.3333333333333,4,2,2,80,0,1
97116,-83.3333333333333,4,3,0,80,0,1
98326,-100,4,2,1,80,0,0
98407,-83.3333333333333,4,2,2,80,0,1
107439,-83.3333333333333,4,3,0,80,0,1
108729,-111.111111111111,4,2,1,80,0,0
113245,-200,4,2,1,20,0,0
113891,-111.111111111111,4,2,1,80,0,0
139697,-100,4,2,1,80,0,0
147439,-100,4,3,0,80,0,0
148729,-100,4,2,1,80,0,0
150020,-83.3333333333333,4,2,2,80,0,1
159052,-83.3333333333333,4,3,0,80,0,1
160262,-100,4,2,1,80,0,0
160342,-83.3333333333333,4,2,2,80,0,1
169374,-83.3333333333333,4,3,0,80,0,1
170665,-200,4,2,1,80,0,0
180987,-100,4,2,1,80,0,0
188729,-100,4,3,1,80,0,0
190020,-100,4,2,1,80,0,0
191310,-76.9230769230769,4,2,2,80,0,1
200342,-76.9230769230769,4,3,0,80,0,1
201552,-100,4,2,1,80,0,0
201633,-76.9230769230769,4,2,2,80,0,1
210665,-76.9230769230769,4,3,0,80,0,1
211955,-100,4,2,1,80,0,0
214536,-100,4,2,1,5,0,0

[Colours]
Combo1 : 63,71,114
Combo2 : 253,215,225
Combo3 : 229,229,229
Combo4 : 254,240,194

[HitObjects]
256,192,987,12,0,4536,0:0:0:0:
174,86,5504,6,0,P|165:131|170:219,2,123.74999622345,6|0|0,0:0|0:0|0:0,0:0:0:0:
243,28,6471,2,0,L|350:28,1,98.9999969787598,2|2,0:0|0:0,0:0:0:0:
416,205,7116,1,0,0:0:0:0:
416,205,7278,2,0,P|381:222|306:209,1,98.9999969787598,2|0,0:0|0:0,0:0:0:0:
359,138,7762,1,0,0:0:0:0:
169,109,8084,2,0,L|34:139,2,123.74999622345,2|0|0,0:0|0:0|0:0,0:0:0:0:
137,200,9052,2,0,L|27:225,1,98.9999969787598,0|2,0:0|0:0,0:0:0:0:
40,221,10020,1,0,0:0:0:0:
207,320,10342,1,0,0:0:0:0:
361,197,10665,6,0,P|404:193|426:195,2,55,2|0|0,0:0|0:0|0:0,0:0:0:0:
278,239,11149,2,0,L|270:104,1,110
223,54,11633,2,0,L|153:56,1,55
90,104,11955,1,2,0:0:0:0:
47,287,12278,1,0,0:0:0:0:
237,326,12600,1,2,0:0:0:0:
237,326,13245,6,0,L|177:330,2,55
327,322,13729,2,0,P|322:275|337:196,1,110
409,165,14213,2,0,L|472:171,1,55
375,84,14536,2,0,B|347:74|347:74|256:72,1,110,2|0,0:0|0:0,0:0:0:0:
115,197,15181,1,0,0:0:0:0:
263,315,15504,1,0,0:0:0:0:
425,210,15826,6,0,P|433:161|416:88,1,110,2|0,0:0|0:0,0:0:0:0:
354,47,16310,1,0,0:0:0:0:
277,93,16471,2,0,L|200:86,1,55,8|0,0:0|0:0,0:0:0:0:
144,35,16794,2,0,L|64:39,1,55
19,121,17116,2,0,L|45:303,1,165,2|2,0:0|0:0,0:0:0:0:
115,343,17762,1,8,0:0:0:0:
115,343,17923,2,0,P|153:333|185:332,1,55
330,342,18407,6,0,B|341:303|341:303|333:212,1,110,2|0,0:0|0:0,0:0:0:0:
322,144,18891,1,0,0:0:0:0:
263,77,19052,2,0,P|227:71|197:74,1,55,8|0,0:0|0:0,0:0:0:0:
147,138,19374,2,0,P|106:140|73:130,1,55
0,90,19697,2,0,P|36:93|33:210,1,165,2|0,0:0|0:0,0:0:0:0:
3,276,20342,1,8,0:0:0:0:
188,334,20665,1,0,0:0:0:0:
354,242,20987,6,0,L|425:253,2,55,6|0|0,0:0|0:0|0:0,0:0:0:0:
265,245,21471,2,0,P|275:200|288:183,1,55,0|8,0:0|0:0,0:0:0:0:
330,120,21794,1,0,0:0:0:0:
239,118,21955,2,0,L|172:117,1,55
94,120,22278,1,2,0:0:0:0:
112,313,22600,1,0,0:0:0:0:
299,268,22923,1,8,0:0:0:0:
299,268,23568,6,0,L|300:206,1,55,4|0,0:0|0:0,0:0:0:0:
235,155,23891,2,0,L|235:91,1,55
238,9,24213,1,8,0:0:0:0:
238,9,24374,1,0,0:0:0:0:
317,52,24536,2,0,P|356:57|389:51,2,55,0|8|2,0:0|0:0|0:0,0:0:0:0:
95,191,25826,5,0,0:0:0:0:
95,191,25907,1,0,0:0:0:0:
95,191,25987,1,0,0:0:0:0:
137,304,26149,6,0,P|201:317|280:303,1,131.99999597168,4|0,0:0|0:0,0:0:0:0:
343,254,26633,1,0,0:0:0:0:
301,173,26794,2,0,L|309:82,1,65.9999979858399,2|0,0:0|0:0,0:0:0:0:
392,69,27116,2,0,L|384:160,1,65.9999979858399,8|0,0:0|0:0,0:0:0:0:
319,31,27439,2,0,P|350:4|449:11,1,131.99999597168,2|0,0:0|0:0,0:0:0:0:
496,75,27923,2,0,L|483:149,1,65.9999979858399,10|0,0:0|0:0,0:0:0:0:
428,214,28245,1,0,0:0:0:0:
428,214,28407,2,0,L|415:288,1,65.9999979858399,10|0,0:0|0:0,0:0:0:0:
339,336,28729,5,0,0:0:0:0:
209,235,29052,2,0,L|133:239,1,65.9999979858399
178,151,29374,2,0,P|184:112|174:63,1,65.9999979858399,2|0,0:0|0:0,0:0:0:0:
108,29,29697,2,0,P|97:73|104:105,1,65.9999979858399,8|0,0:0|0:0,0:0:0:0:
199,15,30020,2,0,B|243:15|243:15|283:40|283:40|325:41,1,131.99999597168,2|0,0:0|0:0,0:0:0:0:
417,38,30504,2,0,L|409:121,1,65.9999979858399,10|0,0:0|0:0,0:0:0:0:
446,195,30826,1,0,0:0:0:0:
446,195,30987,2,0,L|438:278,1,65.9999979858399,10|0,0:0|0:0,0:0:0:0:
340,336,31310,6,0,B|305:349|305:349|208:340,1,131.99999597168,4|0,0:0|0:0,0:0:0:0:
139,283,31794,1,0,0:0:0:0:
186,202,31955,2,0,P|192:157|182:113,1,65.9999979858399,2|0,0:0|0:0,0:0:0:0:
105,165,32278,2,0,P|99:120|109:76,1,65.9999979858399,8|0,0:0|0:0,0:0:0:0:
204,40,32600,2,0,B|269:14|269:61|348:32,1,131.99999597168,2|0,0:0|0:0,0:0:0:0:
427,17,33084,2,0,L|415:91,1,65.9999979858399,10|0,0:0|0:0,0:0:0:0:
368,162,33407,1,0,0:0:0:0:
368,162,33568,2,0,L|356:236,1,65.9999979858399,10|0,0:0|0:0,0:0:0:0:
285,282,33891,6,0,B|190:301|190:301|68:274,1,197.99999395752
52,200,34536,2,0,P|57:153|74:122,1,65.9999979858399
125,68,34858,2,0,P|163:52|201:47,1,65.9999979858399,8|0,0:0|0:0,0:0:0:0:
312,23,35181,1,8,0:0:0:0:
387,122,35342,2,0,B|398:177|398:177|354:240|368:320,1,197.99999395752,8|0,0:0|0:0,0:0:0:0:
451,260,35987,2,0,L|500:265,2,32.99999899292
481,173,36310,1,0,0:0:0:0:
451,85,36471,6,0,B|442:46|450:22|450:22|377:62|302:23,1,197.99999395752,2|8,0:0|0:0,0:0:0:0:
159,139,37439,1,2,0:0:0:0:
266,290,37762,2,0,L|381:275,1,98.9999969787599,2|0,0:0|0:0,0:0:0:0:
455,255,38245,1,2,0:0:0:0:
395,189,38407,1,8,0:0:0:0:
482,24,38729,1,0,0:0:0:0:
295,61,39052,6,0,B|230:47|230:47|163:73|163:73|90:61,1,197.99999395752,2|0,0:0|0:0,0:0:0:0:
62,249,40020,1,2,0:0:0:0:
233,324,40342,2,0,L|339:311,1,98.9999969787599,2|0,0:0|0:0,0:0:0:0:
423,303,40826,2,0,L|444:328,2,24.74999924469,0|0|2,0:0|0:0|0:0,0:0:0:0:
459,116,41310,1,0,0:0:0:0:
459,116,41471,1,0,0:0:0:0:
459,116,41633,6,0,L|355:111,1,98.9999969787599,2|0,0:0|0:0,0:0:0:0:
277,148,42116,1,0,0:0:0:0:
277,148,42278,2,0,L|173:143,1,98.9999969787599,8|2,0:0|0:0,0:0:0:0:
87,166,42762,1,0,0:0:0:0:
87,166,42923,2,0,P|74:226|79:322,1,148.49999546814,2|2,0:0|0:0,0:0:0:0:
157,357,43568,1,8,0:0:0:0:
329,280,43891,1,0,0:0:0:0:
329,280,44052,1,0,0:0:0:0:
329,280,44213,6,0,L|418:296,2,74.2499977340699,2|0|0,0:0|0:0|0:0,0:0:0:0:
390,201,44858,2,0,L|479:217,2,74.2499977340699,8|0|0,0:0|0:0|0:0,0:0:0:0:
300,184,45504,2,0,B|200:148|200:226|97:177,1,197.99999395752,2|2,0:0|0:0,0:0:0:0:
161,105,46310,1,0,0:0:0:0:
337,45,46633,1,2,0:0:0:0:
337,45,46713,1,0,0:0:0:0:
337,45,46794,6,0,B|351:81|351:81|336:204,1,148.49999546814,4|0,0:0|0:0,0:0:0:0:
319,282,47439,2,0,L|390:299,2,49.4999984893799,8|0|10,0:0|0:0|0:0,0:0:0:0:
133,243,48084,2,0,P|145:207|137:89,1,148.49999546814,2|2,0:0|0:0,0:0:0:0:
92,21,48729,1,8,0:0:0:0:
183,33,48891,2,0,L|250:34,2,49.4999984893799,0|8|0,0:0|0:0|0:0,0:0:0:0:
225,118,49374,6,0,B|305:118|305:118|384:140,1,148.49999546814,2|0,0:0|0:0,0:0:0:0:
295,193,50020,1,8,0:0:0:0:
220,248,50181,2,0,P|217:286|221:311,2,49.4999984893799,0|8|0,0:0|0:0|0:0,0:0:0:0:
287,351,50665,2,0,P|231:370|142:347,1,148.49999546814,2|2,0:0|0:0,0:0:0:0:
125,331,51229,1,0,0:0:0:0:
125,331,51310,2,0,L|118:246,2,74.2499977340699,8|0|0,0:0|0:0|0:0,0:0:0:0:
52,215,51955,5,2,0:0:0:0:
52,215,52278,2,0,L|50:158,1,49.4999984893799,0|8,0:0|0:0,0:0:0:0:
125,62,52600,1,8,0:0:0:0:
125,62,52923,2,0,L|182:59,1,49.4999984893799,10|0,0:0|0:0,0:0:0:0:
266,51,53245,2,0,B|261:93|261:93|291:151|291:151|282:213,1,148.49999546814,0|10,0:0|0:0,0:0:0:0:
259,281,53891,2,0,L|352:299,2,74.2499977340699,8|0|0,0:0|0:0|0:0,0:0:0:0:
134,257,54536,5,2,0:0:0:0:
134,257,54858,2,0,P|132:208|137:188,1,49.4999984893799,0|8,0:0|0:0,0:0:0:0:
202,100,55181,1,8,0:0:0:0:
202,100,55504,2,0,P|246:94|268:97,1,49.4999984893799,8|0,0:0|0:0,0:0:0:0:
344,84,55826,6,0,P|332:131|345:239,1,148.49999546814,2|8,0:0|0:0,0:0:0:0:
404,299,56471,1,10,0:0:0:0:
246,300,56794,1,2,0:0:0:0:
155,136,57116,6,0,L|90:141,1,49.4999984893799,6|0,0:0|0:0,0:0:0:0:
148,219,57439,2,0,L|201:214,1,49.4999984893799
288,201,57762,1,8,0:0:0:0:
288,201,57923,2,0,L|288:263,2,49.4999984893799,0|8|0,0:0|0:0|0:0,0:0:0:0:
387,128,58407,6,0,P|392:88|388:63,1,49.4999984893799,4|0,0:0|0:0,0:0:0:0:
316,30,58729,2,0,P|308:64|311:91,1,49.4999984893799
227,122,59052,1,8,0:0:0:0:
227,122,59213,2,0,L|154:122,2,49.4999984893799,0|8|0,0:0|0:0|0:0,0:0:0:0:
136,207,59697,6,0,L|129:269,1,49.4999984893799,4|0,0:0|0:0,0:0:0:0:
217,288,60020,2,0,L|224:220,1,49.4999984893799,0|8,0:0|0:0,0:0:0:0:
294,177,60342,2,0,P|341:171|397:179,1,98.9999969787599,8|8,0:0|0:0,0:0:0:0:
391,365,60987,2,0,P|344:371|288:363,1,98.9999969787599,6|0,0:0|0:0,0:0:0:0:
222,311,61471,2,0,L|195:317,2,24.74999924469,2|0|8,0:0|0:0|0:0,0:0:0:0:
181,163,61955,1,0,0:0:0:0:
334,55,62278,6,0,P|375:53|401:58,1,49.4999984893799,6|0,0:0|0:0,0:0:0:0:
353,137,62600,2,0,P|328:138|303:136,1,49.4999984893799
227,76,62923,1,8,0:0:0:0:
227,76,63084,2,0,L|226:4,2,49.4999984893799,0|8|0,0:0|0:0|0:0,0:0:0:0:
175,194,63568,2,0,P|171:230|174:257,1,49.4999984893799,4|0,0:0|0:0,0:0:0:0:
250,294,63891,2,0,P|254:258|251:231,1,49.4999984893799
248,153,64213,1,8,0:0:0:0:
248,153,64536,2,0,L|343:157,1,74.2499977340699,8|0,0:0|0:0,0:0:0:0:
354,160,64858,6,0,P|352:122|374:54,1,98.9999969787599,4|0,0:0|0:0,0:0:0:0:
457,230,65504,1,8,0:0:0:0:
457,230,65665,2,0,L|461:284,1,49.4999984893799,0|2,0:0|0:0,0:0:0:0:
226,237,66149,6,0,P|172:209|241:283,1,395.999987915039,2|4,0:0|0:0,0:0:0:0:
74,329,77762,6,0,L|75:209,1,110,2|0,0:0|0:0,0:0:0:0:
77,128,78245,1,0,0:0:0:0:
134,62,78407,2,0,P|167:57|198:57,1,55,8|0,0:0|0:0,0:0:0:0:
276,82,78729,2,0,P|314:81|339:78,1,55,2|0,0:0|0:0,0:0:0:0:
424,35,79052,2,0,L|408:160,1,110,2|0,0:0|0:0,0:0:0:0:
352,215,79536,1,0,0:0:0:0:
352,215,79697,2,0,P|345:249|346:281,2,55,8|0|0,0:0|0:0|0:0,0:0:0:0:
172,266,80342,6,0,B|157:234|157:234|165:144,1,110,2|0,0:0|0:0,0:0:0:0:
167,71,80826,1,0,0:0:0:0:
243,22,80987,2,0,L|317:26,1,55,8|0,0:0|0:0,0:0:0:0:
357,93,81310,2,0,L|423:83,1,55
415,213,81633,2,0,P|344:156|364:84,1,165,2|0,0:0|0:0,0:0:0:0:
414,18,82278,1,8,0:0:0:0:
250,116,82600,1,0,0:0:0:0:
83,25,82923,6,0,L|21:35,2,55,2|0|0,0:0|0:0|0:0,0:0:0:0:
130,102,83407,2,0,L|63:113,1,55,2|8,0:0|0:0,0:0:0:0:
19,183,83729,1,0,0:0:0:0:
19,183,83891,2,0,P|12:224|14:242,1,55
70,309,84213,1,10,0:0:0:0:
246,238,84536,1,2,0:0:0:0:
411,333,84858,1,2,0:0:0:0:
246,238,85504,6,0,P|239:197|241:175,1,55,8|0,0:0|0:0,0:0:0:0:
305,115,85826,2,0,P|343:113|383:122,1,55,0|8,0:0|0:0,0:0:0:0:
435,169,86149,1,8,0:0:0:0:
435,169,86310,1,0,0:0:0:0:
386,245,86471,2,0,L|398:318,2,55,0|2|2,0:0|0:0|0:0,0:0:0:0:
179,306,87762,5,0,0:0:0:0:
179,306,87842,1,0,0:0:0:0:
179,306,87923,1,0,0:0:0:0:
128,189,88084,6,0,B|114:149|114:149|132:50,1,131.99999597168,4|0,0:0|0:0,0:0:0:0:
211,21,88568,1,0,0:0:0:0:
270,87,88729,2,0,L|335:82,1,65.9999979858399,2|0,0:0|0:0,0:0:0:0:
311,172,89052,2,0,L|219:180,1,65.9999979858399,8|0,0:0|0:0,0:0:0:0:
388,242,89374,2,0,P|410:206|395:117,1,131.99999597168,2|0,0:0|0:0,0:0:0:0:
322,64,89858,1,10,0:0:0:0:
322,64,90020,2,0,L|249:59,1,65.9999979858399
165,88,90342,1,10,0:0:0:0:
126,175,90504,1,0,0:0:0:0:
149,264,90665,6,0,B|178:291|178:291|214:323|286:309,1,131.99999597168
328,240,91149,1,0,0:0:0:0:
402,297,91310,2,0,P|410:334|407:369,1,65.9999979858399
492,333,91633,2,0,P|484:285|488:259,1,65.9999979858399,8|0,0:0|0:0,0:0:0:0:
506,141,91955,2,0,B|440:130|440:130|358:141,1,131.99999597168,2|0,0:0|0:0,0:0:0:0:
291,171,92439,1,10,0:0:0:0:
291,171,92600,2,0,P|289:122|298:87,1,65.9999979858399
328,22,92923,1,10,0:0:0:0:
239,29,93084,1,0,0:0:0:0:
108,40,93245,6,0,B|111:89|85:126|85:126|109:114|131:115,1,131.99999597168,4|0,0:0|0:0,0:0:0:0:
123,206,93729,1,0,0:0:0:0:
52,262,93891,2,0,P|94:292|134:294,1,65.9999979858399,2|0,0:0|0:0,0:0:0:0:
197,295,94213,2,0,P|227:284|252:262,1,65.9999979858399,8|0,0:0|0:0,0:0:0:0:
278,140,94536,2,0,B|342:112|342:162|416:133,1,131.99999597168,2|0,0:0|0:0,0:0:0:0:
368,53,95020,1,10,0:0:0:0:
368,53,95181,2,0,P|322:46|290:47,1,65.9999979858399
217,77,95504,1,10,0:0:0:0:
135,35,95665,1,0,0:0:0:0:
61,131,95826,5,6,0:0:0:0:
61,131,95987,2,0,P|50:189|57:274,1,131.99999597168
123,328,96471,1,0,0:0:0:0:
123,328,96633,2,0,L|218:314,1,65.9999979858399,0|8,0:0|0:0,0:0:0:0:
344,218,97116,1,8,0:0:0:0:
344,218,97278,2,0,B|357:175|357:175|343:73,1,131.99999597168,8|0,0:0|0:0,0:0:0:0:
285,19,97762,2,0,L|203:29,1,65.9999979858399
157,102,98084,2,0,L|225:117,1,65.9999979858399
82,142,98407,6,0,P|66:188|86:276,1,131.99999597168,4|0,0:0|0:0,0:0:0:0:
149,331,98891,1,0,0:0:0:0:
223,277,99052,2,0,L|305:285,1,65.9999979858399,2|0,0:0|0:0,0:0:0:0:
361,344,99374,2,0,L|432:350,1,65.9999979858399,8|0,0:0|0:0,0:0:0:0:
403,229,99697,2,0,P|409:114|417:91,1,131.99999597168,2|0,0:0|0:0,0:0:0:0:
485,42,100181,1,10,0:0:0:0:
485,42,100342,2,0,P|442:19|412:13,1,65.9999979858399
343,48,100665,1,10,0:0:0:0:
259,20,100826,1,0,0:0:0:0:
155,92,100987,6,0,B|144:135|144:135|157:181|157:181|145:230,1,131.99999597168
121,308,101471,1,0,0:0:0:0:
210,286,101633,2,0,P|249:290|286:305,1,65.9999979858399
288,309,101874,1,0,0:0:0:0:
302,320,101955,2,0,P|339:321|374:316,1,65.9999979858399,8|0,0:0|0:0,0:0:0:0:
441,214,102278,2,0,P|454:155|422:78,1,131.99999597168,2|0,0:0|0:0,0:0:0:0:
360,33,102762,1,10,0:0:0:0:
360,33,102923,2,0,L|278:37,1,65.9999979858399
202,42,103245,1,10,0:0:0:0:
273,113,103407,1,0,0:0:0:0:
120,108,103568,6,0,P|110:202|118:252,1,131.99999597168,4|0,0:0|0:0,0:0:0:0:
147,324,104052,1,0,0:0:0:0:
228,279,104213,2,0,L|306:291,1,65.9999979858399,2|0,0:0|0:0,0:0:0:0:
380,252,104536,2,0,L|448:244,1,65.9999979858399,8|0,0:0|0:0,0:0:0:0:
313,211,104858,2,0,L|285:73,1,131.99999597168,2|0,0:0|0:0,0:0:0:0:
214,30,105342,1,10,0:0:0:0:
214,30,105504,2,0,P|178:28|134:47,1,65.9999979858399
90,109,105826,1,10,0:0:0:0:
134,190,105987,1,0,0:0:0:0:
56,295,106149,5,6,0:0:0:0:
56,295,106310,2,0,L|195:296,1,131.99999597168
263,237,106794,1,0,0:0:0:0:
263,237,106955,2,0,L|352:237,1,65.9999979858399,0|8,0:0|0:0,0:0:0:0:
172,118,107439,1,8,0:0:0:0:
172,118,107600,2,0,P|206:89|297:82,1,131.99999597168,8|0,0:0|0:0,0:0:0:0:
252,164,108084,1,0,0:0:0:0:
171,215,108245,2,0,P|137:215|112:207,2,32.99999899292,0|0|2,0:0|0:0|0:0,0:0:0:0:
235,286,108568,1,0,0:0:0:0:
365,188,108729,6,0,P|385:141|431:104,1,98.9999969787599,6|0,0:0|0:0,0:0:0:0:
454,190,109213,1,0,0:0:0:0:
412,269,109374,2,0,P|376:234|366:171,1,98.9999969787599,8|2,0:0|0:0,0:0:0:0:
250,69,110020,2,0,L|167:71,2,74.2499977340699,2|0|2,0:0|0:0|0:0,0:0:0:0:
341,62,110665,1,8,0:0:0:0:
239,229,110987,1,2,0:0:0:0:
239,229,111149,1,0,0:0:0:0:
239,229,111310,6,0,L|132:229,1,98.9999969787599,2|0,0:0|0:0,0:0:0:0:
70,162,111794,1,0,0:0:0:0:
157,123,111955,2,0,L|264:123,1,98.9999969787599,8|0,0:0|0:0,0:0:0:0:
349,124,112439,1,0,0:0:0:0:
302,202,112600,1,0,0:0:0:0:
302,202,113245,5,2,0:0:0:0:
302,202,113891,6,0,B|295:238|295:238|305:317,1,98.9999969787599,2|0,0:0|0:0,0:0:0:0:
386,340,114374,1,0,0:0:0:0:
430,262,114536,2,0,B|452:278|452:278|451:202,1,98.9999969787599,8|2,0:0|0:0,0:0:0:0:
377,58,115181,2,0,L|458:62,2,74.2499977340699,2|0|2,0:0|0:0|0:0,0:0:0:0:
287,79,115826,1,8,0:0:0:0:
138,28,116149,1,0,0:0:0:0:
138,28,116310,1,0,0:0:0:0:
138,28,116471,6,0,P|117:71|124:135,1,98.9999969787599,2|0,0:0|0:0,0:0:0:0:
170,198,116955,1,0,0:0:0:0:
170,198,117116,2,0,L|278:193,1,98.9999969787599,8|0,0:0|0:0,0:0:0:0:
344,140,117600,1,0,0:0:0:0:
344,140,117762,2,0,P|356:178|339:253,1,98.9999969787599,2|0,0:0|0:0,0:0:0:0:
292,306,118245,1,0,0:0:0:0:
441,250,118407,2,0,L|434:189,1,49.4999984893799,6|0,0:0|0:0,0:0:0:0:
451,114,118729,1,0,0:0:0:0:
375,69,118891,1,0,0:0:0:0:
375,69,118971,1,0,0:0:0:0:
375,69,119052,6,0,P|331:81|223:65,1,148.49999546814,4|0,0:0|0:0,0:0:0:0:
155,15,119697,1,8,0:0:0:0:
86,74,119858,2,0,L|93:131,2,49.4999984893799
36,191,120342,2,0,P|69:205|174:155,1,148.49999546814,4|0,0:0|0:0,0:0:0:0:
194,78,120987,1,8,0:0:0:0:
280,208,121310,2,0,L|265:300,1,74.2499977340699,8|0,0:0|0:0,0:0:0:0:
265,309,121633,6,0,L|326:308,1,49.4999984893799,4|0,0:0|0:0,0:0:0:0:
398,260,121955,2,0,P|406:224|403:189,1,49.4999984893799
365,134,122278,2,0,P|363:102|366:72,1,49.4999984893799,8|0,0:0|0:0,0:0:0:0:
447,50,122600,2,0,P|449:82|446:112,1,49.4999984893799
360,9,122923,2,0,L|197:11,1,148.49999546814,2|0,0:0|0:0,0:0:0:0:
125,37,123568,1,8,0:0:0:0:
167,192,123891,2,0,L|154:257,1,49.4999984893799
228,136,124213,6,0,P|177:141|119:118,1,98.9999969787599,4|0,0:0|0:0,0:0:0:0:
190,57,124697,2,0,P|218:51|253:51,1,49.4999984893799,0|8,0:0|0:0,0:0:0:0:
326,79,125020,1,0,0:0:0:0:
383,12,125181,2,0,P|398:28|416:65,1,49.4999984893799,2|0,0:0|0:0,0:0:0:0:
385,144,125504,2,0,P|368:205|370:247,1,98.9999969787599,2|0,0:0|0:0,0:0:0:0:
405,326,125987,1,2,0:0:0:0:
314,310,126149,1,8,0:0:0:0:
194,207,126471,1,8,0:0:0:0:
194,207,126633,1,0,0:0:0:0:
194,207,126794,6,0,L|195:147,1,49.4999984893799
265,101,127116,2,0,L|265:33,1,49.4999984893799
350,22,127439,2,8,L|394:18,2,24.74999924469
385,108,127762,1,0,0:0:0:0:
385,108,127923,1,0,0:0:0:0:
326,220,128084,6,0,P|355:251|471:184,2,197.99999395752,2|2|4,0:0|0:0|0:0,0:0:0:0:
145,111,139697,6,0,P|206:102|269:115,1,110,6|0,0:0|0:0,0:0:0:0:
197,186,140181,1,0,0:0:0:0:
126,243,140342,2,0,L|158:309,1,55,8|0,0:0|0:0,0:0:0:0:
240,294,140665,2,0,L|263:244,1,55,2|0,0:0|0:0,0:0:0:0:
310,165,140987,2,0,L|425:165,1,110,2|0,0:0|0:0,0:0:0:0:
488,108,141471,2,0,P|504:157|504:172,1,55,2|8,0:0|0:0,0:0:0:0:
457,240,141794,1,0,0:0:0:0:
457,240,141955,2,0,P|417:255|396:255,1,55
314,243,142278,6,0,L|182:238,1,110,2|0,0:0|0:0,0:0:0:0:
118,273,142762,1,0,0:0:0:0:
88,189,142923,2,0,L|96:116,2,55,8|0|0,0:0|0:0|0:0,0:0:0:0:
175,151,143407,1,0,0:0:0:0:
24,72,143568,2,0,B|104:23|106:78|192:10,1,165,2|0,0:0|0:0,0:0:0:0:
269,36,144213,2,0,L|347:34,1,55,8|0,0:0|0:0,0:0:0:0:
299,118,144536,2,0,L|372:116,1,55
434,162,144858,6,0,P|442:200|441:226,2,55,2|0|0,0:0|0:0|0:0,0:0:0:0:
351,204,145342,2,0,P|356:238|354:269,1,55,0|8,0:0|0:0,0:0:0:0:
284,318,145665,1,0,0:0:0:0:
284,318,145826,2,0,L|215:315,1,55
151,268,146149,1,2,0:0:0:0:
171,77,146471,1,0,0:0:0:0:
363,82,146794,1,8,0:0:0:0:
171,77,147439,6,0,L|105:73,1,55,8|0,0:0|0:0,0:0:0:0:
137,165,147762,1,0,0:0:0:0:
208,221,147923,2,0,L|275:220,1,55,8|0,0:0|0:0,0:0:0:0:
337,160,148245,1,0,0:0:0:0:
347,251,148407,2,0,L|332:313,2,55,8|0|2,0:0|0:0|0:0,0:0:0:0:
177,85,149697,5,0,0:0:0:0:
177,85,149778,1,0,0:0:0:0:
177,85,149858,1,0,0:0:0:0:
125,241,150020,6,0,B|110:280|110:280|159:264|212:282,1,131.99999597168,4|0,0:0|0:0,0:0:0:0:
276,329,150504,1,0,0:0:0:0:
325,252,150665,2,0,L|323:182,1,65.9999979858399,2|0,0:0|0:0,0:0:0:0:
406,220,150987,2,0,L|406:298,1,65.9999979858399,8|0,0:0|0:0,0:0:0:0:
485,191,151310,2,0,L|483:47,1,131.99999597168,2|0,0:0|0:0,0:0:0:0:
403,17,151794,2,0,L|327:17,1,65.9999979858399,10|0,0:0|0:0,0:0:0:0:
265,78,152116,1,0,0:0:0:0:
184,122,152278,2,0,L|94:124,1,65.9999979858399,10|0,0:0|0:0,0:0:0:0:
177,231,152600,6,0,P|226:242|304:218,1,131.99999597168
366,156,153084,1,0,0:0:0:0:
394,246,153245,2,0,P|397:286|385:324,1,65.9999979858399
317,362,153568,2,0,P|275:364|228:354,1,65.9999979858399,8|0,0:0|0:0,0:0:0:0:
153,290,153891,2,0,B|138:252|138:252|113:194|155:142,1,131.99999597168,2|0,0:0|0:0,0:0:0:0:
219,212,154374,1,10,0:0:0:0:
277,146,154536,2,0,L|351:158,1,65.9999979858399
410,223,154858,1,10,0:0:0:0:
435,135,155020,1,0,0:0:0:0:
404,263,155181,6,0,B|395:306|395:306|332:290|302:297,1,131.99999597168,4|0,0:0|0:0,0:0:0:0:
221,320,155665,1,0,0:0:0:0:
134,289,155826,2,0,L|49:268,1,65.9999979858399,2|0,0:0|0:0,0:0:0:0:
137,200,156149,2,0,L|206:189,1,65.9999979858399,8|0,0:0|0:0,0:0:0:0:
88,132,156471,2,0,B|77:86|77:86|112:-7,1,131.99999597168,2|0,0:0|0:0,0:0:0:0:
187,53,156955,2,0,L|270:46,1,65.9999979858399,10|0,0:0|0:0,0:0:0:0:
341,22,157278,1,0,0:0:0:0:
308,107,157439,2,0,L|297:186,1,65.9999979858399,10|0,0:0|0:0,0:0:0:0:
346,285,157762,5,2,0:0:0:0:
346,285,157923,2,0,L|204:285,1,131.99999597168,2|0,0:0|0:0,0:0:0:0:
117,262,158407,1,2,0:0:0:0:
117,262,158568,2,0,P|107:213|112:185,1,65.9999979858399,2|0,0:0|0:0,0:0:0:0:
172,49,159052,1,8,0:0:0:0:
172,49,159213,2,0,L|249:40,2,65.9999979858399,8|0|0,0:0|0:0|0:0,0:0:0:0:
228,126,159697,1,2,0:0:0:0:
316,89,159858,2,0,L|319:40,2,32.99999899292
314,182,160181,1,0,0:0:0:0:
234,284,160342,6,0,B|187:259|141:286|141:286|102:251,1,131.99999597168,4|0,0:0|0:0,0:0:0:0:
157,185,160826,1,0,0:0:0:0:
99,119,160987,2,0,P|94:77|107:38,1,65.9999979858399,2|0,0:0|0:0,0:0:0:0:
185,16,161310,2,0,P|194:74|183:98,1,65.9999979858399,8|0,0:0|0:0,0:0:0:0:
299,20,161633,2,0,B|331:5|331:5|428:5,1,131.99999597168,2|0,0:0|0:0,0:0:0:0:
374,84,162116,1,10,0:0:0:0:
303,144,162278,2,0,L|314:228,1,65.9999979858399
397,242,162600,1,10,0:0:0:0:
321,293,162762,1,0,0:0:0:0:
202,246,162923,6,0,P|170:164|177:104,1,131.99999597168
235,44,163407,1,0,0:0:0:0:
301,107,163568,2,0,P|350:109|384:99,1,65.9999979858399
388,98,163810,1,0,0:0:0:0:
410,90,163891,2,0,L|409:175,1,65.9999979858399,8|0,0:0|0:0,0:0:0:0:
380,277,164213,2,0,L|228:277,1,131.99999597168,2|0,0:0|0:0,0:0:0:0:
174,222,164697,2,0,L|168:152,1,65.9999979858399,10|0,0:0|0:0,0:0:0:0:
225,82,165020,1,0,0:0:0:0:
176,7,165181,2,0,L|99:12,1,65.9999979858399,10|0,0:0|0:0,0:0:0:0:
225,82,165504,6,0,B|290:68|290:68|362:88,1,131.99999597168,4|0,0:0|0:0,0:0:0:0:
425,143,165987,1,0,0:0:0:0:
354,198,166149,2,0,P|347:248|351:276,1,65.9999979858399,2|0,0:0|0:0,0:0:0:0:
381,350,166471,2,0,L|294:351,1,65.9999979858399,8|0,0:0|0:0,0:0:0:0:
214,279,166794,2,0,P|170:271|93:326,1,131.99999597168,2|0,0:0|0:0,0:0:0:0:
179,353,167278,2,0,P|208:358|266:348,1,65.9999979858399,10|0,0:0|0:0,0:0:0:0:
303,284,167600,1,0,0:0:0:0:
271,195,167762,2,0,P|265:144|275:107,1,65.9999979858399,10|0,0:0|0:0,0:0:0:0:
352,33,168084,5,2,0:0:0:0:
352,33,168245,2,0,L|495:33,1,131.99999597168,2|0,0:0|0:0,0:0:0:0:
425,116,168729,1,2,0:0:0:0:
425,116,168891,2,0,L|337:117,1,65.9999979858399,2|8,0:0|0:0,0:0:0:0:
208,48,169374,5,8,0:0:0:0:
147,116,169536,2,0,P|143:168|148:198,2,65.9999979858399,8|0|0,0:0|0:0|0:0,0:0:0:0:
235,155,170020,1,2,0:0:0:0:
206,252,170181,1,0,0:0:0:0:
206,252,170262,1,0,0:0:0:0:
206,252,170342,2,0,P|247:257|288:243,1,65.9999979858399
402,178,170665,5,6,0:0:0:0:
371,102,180987,6,0,B|389:130|389:130|377:216,1,110,14|0,0:0|0:0,0:0:0:0:
316,270,181471,1,0,0:0:0:0:
316,270,181633,2,0,P|276:277|240:271,1,55,8|0,0:0|0:0,0:0:0:0:
197,214,181955,2,0,P|154:205|85:217,1,110,0|8,0:0|0:0,0:0:0:0:
74,228,182600,1,8,0:0:0:0:
60,244,182923,2,0,L|54:163,1,55,8|0,0:0|0:0,0:0:0:0:
112,116,183245,2,0,L|103:46,1,55
226,78,183568,6,0,L|351:68,1,110,10|0,0:0|0:0,0:0:0:0:
415,20,184052,1,0,0:0:0:0:
415,20,184213,2,0,P|427:58|426:89,1,55,8|0,0:0|0:0,0:0:0:0:
395,160,184536,2,0,B|387:191|387:191|399:275,1,110,0|8,0:0|0:0,0:0:0:0:
405,285,185181,1,8,0:0:0:0:
414,303,185504,2,0,L|350:308,1,55,8|0,0:0|0:0,0:0:0:0:
273,288,185826,2,0,L|202:280,1,55
107,345,186149,6,0,L|107:223,1,110,4|0,0:0|0:0,0:0:0:0:
141,153,186633,1,0,0:0:0:0:
197,80,186794,2,0,P|252:69|271:68,1,55,8|0,0:0|0:0,0:0:0:0:
332,113,187116,2,0,P|374:117|422:107,1,82.5
426,86,187439,2,0,L|432:209,1,110,6|0,0:0|0:0,0:0:0:0:
372,271,187923,1,0,0:0:0:0:
301,214,188084,2,0,P|270:209|232:218,1,55,8|0,0:0|0:0,0:0:0:0:
168,269,188407,2,0,L|155:163,1,82.5
152,153,188729,5,12,0:0:0:0:
214,79,188891,2,0,P|254:69|291:68,1,55,8|0,0:0|0:0,0:0:0:0:
340,121,189213,2,0,P|371:123|408:117,1,55,8|0,0:0|0:0,0:0:0:0:
461,51,189536,1,0,0:0:0:0:
492,135,189697,1,0,0:0:0:0:
443,211,189858,2,0,L|417:255,2,27.5,0|0|2,0:0|0:0|0:0,0:0:0:0:
228,289,190665,5,2,0:0:0:0:
178,139,190987,1,0,0:0:0:0:
178,139,191068,1,0,0:0:0:0:
178,139,191149,1,0,0:0:0:0:
277,58,191310,6,0,P|318:45|423:55,1,142.99999345398,4|0,0:0|0:0,0:0:0:0:
350,118,191794,1,0,0:0:0:0:
422,186,191955,2,0,L|498:171,1,71.4999967269899
459,260,192278,2,0,L|357:278,1,71.4999967269899,8|0,0:0|0:0,0:0:0:0:
265,292,192600,2,0,B|194:264|194:329|115:289,1,142.99999345398,2|0,0:0|0:0,0:0:0:0:
167,212,193084,2,10,L|166:119,1,71.4999967269899
226,66,193407,1,0,0:0:0:0:
297,123,193568,2,0,P|342:130|379:125,1,71.4999967269899,10|0,0:0|0:0,0:0:0:0:
472,59,193891,6,0,P|456:122|475:207,1,142.99999345398
508,280,194374,1,0,0:0:0:0:
430,328,194536,2,0,L|349:313,1,71.4999967269899
307,241,194858,2,0,L|219:253,1,71.4999967269899,8|0,0:0|0:0,0:0:0:0:
141,333,195181,2,0,P|113:266|130:191,1,142.99999345398,2|0,0:0|0:0,0:0:0:0:
186,126,195665,2,0,L|267:125,1,71.4999967269899,10|0,0:0|0:0,0:0:0:0:
330,62,195987,1,0,0:0:0:0:
400,125,196149,2,0,L|493:124,1,71.4999967269899,10|0,0:0|0:0,0:0:0:0:
329,184,196471,6,0,B|330:292|330:292|336:267|352:240,1,142.99999345398,4|0,0:0|0:0,0:0:0:0:
414,315,196955,1,0,0:0:0:0:
468,238,197116,2,0,L|458:150,1,71.4999967269899
389,106,197439,2,0,L|381:8,1,71.4999967269899,8|0,0:0|0:0,0:0:0:0:
265,85,197762,2,0,P|190:97|96:90,1,142.99999345398,2|0,0:0|0:0,0:0:0:0:
121,189,198245,2,0,L|193:187,1,71.4999967269899,10|0,0:0|0:0,0:0:0:0:
157,275,198568,1,0,0:0:0:0:
157,275,198729,2,0,L|229:273,1,71.4999967269899,10|0,0:0|0:0,0:0:0:0:
354,262,199052,6,0,P|403:257|465:347,1,142.99999345398
377,347,199536,1,0,0:0:0:0:
354,262,199697,2,0,L|344:180,1,71.4999967269899
410,129,200020,2,0,L|401:44,1,71.4999967269899,8|0,0:0|0:0,0:0:0:0:
281,21,200342,5,8,0:0:0:0:
188,103,200504,2,0,P|145:104|30:97,1,142.99999345398,8|0,0:0|0:0,0:0:0:0:
93,13,200987,1,8,0:0:0:0:
201,18,201149,1,0,0:0:0:0:
201,18,201229,1,0,0:0:0:0:
201,18,201310,1,0,0:0:0:0:
278,75,201471,1,0,0:0:0:0:
213,184,201633,6,0,P|205:240|241:329,1,142.99999345398,4|0,0:0|0:0,0:0:0:0:
307,261,202116,1,0,0:0:0:0:
385,304,202278,2,0,P|393:255|380:206,1,71.4999967269899
343,157,202600,2,0,P|317:98|314:60,1,71.4999967269899,8|0,0:0|0:0,0:0:0:0:
455,72,202923,2,0,P|383:93|299:88,1,142.99999345398,2|0,0:0|0:0,0:0:0:0:
236,40,203407,1,10,0:0:0:0:
170,108,203568,2,0,L|177:192,1,71.4999967269899
88,150,203891,2,0,L|82:65,1,71.4999967269899,10|0,0:0|0:0,0:0:0:0:
28,227,204213,6,0,B|28:271|28:271|26:335|105:365,1,142.99999345398
165,309,204697,1,0,0:0:0:0:
245,348,204858,2,0,L|342:348,1,71.4999967269899
336,340,205100,1,0,0:0:0:0:
354,333,205181,2,0,L|452:335,1,71.4999967269899,8|0,0:0|0:0,0:0:0:0:
388,218,205504,2,0,P|381:84|388:55,1,142.99999345398,2|0,0:0|0:0,0:0:0:0:
463,126,205987,1,10,0:0:0:0:
382,76,206149,2,0,L|307:67,1,71.4999967269899
234,118,206471,2,0,L|152:124,1,71.4999967269899,10|0,0:0|0:0,0:0:0:0:
68,198,206794,6,0,P|150:171|157:101,1,142.99999345398,4|0,0:0|0:0,0:0:0:0:
73,105,207278,1,0,0:0:0:0:
138,32,207439,2,0,P|188:28|225:44,1,71.4999967269899
223,46,207681,1,0,0:0:0:0:
239,55,207762,2,0,P|281:62|318:54,1,71.4999967269899,8|0,0:0|0:0,0:0:0:0:
426,9,208084,2,0,B|406:58|406:58|415:171,1,142.99999345398,2|0,0:0|0:0,0:0:0:0:
424,238,208568,1,10,0:0:0:0:
340,200,208729,2,0,P|295:197|252:205,1,71.4999967269899
303,285,209052,1,10,0:0:0:0:
303,285,209213,1,0,0:0:0:0:
221,139,209374,6,0,P|224:78|313:24,1,142.99999345398
313,117,209858,1,0,0:0:0:0:
378,40,210020,2,0,L|463:38,1,71.4999967269899
494,120,210342,2,0,L|417:120,1,71.4999967269899,8|0,0:0|0:0,0:0:0:0:
460,246,210665,5,8,0:0:0:0:
337,286,210826,2,0,B|253:270|283:314|183:288,1,142.99999345398,8|0,0:0|0:0,0:0:0:0:
236,207,211310,1,0,0:0:0:0:
161,145,211471,1,0,0:0:0:0:
161,145,211552,1,0,0:0:0:0:
161,145,211633,1,0,0:0:0:0:
242,104,211794,1,0,0:0:0:0:
140,30,211955,5,2,0:0:0:0:
256,192,212116,12,0,214536,0:0:0:0:
