osu file format v14

[General]
AudioFilename: audio.mp3
AudioLeadIn: 0
PreviewTime: 91693
Countdown: 0
SampleSet: Soft
StackLeniency: 0.4
Mode: 0
LetterboxInBreaks: 0
WidescreenStoryboard: 0

[Editor]
DistanceSpacing: 1
BeatDivisor: 8
GridSize: 4
TimelineZoom: 2.150001

[Metadata]
Title:Black Swan
TitleUnicode:Black Swan
Artist:BTS
ArtistUnicode:방탄소년단
Creator:DeRandom Otaku
Version:Mystic
Source:
Tags:bighit entertainment wings rap monster jungkook suga jimin j-hope v jin hot yoongi 랩몬스터 진 슈가 제이홉 지민 뷔 정국 k-pop kpop korean pop bangtan boys ren fuju [_m_i_n_a_k_o_] lune
BeatmapID:2367263
BeatmapSetID:1133490

[Difficulty]
HPDrainRate:6
CircleSize:3.9
OverallDifficulty:8
ApproachRate:9
SliderMultiplier:2
SliderTickRate:1

[Events]
//Background and Video events
0,0,"BG.jpg",0,0
//Break Periods
//Storyboard Layer 0 (Background)
//Storyboard Layer 1 (Fail)
//Storyboard Layer 2 (Pass)
//Storyboard Layer 3 (Foreground)
//Storyboard Layer 4 (Overlay)
//Storyboard Sound Samples

[TimingPoints]
265,408.163265306122,4,2,0,60,1,0
13326,-172.413793103448,4,2,0,45,0,0
25162,-147.058823529412,4,2,0,45,0,0
25571,-128.205128205128,4,2,0,45,0,0
25979,-113.636363636364,4,2,0,45,0,0
26387,-100,4,2,0,62,0,0
49244,-125,4,2,0,55,0,0
52509,-142.857142857143,4,2,0,58,0,0
59040,-125,4,2,0,58,0,0
63938,-200,4,2,0,58,0,0
65571,-90.9090909090909,4,2,0,70,0,1
67611,-68.9655172413793,4,2,0,70,0,1
68020,-62.5,4,2,0,70,0,1
68428,-52.6315789473684,4,2,0,70,0,1
68836,-90.9090909090909,4,2,0,70,0,1
70877,-62.5,4,2,0,70,0,1
71285,-54.054054054054,4,2,0,70,0,1
71693,-52.6315789473684,4,2,0,70,0,1
72101,-90.9090909090909,4,2,0,70,0,1
74142,-60.6060606060606,4,2,0,70,0,1
74550,-52.6315789473684,4,2,0,70,0,1
74958,-45.4545454545455,4,2,0,70,0,1
75367,-45.4545454545455,4,2,0,70,0,0
75775,-117.647058823529,4,2,0,70,0,0
76999,-86.9565217391304,4,2,0,70,0,0
78632,-90.9090909090909,4,2,0,70,0,1
80673,-66.6666666666667,4,2,0,70,0,1
81081,-52.6315789473684,4,2,0,70,0,1
81489,-46.5116279069767,4,2,0,70,0,1
81897,-90.9090909090909,4,2,0,70,0,1
84346,-57.1428571428571,4,2,0,70,0,1
84754,-50,4,2,0,70,0,1
85162,-90.9090909090909,4,2,0,70,0,1
87203,-58.8235294117647,4,2,0,70,0,1
87611,-51.2820512820513,4,2,0,70,0,1
88020,-44.4444444444445,4,2,0,70,0,1
88428,-117.647058823529,4,2,0,70,0,0
90060,-86.9565217391304,4,2,0,70,0,0
91693,-192.307692307692,4,2,0,35,0,0
103122,-172.413793103448,4,2,0,35,0,0
103530,-147.058823529412,4,2,0,35,0,0
103938,-128.205128205128,4,2,0,35,0,0
104346,-113.636363636364,4,2,0,35,0,0
104754,-100,4,2,0,65,0,0
117816,-100,4,2,0,60,0,0
128428,-125,4,2,0,55,0,0
130877,-142.857142857143,4,2,0,58,0,0
137407,-125,4,2,0,58,0,0
142305,-200,4,2,0,58,0,0
143938,-90.9090909090909,4,2,0,70,0,1
145979,-68.9655172413793,4,2,0,70,0,1
146387,-62.5,4,2,0,70,0,1
146795,-52.6315789473684,4,2,0,70,0,1
147203,-90.9090909090909,4,2,0,70,0,1
149244,-62.5,4,2,0,70,0,1
149652,-54.054054054054,4,2,0,70,0,1
150060,-52.6315789473684,4,2,0,70,0,1
150469,-90.9090909090909,4,2,0,70,0,1
152509,-60.6060606060606,4,2,0,70,0,1
152918,-45.4545454545455,4,2,0,70,0,1
153326,-55.5555555555556,4,2,0,70,0,1
153734,-45.4545454545455,4,2,0,70,0,0
154142,-117.647058823529,4,2,0,70,0,0
155367,-86.9565217391304,4,2,0,70,0,0
156999,-90.9090909090909,4,2,0,70,0,1
159040,-66.6666666666667,4,2,0,70,0,1
159448,-52.6315789473684,4,2,0,70,0,1
159856,-51.2820512820513,4,2,0,70,0,1
160264,-90.9090909090909,4,2,0,70,0,1
162713,-57.1428571428571,4,2,0,70,0,1
163122,-45.4545454545455,4,2,0,70,0,1
163530,-90.9090909090909,4,2,0,70,0,1
165571,-58.8235294117647,4,2,0,70,0,1
165979,-57.1428571428571,4,2,0,70,0,1
166387,-50,4,2,0,70,0,1
166795,-117.647058823529,4,2,0,70,0,0
168428,-86.9565217391304,4,2,0,70,0,0
170060,-200,4,2,0,35,0,0
183122,-250,4,2,0,25,0,0

[Colours]
Combo1 : 128,128,255
Combo2 : 192,192,192
Combo3 : 255,128,128
Combo4 : 255,255,128

[HitObjects]
426,192,13326,5,2,0:2:0:0:
351,147,13530,1,0,0:0:0:0:
350,235,13734,2,0,L|358:313,1,58.0000017700196,0|0,0:0|0:0,0:0:0:0:
269,304,14142,2,0,L|263:246,1,58.0000017700196,8|0,0:2|0:0,0:0:0:0:
200,186,14550,1,0,0:0:0:0:
242,110,14754,1,0,0:0:0:0:
150,54,14958,6,0,L|156:112,1,58.0000017700196,2|0,0:2|0:0,0:0:0:0:
79,155,15367,2,0,L|73:97,1,58.0000017700196,0|0,0:0|0:0,0:0:0:0:
33,229,15775,2,0,P|80:202|142:202,1,116.000003540039,10|0,0:2|0:0,0:0:0:0:
378,310,16591,5,2,0:2:0:0:
423,235,16795,1,0,0:0:0:0:
353,182,16999,2,0,P|347:153|352:125,1,58.0000017700196,0|0,0:0|0:0,0:0:0:0:
436,46,17407,2,0,P|441:74|436:103,1,58.0000017700196,8|0,0:2|0:0,0:0:0:0:
287,51,17816,1,0,0:0:0:0:
360,3,18020,1,0,0:0:0:0:
430,179,18224,6,0,L|426:239,1,58.0000017700196,2|0,0:2|0:0,0:0:0:0:
339,370,18632,2,0,L|335:312,1,58.0000017700196,0|0,0:0|0:0,0:0:0:0:
504,278,19040,1,8,0:2:0:0:
436,332,19244,1,0,0:0:0:0:
350,240,19448,2,0,P|319:232|289:242,1,58.0000017700196,0|0,0:0|0:0,0:0:0:0:
160,299,19856,5,2,0:2:0:0:
247,311,20060,1,0,0:0:0:0:
295,239,20264,2,0,P|290:210|286:181,1,58.0000017700196,0|0,0:0|0:0,0:0:0:0:
222,91,20673,2,0,P|217:119|213:148,1,58.0000017700196,8|0,0:2|0:0,0:0:0:0:
365,70,21081,1,0,0:0:0:0:
287,33,21285,1,0,0:0:0:0:
360,165,21489,6,0,P|364:193|368:222,1,58.0000017700196,2|0,0:2|0:0,0:0:0:0:
442,306,21897,2,0,P|446:277|451:249,1,58.0000017700196,0|0,0:0|0:0,0:0:0:0:
374,361,22305,2,0,P|318:343|261:334,1,116.000003540039,10|0,0:2|0:0,0:0:0:0:
19,361,23122,6,0,P|24:318|27:286,1,58.0000017700196,2|0,0:2|0:0,0:0:0:0:
83,191,23530,2,0,P|85:219|89:248,1,58.0000017700196,0|0,0:0|0:0,0:0:0:0:
26,362,23938,2,0,P|31:319|34:287,1,58.0000017700196,8|0,0:2|0:0,0:0:0:0:
90,190,24346,2,0,P|93:218|96:247,1,58.0000017700196,0|0,0:0|0:0,0:0:0:0:
254,364,24754,6,0,B|260:336|260:336|255:306,1,58.0000017700196,2|0,0:2|0:0,0:0:0:0:
227,123,25162,2,0,B|220:155|220:155|226:189,1,68.0000004150391,0|0,0:0|0:0,0:0:0:0:
374,236,25571,2,0,B|335:225|335:225|298:233,1,78.0000026184083,8|0,0:2|0:0,0:0:0:0:
97,259,25979,2,0,B|139:273|139:273|183:263,1,88.0000026855469,0|0,0:0|0:0,0:0:0:0:
280,57,26387,6,0,B|226:25|175:58|175:58|154:101|101:104,1,200,2|0,1:2|0:0,0:0:0:0:
228,123,26999,1,2,0:2:0:0:
101,22,27203,1,10,0:2:0:0:
166,176,27407,1,2,0:2:0:0:
231,22,27611,1,2,0:2:0:0:
291,170,27816,1,2,1:2:0:0:
109,108,28020,5,2,1:2:0:0:
109,108,28224,1,2,0:2:0:0:
350,9,28428,2,0,B|378:46|399:72|399:72|378:130|364:187,1,200,2|8,1:2|0:2,0:0:0:0:
304,90,29040,1,0,1:2:0:0:
458,157,29244,1,0,1:2:0:0:
350,9,29448,1,2,1:2:0:0:
276,177,29652,5,2,1:2:0:0:
276,177,29856,1,2,0:2:0:0:
432,72,30060,1,2,0:2:0:0:
432,72,30264,1,2,0:2:0:0:
444,259,30469,1,10,0:2:0:0:
444,259,30673,1,2,0:2:0:0:
313,99,30877,2,0,P|264:90|218:110,1,100,2|0,0:2|1:2,0:0:0:0:
106,228,31285,5,0,1:2:0:0:
148,55,31489,1,2,0:2:0:0:
276,177,31693,1,2,1:2:0:0:
97,133,31897,1,2,0:2:0:0:
228,2,32101,1,10,0:2:0:0:
352,208,32305,2,0,B|369:154|331:115|331:115|295:75|308:23,1,200,2|0,1:2|1:2,0:0:0:0:
276,177,32918,5,2,1:2:0:0:
388,53,33122,1,2,0:2:0:0:
230,117,33326,1,2,0:2:0:0:
388,181,33530,1,2,0:2:0:0:
276,57,33734,1,10,0:2:0:0:
164,181,33938,1,2,0:2:0:0:
52,57,34142,2,0,P|60:107|66:159,1,100,2|0,0:2|1:2,0:0:0:0:
1,362,34550,6,0,B|-18:319|10:277|10:277|130:295,1,200,0|0,1:2|1:2,0:0:0:0:
119,293,35367,1,10,0:2:0:0:
120,113,35571,1,2,1:2:0:0:
44,243,35775,1,2,1:2:0:0:
217,246,35979,1,2,1:2:0:0:
41,130,36183,5,2,1:2:0:0:
229,35,36387,1,2,0:2:0:0:
320,217,36591,2,0,P|305:282|297:330,1,100,2|0,0:2|0:0,0:0:0:0:
350,130,36999,1,8,0:2:0:0:
350,130,37407,1,2,0:2:0:0:
217,246,37611,1,2,1:2:0:0:
396,193,37816,5,2,1:2:0:0:
217,140,38020,1,2,0:2:0:0:
396,87,38224,2,0,B|411:39|411:39|395:-8,1,100,2|0,1:2|1:2,0:0:0:0:
467,139,38632,1,10,0:2:0:0:
327,45,38836,2,0,B|275:27|231:60|231:60|186:90|136:69,1,200,2|0,1:2|1:2,0:0:0:0:
293,138,39448,1,2,1:2:0:0:
293,138,39856,6,0,P|285:193|278:249,1,100,2|2,0:2|0:2,0:0:0:0:
327,45,40264,1,10,0:2:0:0:
210,148,40469,1,2,0:2:0:0:
358,198,40673,2,0,L|470:190,1,100,2|0,0:2|1:2,0:0:0:0:
210,148,41081,6,0,L|110:140,1,100,2|0,1:2|0:0,0:0:0:0:
327,45,41489,1,2,1:2:0:0:
358,198,41693,1,2,0:2:0:0:
476,95,41897,2,0,P|464:179|456:244,1,133.333333333333,10|0,0:2|0:0,0:0:0:0:
505,289,42305,2,0,B|457:272|457:272|401:294,1,100,0|0,1:2|1:2,0:0:0:0:
281,365,42713,5,2,1:2:0:0:
459,351,42918,1,2,0:2:0:0:
358,204,43122,1,2,0:2:0:0:
358,204,43326,1,2,0:2:0:0:
459,57,43530,2,0,B|479:105|479:105|465:156,1,100,10|0,0:2|0:0,0:0:0:0:
285,244,43938,2,0,B|272:197|272:197|292:149,1,100,2|0,0:2|1:2,0:0:0:0:
357,19,44346,5,2,1:2:0:0:
358,204,44550,1,2,0:2:0:0:
281,64,44754,1,2,1:2:0:0:
204,204,44958,1,2,0:2:0:0:
372,111,45162,1,10,0:2:0:0:
372,111,45367,1,2,1:2:0:0:
188,22,45571,2,0,B|171:69|171:69|188:126,1,100,2|2,0:2|1:2,0:0:0:0:
285,244,45979,5,2,1:2:0:0:
257,72,46183,1,2,0:2:0:0:
123,183,46387,1,2,0:2:0:0:
294,158,46591,1,2,0:2:0:0:
188,22,46795,2,0,L|81:38,1,100,10|0,0:2|0:0,0:0:0:0:
257,72,47203,1,2,0:2:0:0:
123,183,47407,1,2,1:2:0:0:
257,294,47611,6,0,B|271:246|271:246|256:191,1,100,2|0,1:2|0:0,0:0:0:0:
60,120,48020,1,2,1:2:0:0:
186,246,48224,1,2,0:2:0:0:
257,72,48428,2,0,P|317:47|381:71,1,133.333333333333,10|0,0:2|0:0,0:0:0:0:
429,134,48836,2,0,B|460:96|460:96|458:39,1,100,2|2,1:2|1:2,0:0:0:0:
258,198,49244,5,2,1:2:0:0:
389,228,49448,1,2,0:2:0:0:
320,129,49652,1,2,0:2:0:0:
327,297,49856,1,2,0:2:0:0:
462,191,50060,2,0,P|434:159|395:148,1,80,2|0,0:2|0:0,0:0:0:0:
258,198,50469,1,2,0:2:0:0:
302,51,50673,6,0,P|312:89|320:129,1,80,2|0,1:2|1:2,0:0:0:0:
327,297,51081,2,0,P|334:257|344:219,1,80,2|0,0:2|1:2,0:0:0:0:
240,120,51489,2,0,P|250:158|258:198,1,80,2|0,1:2|0:0,0:0:0:0:
366,379,51897,2,0,P|318:320|242:329,1,160,2|0,1:2|1:2,0:0:0:0:
395,155,52509,5,0,1:2:0:0:
395,155,52918,1,2,1:2:0:0:
329,103,53122,1,2,0:2:0:0:
317,187,53326,1,2,1:2:0:0:
407,71,53530,1,2,1:2:0:0:
262,52,53734,1,2,1:2:0:0:
395,155,53938,1,2,1:2:0:0:
252,136,54142,6,0,L|177:144,1,69.9999978637696,2|2,1:2|0:2,0:0:0:0:
55,213,54550,2,0,L|124:220,1,69.9999978637696,2|2,1:2|0:2,0:0:0:0:
252,290,54958,2,0,L|177:298,1,69.9999978637696,2|0,1:2|1:2,0:0:0:0:
151,302,55264,1,0,0:0:0:0:
151,302,55367,2,0,P|143:335|139:362,1,34.9999989318848,2|0,1:2|0:0,0:0:0:0:
76,288,55571,2,0,P|68:321|64:348,1,34.9999989318848,0|0,1:2|0:0,0:0:0:0:
133,144,55775,1,2,1:2:0:0:
133,144,56183,5,2,0:2:0:0:
193,85,56387,1,2,0:2:0:0:
214,166,56591,1,2,0:2:0:0:
112,63,56795,1,2,1:2:0:0:
74,203,56999,1,2,1:2:0:0:
193,85,57203,1,2,1:2:0:0:
235,247,57407,6,0,L|316:235,1,69.9999978637696,2|2,1:2|0:2,0:0:0:0:
74,203,57816,2,0,L|4:192,1,69.9999978637696,2|2,1:2|0:2,0:0:0:0:
193,85,58224,2,0,B|203:122|203:122|194:156,1,69.9999978637696,2|0,1:2|1:2,0:0:0:0:
130,355,58632,2,0,B|121:324|121:324|131:287,1,69.9999978637696,2|0,1:2|1:2,0:0:0:0:
278,155,59040,5,2,1:2:0:0:
278,155,59448,2,0,L|272:224,1,60,2|2,0:2|0:2,0:0:0:0:
231,12,59856,2,0,B|193:1|193:1|154:12,1,80,10|0,0:2|0:0,0:0:0:0:
310,83,60264,2,0,B|348:94|348:94|387:83,1,80,2|0,0:2|1:2,0:0:0:0:
193,85,60673,6,0,L|199:154,1,60,2|2,1:2|0:2,0:0:0:0:
348,11,61081,1,2,1:2:0:0:
367,179,61285,1,2,0:2:0:0:
237,23,61489,2,0,P|192:11|147:24,1,80,10|0,0:2|1:2,0:0:0:0:
133,42,61795,1,0,0:0:0:0:
133,42,61897,2,0,L|68:37,1,40,2|0,1:2|0:0,0:0:0:0:
129,125,62101,2,0,L|64:120,1,40,0|0,1:2|0:0,0:0:0:0:
252,227,62305,6,0,L|257:167,1,60,2|2,1:2|0:2,0:0:0:0:
88,327,62713,1,2,0:2:0:0:
256,308,62917,1,2,0:2:0:0:
156,173,63122,2,0,P|113:189|56:209,1,80,10|0,0:2|0:0,0:0:0:0:
252,227,63530,1,2,0:2:0:0:
194,88,63734,1,2,1:2:0:0:
329,53,63938,6,0,B|384:78|392:124|392:124|353:153|347:211,1,200,2|0,1:2|0:0,0:0:0:0:
347,210,65571,5,2,1:2:0:0:
272,128,65775,1,2,0:2:0:0:
191,202,65979,1,2,0:2:0:0:
265,284,66183,1,2,0:2:0:0:
191,121,66387,5,10,0:2:0:0:
117,284,66591,1,2,0:2:0:0:
12,138,66795,1,2,0:2:0:0:
191,202,66999,1,2,1:2:0:0:
12,266,67203,5,2,1:2:0:0:
147,55,67407,1,2,0:2:0:0:
265,284,67611,6,0,B|286:242|307:212|307:212|284:155|264:84,1,217.500006637573,2|0,1:2|0:0,0:0:0:0:
147,55,68020,6,0,B|279:1|237:118|390:53,1,240,10|0,0:2|0:0,0:0:0:0:
500,39,68428,6,0,B|402:-5|402:-5|434:170,1,284.999992389679,2|0,1:2|0:0,0:0:0:0:
451,262,68836,5,2,1:2:0:0:
330,185,69040,1,2,0:2:0:0:
209,262,69244,1,2,0:2:0:0:
88,185,69448,1,2,0:2:0:0:
209,293,69652,5,10,0:2:0:0:
330,154,69856,1,2,0:2:0:0:
451,293,70060,1,2,0:2:0:0:
235,192,70264,1,2,1:2:0:0:
451,91,70469,5,2,1:2:0:0:
330,327,70673,1,2,0:2:0:0:
209,91,70877,6,0,B|120:103|120:103|139:256,1,240,2|0,1:2|0:0,0:0:0:0:
109,354,71285,6,0,B|137:245|263:281|263:281|220:304|216:357,1,277.499998941422,10|0,0:2|0:0,0:0:0:0:
314,365,71693,6,0,B|352:325|384:300|384:300|356:207|334:113,1,284.999992389679,2|0,1:2|0:0,0:0:0:0:
300,28,72101,5,2,1:2:0:0:
262,234,72305,1,2,0:2:0:0:
450,141,72509,1,2,0:2:0:0:
244,103,72713,1,2,0:2:0:0:
337,291,72918,5,10,0:2:0:0:
375,84,73122,1,2,0:2:0:0:
187,178,73326,1,2,0:2:0:0:
394,216,73530,1,2,1:2:0:0:
169,47,73734,5,2,1:2:0:0:
206,309,73938,1,2,0:2:0:0:
378,67,74142,6,0,B|309:22|250:66|250:66|231:130|155:131,1,247.500002360344,2|0,1:2|0:0,0:0:0:0:
52,89,74550,6,0,B|152:34|152:34|115:215,1,284.999992389679,10|0,0:2|0:0,0:0:0:0:
87,321,74958,6,0,B|24:371|-44:297|-14:232|59:210|118:218|177:276,1,330.000010070801,2|0,1:2|0:0,0:0:0:0:
284,355,75367,5,2,1:2:0:0:
267,238,75503,5,2,0:2:0:0:
264,337,75639,5,2,0:2:0:0:
289,255,75775,6,0,B|387:237|361:299|461:285,1,170.000003242493,2|8,0:2|0:2,0:0:0:0:
451,286,76591,5,2,0:2:0:0:
432,200,76727,5,2,0:2:0:0:
485,130,76863,5,2,0:2:0:0:
466,44,76999,6,0,B|366:34|398:94|297:88,1,172.500003290176,2|0,1:2|0:0,0:0:0:0:
230,74,77407,5,2,1:2:0:0:
432,200,77611,1,2,1:2:0:0:
254,146,77816,1,10,0:2:0:0:
466,44,78020,1,2,1:2:0:0:
206,2,78224,2,0,L|87:15,1,115.000002193451,2|0,0:2|1:2,0:0:0:0:
179,245,78632,5,2,1:2:0:0:
254,146,78836,1,2,0:2:0:0:
353,220,79040,1,2,0:2:0:0:
278,319,79244,1,2,0:2:0:0:
341,130,79448,5,10,0:2:0:0:
146,170,79652,1,2,0:2:0:0:
353,220,79856,1,2,0:2:0:0:
158,260,80060,2,0,B|101:252|101:252|98:248|98:248|41:243,1,110.000003356934,2|0,1:2|1:2,0:0:0:0:
189,71,80469,1,2,0:2:0:0:
278,319,80673,6,0,B|288:209|288:209|285:208|285:208|295:98,1,225.000008583069,2|0,1:2|0:0,0:0:0:0:
267,21,81081,6,0,B|236:59|188:71|188:71|378:59,1,284.999992389679,10|0,0:2|0:0,0:0:0:0:
512,40,81489,6,0,B|467:-6|411:18|411:18|423:111|423:111|420:114|420:114|431:226,1,322.50000492096,2|0,1:2|0:0,0:0:0:0:
439,336,81897,5,2,1:2:0:0:
321,173,82101,1,2,0:2:0:0:
502,278,82305,1,2,0:2:0:0:
258,231,82509,1,2,0:2:0:0:
439,126,82713,5,10,0:2:0:0:
318,332,82918,1,2,0:2:0:0:
200,124,83122,1,2,0:2:0:0:
393,269,83326,2,0,B|448:271|448:271|451:275|451:275|502:278,1,110.000003356934,2|0,1:2|1:2,0:0:0:0:
319,82,83734,5,2,0:2:0:0:
231,317,83938,1,2,1:2:0:0:
470,202,84142,1,2,0:2:0:0:
200,124,84346,6,0,B|295:67|295:67|273:217,1,262.500002503395,10|0,0:2|0:0,0:0:0:0:
198,349,84754,6,0,B|176:317|181:275|205:248|205:248|296:256|296:256|298:260|298:260|401:269,1,300,2|0,1:2|0:0,0:0:0:0:
502,283,85162,5,2,1:2:0:0:
370,137,85367,1,2,0:2:0:0:
441,350,85571,1,2,0:2:0:0:
512,137,85775,1,2,0:2:0:0:
380,283,85979,5,10,0:2:0:0:
254,139,86183,1,2,0:2:0:0:
474,208,86387,1,2,0:2:0:0:
254,277,86591,1,2,1:2:0:0:
441,80,86795,5,2,1:2:0:0:
211,11,86999,1,2,0:2:0:0:
104,319,87203,6,0,B|82:249|82:249|148:260|148:260|145:262|145:262|148:260|148:260|257:277,1,255.000004863739,2|0,1:2|0:0,0:0:0:0:
365,382,87611,6,0,B|272:374|272:374|306:168,1,292.500001115799,10|0,0:2|0:0,0:0:0:0:
397,133,88020,6,0,B|461:81|530:157|500:223|425:246|365:238|305:178,1,337.500012874604,2|0,1:2|0:0,0:0:0:0:
208,92,88428,5,2,1:2:0:0:
218,209,88564,5,2,0:2:0:0:
227,111,88700,5,2,0:2:0:0:
197,191,88836,6,0,B|98:178|127:238|26:229,1,170.000003242493,2|8,0:2|0:2,0:0:0:0:
37,230,89652,5,2,0:2:0:0:
57,147,89788,5,2,0:2:0:0:
140,167,89924,5,2,0:2:0:0:
120,250,90060,6,0,B|219:237|190:297|291:288,1,172.500003290176,2|0,1:2|0:0,0:0:0:0:
358,279,90469,5,2,1:2:0:0:
146,346,90673,1,2,1:2:0:0:
268,191,90877,1,10,0:2:0:0:
341,374,91081,1,2,1:2:0:0:
463,219,91285,2,0,L|447:91,1,115.000002193451,2|0,0:2|1:2,0:0:0:0:
477,333,91693,5,2,0:2:0:0:
400,322,91897,1,0,0:0:0:0:
341,374,92101,2,0,L|237:366,1,103.999999365234,0|0,0:0|0:0,0:0:0:0:
237,366,92918,1,0,0:0:0:0:
207,293,93122,1,0,0:0:0:0:
266,242,93326,6,0,P|263:206|261:178,1,51.9999996826172,2|0,0:2|0:0,0:0:0:0:
206,90,93734,2,0,P|204:115|201:141,1,51.9999996826172,0|0,0:0|0:0,0:0:0:0:
274,242,94142,2,0,P|271:206|269:178,1,51.9999996826172,2|0,0:2|0:0,0:0:0:0:
198,90,94550,2,0,P|196:115|193:141,1,51.9999996826172,0|0,0:0|0:0,0:0:0:0:
330,70,94958,5,2,0:2:0:0:
258,40,95162,1,0,0:0:0:0:
198,90,95367,2,0,L|94:82,1,103.999999365234,0|0,0:0|0:0,0:0:0:0:
95,82,96183,1,0,0:0:0:0:
44,141,96387,1,0,0:0:0:0:
93,201,96591,6,0,P|86:237|82:263,1,51.9999996826172,2|0,0:2|0:0,0:0:0:0:
32,365,96999,2,0,P|27:339|22:313,1,51.9999996826172,0|0,0:0|0:0,0:0:0:0:
169,248,97407,1,0,0:0:0:0:
169,248,97611,1,0,0:0:0:0:
225,302,97816,2,0,P|255:308|279:309,1,51.9999996826172,0|0,0:0|0:0,0:0:0:0:
415,288,98224,5,2,0:2:0:0:
340,265,98428,1,0,0:0:0:0:
276,309,98632,2,0,P|228:303|178:280,1,103.999999365234,0|0,0:0|0:0,0:0:0:0:
179,280,99448,1,0,0:0:0:0:
213,209,99652,1,0,0:0:0:0:
154,157,99856,6,0,P|150:122|148:98,1,51.9999996826172,2|0,0:2|0:0,0:0:0:0:
224,0,100264,2,0,P|221:25|218:51,1,51.9999996826172,0|0,0:0|0:0,0:0:0:0:
146,157,100673,2,0,P|142:122|140:98,1,51.9999996826172,2|0,0:2|0:0,0:0:0:0:
232,0,101081,2,0,P|229:25|226:51,1,51.9999996826172,0|0,0:0|0:0,0:0:0:0:
160,231,101489,5,2,0:2:0:0:
160,231,101897,2,0,L|211:221,1,51.9999996826172,0|0,0:0|0:0,0:0:0:0:
275,115,102305,2,0,L|257:164,1,51.9999996826172,0|0,0:0|0:0,0:0:0:0:
317,272,102713,2,0,L|283:232,1,51.9999996826172,0|0,0:0|0:0,0:0:0:0:
221,52,103122,6,0,P|255:35|281:32,1,58.0000017700196,2|0,0:2|0:0,0:0:0:0:
421,120,103530,2,0,P|384:101|357:98,1,68.0000004150391,0|0,0:0|0:0,0:0:0:0:
201,190,103938,2,0,P|235:171|273:165,1,78.0000026184083,2|0,0:2|0:0,0:0:0:0:
439,261,104346,2,0,P|401:240|358:233,1,88.0000026855469,0|0,0:0|0:0,0:0:0:0:
186,365,104754,6,0,B|170:317|170:317|186:270,1,100,2|0,1:2|0:0,0:0:0:0:
204,240,105060,1,2,0:2:0:0:
204,240,105162,2,0,B|220:192|220:192|204:145,1,100,2|0,0:0|0:0,0:0:0:0:
115,192,105571,1,8,0:2:0:0:
307,159,105775,1,2,0:2:0:0:
117,97,105979,1,2,0:2:0:0:
82,102,106081,1,2,0:2:0:0:
47,107,106183,1,2,1:2:0:0:
300,8,106387,6,0,B|316:56|316:56|299:102,1,100,2|0,1:2|0:0,0:0:0:0:
283,133,106693,1,2,0:2:0:0:
283,133,106795,2,0,B|267:181|267:181|284:227,1,100,0|0,1:2|0:0,0:0:0:0:
228,56,107203,1,8,0:2:0:0:
371,180,107407,1,2,1:2:0:0:
404,196,107509,1,2,0:2:0:0:
441,195,107611,1,2,1:2:0:0:
473,176,107713,1,2,0:2:0:0:
491,144,107815,1,2,1:2:0:0:
283,133,108020,6,0,B|267:181|267:181|284:227,1,100,2|0,1:2|0:0,0:0:0:0:
300,258,108326,1,2,0:2:0:0:
300,258,108428,2,0,B|316:306|316:306|299:352,1,100,2|0,0:0|0:0,0:0:0:0:
371,180,108836,1,8,0:2:0:0:
230,360,109040,1,2,0:2:0:0:
264,356,109142,1,2,0:2:0:0:
298,352,109244,2,0,L|347:345,1,50,2|0,0:2|0:0,0:0:0:0:
238,239,109448,1,2,1:2:0:0:
332,118,109652,5,2,1:2:0:0:
332,118,109754,2,0,L|381:124,1,50,2|0,0:0|0:0,0:0:0:0:
347,301,109958,1,2,0:2:0:0:
347,301,110060,2,0,B|329:253|329:253|349:202,1,100,0|0,1:2|0:0,0:0:0:0:
428,254,110469,1,10,0:2:0:0:
238,247,110673,1,2,1:2:0:0:
227,199,110775,1,2,0:2:0:0:
244,153,110877,1,2,0:2:0:0:
282,122,110979,1,2,0:2:0:0:
332,118,111081,1,2,1:2:0:0:
130,20,111285,5,2,1:2:0:0:
144,38,111591,1,2,0:2:0:0:
121,41,111897,1,2,0:2:0:0:
282,122,112101,1,10,0:2:0:0:
121,203,112305,1,2,0:2:0:0:
71,199,112407,1,2,0:2:0:0:
21,195,112509,2,0,P|29:152|32:116,1,50,2|0,0:2|0:0,0:0:0:0:
221,211,112713,1,2,1:2:0:0:
107,376,112918,5,2,1:2:0:0:
103,353,113224,1,2,0:2:0:0:
124,361,113530,1,2,0:2:0:0:
5,316,113734,1,8,0:2:0:0:
172,254,113938,1,2,1:2:0:0:
216,260,114040,1,2,0:2:0:0:
260,266,114142,1,2,0:2:0:0:
304,272,114244,1,2,0:2:0:0:
348,278,114346,1,2,0:2:0:0:
113,197,114550,6,0,P|90:244|105:298,1,100,2|0,1:2|0:0,0:0:0:0:
299,190,114958,1,2,0:2:0:0:
205,135,115162,1,2,0:2:0:0:
391,128,115367,2,0,P|414:81|399:27,1,100,8|0,0:2|0:0,0:0:0:0:
283,76,115775,1,2,0:2:0:0:
283,76,115877,1,2,0:2:0:0:
283,76,115979,2,0,L|352:73,1,50,2|0,1:2|0:0,0:0:0:0:
476,225,116183,6,0,B|429:240|429:240|380:225,1,100,2|0,1:2|0:0,0:0:0:0:
348,211,116489,1,2,0:0:0:0:
348,211,116591,2,0,B|296:214,1,50,2|0,1:2|0:0,0:0:0:0:
490,137,116795,1,2,0:2:0:0:
283,76,116999,1,10,0:2:0:0:
476,225,117203,1,2,1:2:0:0:
283,374,117407,1,2,0:2:0:0:
383,134,117611,1,2,1:2:0:0:
483,378,117816,6,0,L|372:375,1,100,2|0,1:2|0:0,0:0:0:0:
299,215,118224,2,0,L|398:212,1,100,2|0,0:2|0:0,0:0:0:0:
283,374,118632,1,10,0:2:0:0:
211,201,118836,1,2,0:2:0:0:
336,307,119040,1,2,0:2:0:0:
181,362,119244,1,2,1:2:0:0:
268,144,119448,5,2,1:2:0:0:
413,328,119652,1,2,0:2:0:0:
211,201,119856,1,2,1:2:0:0:
421,89,120060,1,2,0:2:0:0:
289,222,120264,1,10,0:2:0:0:
239,41,120469,1,2,1:2:0:0:
384,163,120673,2,0,P|429:170|480:147,1,100,2|0,1:2|1:2,0:0:0:0:
239,41,121081,6,0,L|125:52,1,100,2|0,1:2|0:0,0:0:0:0:
189,212,121489,2,0,L|289:222,1,100,2|0,0:2|0:0,0:0:0:0:
421,89,121897,1,10,0:2:0:0:
239,41,122101,1,2,0:2:0:0:
384,163,122305,1,2,0:2:0:0:
202,115,122509,1,2,1:2:0:0:
384,15,122713,5,2,1:2:0:0:
421,237,122918,1,2,0:2:0:0:
239,41,123122,1,2,1:2:0:0:
276,263,123327,1,2,0:2:0:0:
421,89,123530,1,10,0:2:0:0:
239,189,123734,1,2,1:2:0:0:
437,318,123938,2,0,P|479:293|502:249,1,100,2|0,0:2|1:2,0:0:0:0:
341,49,124346,6,0,L|350:148,1,100,2|0,1:2|0:0,0:0:0:0:
229,288,124754,2,0,L|239:189,1,100,2|0,0:2|0:0,0:0:0:0:
254,23,125162,1,10,0:2:0:0:
157,151,125367,1,2,0:2:0:0:
94,2,125571,1,2,0:2:0:0:
263,108,125775,1,2,1:2:0:0:
86,201,125979,5,2,1:2:0:0:
174,13,126183,1,2,0:2:0:0:
292,183,126387,2,0,P|283:223|279:257,1,50,2|0,1:2|0:0,0:0:0:0:
190,85,126591,1,2,0:2:0:0:
139,293,126795,1,10,0:2:0:0:
263,108,126999,1,2,1:2:0:0:
41,94,127203,2,0,B|23:142|23:142|38:191,1,100,2|0,1:2|1:2,0:0:0:0:
282,231,127611,6,0,P|242:201|193:198,1,100,2|0,1:2|0:0,0:0:0:0:
23,346,128020,2,0,P|72:343|111:313,1,100,2|0,0:2|0:0,0:0:0:0:
131,144,128428,6,0,P|114:179|113:219,1,80,2|0,0:2|0:0,0:0:0:0:
215,279,128836,1,2,0:2:0:0:
187,82,129040,6,0,P|151:65|111:64,1,80,2|0,1:2|1:2,0:0:0:0:
260,127,129448,2,0,P|292:104|312:70,1,80,2|0,0:2|1:2,0:0:0:0:
184,167,129856,2,0,P|187:206|206:241,1,80,2|0,1:2|0:0,0:0:0:0:
350,281,130264,2,0,B|255:286|298:333|205:341,1,160,2|0,1:2|1:2,0:0:0:0:
346,380,130877,5,0,1:2:0:0:
346,380,131285,1,2,1:2:0:0:
416,334,131489,1,2,0:2:0:0:
350,281,131693,1,2,1:2:0:0:
482,175,131897,1,2,1:2:0:0:
416,334,132101,1,2,1:2:0:0:
311,197,132305,1,2,1:2:0:0:
483,243,132509,6,0,B|490:207|490:207|482:175,1,69.9999978637696,2|2,1:2|0:2,0:0:0:0:
312,128,132918,2,0,B|304:161|304:161|311:197,1,69.9999978637696,2|2,1:2|0:2,0:0:0:0:
464,50,133326,2,0,P|434:33|400:33,1,69.9999978637696,2|0,1:2|1:2,0:0:0:0:
373,51,133632,1,0,0:0:0:0:
373,51,133734,2,0,L|330:49,1,34.9999989318848,2|0,1:2|0:0,0:0:0:0:
313,129,133938,2,0,L|270:127,1,34.9999989318848,0|0,1:2|0:0,0:0:0:0:
154,227,134142,5,2,1:2:0:0:
154,227,134550,1,2,0:2:0:0:
180,148,134754,1,2,0:2:0:0:
99,165,134958,1,2,0:2:0:0:
235,210,135162,1,2,1:2:0:0:
128,305,135367,1,2,1:2:0:0:
289,271,135571,1,2,1:2:0:0:
180,148,135775,6,0,B|173:112|173:112|181:79,1,69.9999978637696,2|2,1:2|0:2,0:0:0:0:
287,203,136183,2,0,B|295:235|295:235|288:271,1,69.9999978637696,2|2,1:2|0:2,0:0:0:0:
257,113,136591,2,0,L|335:116,1,69.9999978637696,2|0,1:2|1:2,0:0:0:0:
211,236,136999,2,0,L|133:239,1,69.9999978637696,2|0,1:2|1:2,0:0:0:0:
370,229,137407,5,2,1:2:0:0:
370,229,137816,2,0,L|364:288,1,60,2|2,0:2|0:2,0:0:0:0:
388,56,138224,2,0,L|308:61,1,80,10|0,0:2|0:0,0:0:0:0:
163,128,138632,2,0,L|243:133,1,80,2|0,0:2|1:2,0:0:0:0:
370,229,139040,6,0,L|301:223,1,60,2|2,1:2|0:2,0:0:0:0:
72,116,139448,1,2,1:2:0:0:
243,133,139652,1,2,0:2:0:0:
142,272,139856,2,0,L|49:267,1,80,10|0,0:2|1:2,0:0:0:0:
26,264,140162,1,0,0:0:0:0:
26,264,140264,2,0,L|31:313,1,40,2|0,1:2|0:0,0:0:0:0:
104,382,140469,2,0,L|99:342,1,40,0|0,1:2|0:0,0:0:0:0:
83,183,140673,6,0,L|142:188,1,60,2|2,1:2|0:2,0:0:0:0:
282,138,141081,2,0,L|213:132,1,60,2|2,0:2|0:0,0:0:0:0:
247,293,141489,2,0,B|258:256|258:256|250:217,1,80,10|0,0:2|0:0,0:0:0:0:
160,92,141897,1,2,0:2:0:0:
175,252,142101,1,2,1:2:0:0:
307,160,142305,6,0,B|380:164|380:164|426:188|426:188|500:192,1,200,2|0,1:2|0:0,0:0:0:0:
501,192,143938,5,2,1:2:0:0:
465,87,144142,1,2,0:2:0:0:
360,123,144346,1,2,0:2:0:0:
396,228,144550,1,2,0:2:0:0:
389,39,144754,5,10,0:2:0:0:
229,140,144958,1,2,0:2:0:0:
396,228,145162,1,2,0:2:0:0:
277,41,145367,1,2,1:2:0:0:
175,238,145571,5,2,1:2:0:0:
360,123,145775,1,2,0:2:0:0:
106,13,145979,6,0,B|78:54|56:81|56:81|75:134|98:208,1,217.500006637573,2|0,1:2|0:0,0:0:0:0:
193,286,146387,6,0,B|189:239|189:239|111:240|111:240|61:287|61:287|85:326,1,240,10|0,0:2|0:0,0:0:0:0:
195,374,146795,6,0,B|246:372|282:328|281:279|281:279|279:227|316:185|366:185,1,284.999992389679,2|0,1:2|0:0,0:0:0:0:
472,207,147203,5,2,1:2:0:0:
354,77,147407,1,2,0:2:0:0:
408,251,147611,1,2,0:2:0:0:
418,33,147816,1,2,0:2:0:0:
225,134,148020,5,10,0:2:0:0:
408,251,148224,1,2,0:2:0:0:
264,47,148428,1,2,0:2:0:0:
160,274,148632,1,2,1:2:0:0:
354,77,148836,5,2,1:2:0:0:
395,332,149040,1,2,0:2:0:0:
194,192,149244,6,0,B|252:171|305:222|305:222|306:219|306:219|305:222|305:222|353:265|407:251,1,240,2|0,1:2|0:0,0:0:0:0:
509,311,149652,6,0,B|431:366|431:366|441:172,1,277.499998941422,10|0,0:2|0:0,0:0:0:0:
509,131,150060,6,0,B|450:101|423:17|423:17|415:104|368:141,1,284.999992389679,2|0,1:2|0:0,0:0:0:0:
281,215,150469,5,2,1:2:0:0:
300,41,150673,1,2,0:2:0:0:
441,184,150877,1,2,0:2:0:0:
300,327,151081,1,2,0:2:0:0:
369,140,151285,5,10,0:2:0:0:
438,327,151489,1,2,0:2:0:0:
289,135,151693,1,2,0:2:0:0:
134,328,151897,1,2,1:2:0:0:
361,220,152101,5,2,1:2:0:0:
123,112,152305,1,2,0:2:0:0:
356,1,152509,6,0,B|383:42|414:77|414:77|386:143|361:219,1,247.500002360344,2|0,1:2|0:0,0:0:0:0:
255,297,152918,6,0,B|186:337|152:253|205:212|257:234|298:273|298:273|345:318|397:295,1,330.000010070801,10|0,0:2|0:0,0:0:0:0:
492,369,153326,6,0,B|462:330|428:294|428:294|457:223|487:128,1,269.999991760254,2|0,1:2|0:0,0:0:0:0:
509,30,153734,5,2,1:2:0:0:
414,77,153870,5,2,0:2:0:0:
504,51,154006,5,2,0:2:0:0:
419,56,154142,6,0,B|313:64|359:103|249:104,1,170.000003242493,2|8,0:2|0:2,0:0:0:0:
259,104,154958,5,2,0:2:0:0:
174,92,155094,5,2,0:2:0:0:
227,24,155230,5,2,0:2:0:0:
206,172,155367,6,0,B|312:180|266:219|376:220,1,172.500003290176,2|0,1:2|0:0,0:0:0:0:
445,217,155775,5,2,1:2:0:0:
224,274,155979,1,2,1:2:0:0:
350,119,156183,1,10,0:2:0:0:
421,305,156387,1,2,1:2:0:0:
426,73,156591,2,0,P|377:36|325:35,1,115.000002193451,2|0,0:2|1:2,0:0:0:0:
196,154,156999,5,2,1:2:0:0:
350,119,157203,1,2,0:2:0:0:
243,4,157407,1,2,0:2:0:0:
286,195,157611,1,2,0:2:0:0:
430,63,157816,5,10,0:2:0:0:
472,253,158020,1,2,0:2:0:0:
271,117,158224,1,2,0:2:0:0:
254,360,158428,2,0,B|201:356|201:356|196:350|196:350|135:344,1,110.000003356934,2|0,1:2|1:2,0:0:0:0:
379,224,158836,1,2,0:2:0:0:
305,42,159040,6,0,B|269:24|227:36|203:64|203:64|176:95|134:102|100:86,1,225.00000858307,2|0,1:2|0:0,0:0:0:0:
51,171,159448,6,0,B|102:4|102:4|0:46,1,284.999992389679,10|0,0:2|0:0,0:0:0:0:
10,251,159856,6,0,B|56:274|112:254|134:211|134:211|186:205|231:244|236:296,1,292.500001115798,2|0,1:2|0:0,0:0:0:0:
141,348,160264,5,2,1:2:0:0:
331,348,160469,1,2,0:2:0:0:
238,154,160673,1,2,0:2:0:0:
238,370,160877,1,2,0:2:0:0:
426,262,161081,5,10,0:2:0:0:
189,251,161285,1,2,0:2:0:0:
317,51,161489,1,2,0:2:0:0:
426,262,161693,2,0,B|421:310|421:310|415:315|415:315|411:368,1,110.000003356934,2|0,1:2|1:2,0:0:0:0:
480,101,162101,5,2,0:2:0:0:
307,256,162305,1,2,1:2:0:0:
414,26,162509,1,2,0:2:0:0:
495,302,162713,6,0,B|397:298|397:298|371:326|371:326|371:332|371:332|371:326|371:326|346:352|346:352|267:348,1,262.500002503395,10|0,0:2|0:0,0:0:0:0:
223,259,163122,6,0,B|173:196|247:128|312:158|334:231|326:290|268:349,1,330.000010070801,2|0,1:2|0:0,0:0:0:0:
194,329,163530,5,2,1:2:0:0:
397,299,163734,1,2,0:2:0:0:
367,96,163938,1,2,0:2:0:0:
164,126,164142,1,2,0:2:0:0:
280,213,164346,5,10,0:2:0:0:
250,10,164550,1,2,0:2:0:0:
47,40,164754,1,2,0:2:0:0:
77,243,164958,1,2,1:2:0:0:
265,112,165162,5,2,1:2:0:0:
62,142,165367,1,2,0:2:0:0:
280,213,165571,6,0,B|327:113|253:44|253:44|269:73|265:112,1,255.000004863739,2|0,1:2|0:0,0:0:0:0:
149,184,165979,6,0,B|212:169|258:234|258:234|262:228|262:228|258:234|258:234|296:290|360:290,1,262.500002503395,10|0,0:2|0:0,0:0:0:0:
479,378,166387,6,0,B|384:372|384:372|399:167,1,300,2|0,1:2|0:0,0:0:0:0:
423,70,166795,5,2,1:2:0:0:
323,106,166931,5,2,0:2:0:0:
415,90,167067,5,2,0:2:0:0:
330,86,167203,6,0,B|223:82|265:126|155:115,1,170.000003242493,2|8,0:2|0:2,0:0:0:0:
166,116,168020,5,2,0:2:0:0:
214,186,168156,5,2,0:2:0:0:
130,193,168292,5,2,0:2:0:0:
178,262,168428,6,0,B|284:258|242:302|352:291,1,172.500003290176,2|0,1:2|0:0,0:0:0:0:
418,279,168836,1,2,1:2:0:0:
205,361,169040,1,2,1:2:0:0:
310,203,169244,1,10,0:2:0:0:
97,285,169448,1,2,1:2:0:0:
310,367,169652,2,0,L|426:371,1,115.000002193451,2|0,0:2|1:2,0:0:0:0:
178,262,170060,5,2,0:2:0:0:
215,197,170264,1,0,0:0:0:0:
158,147,170469,2,0,L|37:157,1,100,0|0,0:0|0:0,0:0:0:0:
59,156,171285,1,0,0:0:0:0:
10,98,171489,1,0,0:0:0:0:
51,35,171693,6,0,L|100:30,1,50,2|0,0:2|0:0,0:0:0:0:
227,71,172101,2,0,L|177:75,1,50,0|0,0:0|0:0,0:0:0:0:
51,27,172509,2,0,L|100:22,1,50,2|0,0:2|0:0,0:0:0:0:
227,79,172918,2,0,L|177:83,1,50,0|0,0:0|0:0,0:0:0:0:
326,9,173326,5,2,0:2:0:0:
371,68,173530,1,0,0:0:0:0:
334,132,173734,2,0,P|328:182|326:236,1,100,0|0,0:0|0:0,0:0:0:0:
327,232,174550,1,0,0:0:0:0:
255,210,174754,1,0,0:0:0:0:
200,262,174958,6,0,P|176:264|151:267,1,50,2|0,0:2|0:0,0:0:0:0:
256,313,175367,2,0,P|280:315|305:318,1,50,0|0,0:0|0:0,0:0:0:0:
168,187,175775,1,0,0:0:0:0:
168,187,175979,1,0,0:0:0:0:
184,106,176183,2,0,P|159:109|135:112,1,50,0|0,0:0|0:0,0:0:0:0:
327,142,176591,5,2,0:2:0:0:
260,106,176795,1,0,0:0:0:0:
184,105,176999,2,0,P|173:57|166:7,1,100,0|0,0:0|0:0,0:0:0:0:
166,8,177816,1,0,0:0:0:0:
91,8,178020,1,0,0:0:0:0:
37,61,178224,6,0,L|45:127,1,50,2|0,0:2|0:0,0:0:0:0:
7,236,178632,2,0,L|13:186,1,50,0|0,0:0|0:0,0:0:0:0:
144,181,179040,2,0,L|95:175,1,50,2|0,0:2|0:0,0:0:0:0:
196,235,179448,2,0,L|245:228,1,50,0|0,0:0|0:0,0:0:0:0:
391,264,179856,6,0,B|275:263|327:327|193:320,1,200,2|0,0:2|0:0,0:0:0:0:
371,364,181081,1,0,0:0:0:0:
232,218,181489,2,0,L|240:112,3,100,2|0|2|0,0:2|0:0|0:2|0:0,0:0:0:0:
386,70,183122,6,0,B|322:82|322:82|302:106|302:106|221:122,1,160,2|0,0:2|0:0,0:0:0:0:
171,76,184346,1,0,0:0:0:0:
118,136,184754,2,0,L|124:303,1,160,2|2,0:2|0:2,0:0:0:0:
391,229,186387,6,0,L|386:70,1,160,2|0,0:2|0:0,0:0:0:0:
316,31,187611,1,0,0:0:0:0:
267,90,188020,2,0,B|170:93|213:138|103:136,1,160,2|2,0:2|0:2,0:0:0:0:
253,193,189652,6,0,L|421:163,1,160,2|0,0:2|0:0,0:0:0:0:
472,114,190877,1,0,0:0:0:0:
410,63,191285,2,0,L|252:91,1,160,2|2,0:2|0:2,0:0:0:0:
52,207,192918,6,0,B|23:132|23:132|57:60,1,160,2|0,0:2|0:0,0:0:0:0:
114,3,194142,1,0,0:0:0:0:
170,59,194550,2,0,B|204:130|204:130|175:205,1,160,2|2,0:2|0:2,0:0:0:0:
114,257,195775,1,0,0:0:0:0:
