osu file format v14

[General]
AudioFilename: audio.mp3
AudioLeadIn: 0
PreviewTime: 91693
Countdown: 0
SampleSet: Soft
StackLeniency: 0.7
Mode: 0
LetterboxInBreaks: 0
WidescreenStoryboard: 1

[Editor]
Bookmarks: 111285,195775
DistanceSpacing: 1
BeatDivisor: 8
GridSize: 32
TimelineZoom: 1.250001

[Metadata]
Title:Black Swan
TitleUnicode:Black Swan
Artist:BTS
ArtistUnicode:방탄소년단
Creator:DeRandom Otaku
Version:Lune's Hard
Source:
Tags:bighit entertainment wings rap monster jungkook suga jimin j-hope v jin hot yoongi 랩몬스터 진 슈가 제이홉 지민 뷔 정국 k-pop kpop korean pop bangtan boys ren fuju [_m_i_n_a_k_o_] lune
BeatmapID:2369547
BeatmapSetID:1133490

[Difficulty]
HPDrainRate:4.5
CircleSize:4
OverallDifficulty:6
ApproachRate:7.5
SliderMultiplier:1.4
SliderTickRate:1

[Events]
//Background and Video events
0,0,"BG.jpg",0,0
//Break Periods
2,91693,103854
//Storyboard Layer 0 (Background)
//Storyboard Layer 1 (Fail)
//Storyboard Layer 2 (Pass)
//Storyboard Layer 3 (Foreground)
//Storyboard Layer 4 (Overlay)
//Storyboard Sound Samples

[TimingPoints]
265,408.163265306122,4,2,0,60,1,0
13326,-125,4,2,0,45,0,0
26387,-100,4,2,0,62,0,0
49244,-117.647058823529,4,2,0,55,0,0
52509,-100,4,2,0,58,0,0
65571,-83.3333333333333,4,2,0,70,0,1
75367,-90.9090909090909,4,2,0,70,0,0
78632,-83.3333333333333,4,2,0,70,0,1
88428,-90.9090909090909,4,2,0,70,0,0
91693,-142.857142857143,4,2,0,35,0,0
104754,-100,4,2,0,65,0,0
117816,-100,4,2,0,60,0,0
128428,-117.647058823529,4,2,0,55,0,0
130877,-100,4,2,0,58,0,0
143938,-83.3333333333333,4,2,0,70,0,1
153734,-90.9090909090909,4,2,0,70,0,0
156999,-83.3333333333333,4,2,0,70,0,1
166795,-90.9090909090909,4,2,0,70,0,0
170060,-125,4,2,0,35,0,0
183122,-166.666666666667,4,2,0,25,0,0

[Colours]
Combo1 : 128,128,255
Combo2 : 192,192,192
Combo3 : 255,128,128
Combo4 : 255,255,128

[HitObjects]
121,85,13326,6,0,L|130:164,1,56,2|0,0:2|0:0,0:0:0:0:
143,231,13734,2,0,L|269:242,1,112,0|8,0:0|0:2,0:0:0:0:
424,197,14550,2,0,L|425:266,1,56,0|0,0:0|0:0,0:0:0:0:
422,344,14958,2,0,P|388:359|291:358,1,112,2|0,0:2|0:0,0:0:0:0:
226,214,15775,2,0,P|260:199|357:200,1,112,10|0,0:2|0:0,0:0:0:0:
445,60,16591,6,0,P|404:38|382:35,1,56,2|0,0:2|0:0,0:0:0:0:
303,46,16999,2,0,B|225:38|262:60|168:42,1,112,0|8,0:0|0:2,0:0:0:0:
63,164,17816,2,0,L|68:240,1,56,0|0,0:0|0:0,0:0:0:0:
76,312,18224,2,0,P|120:295|194:253,1,112,2|0,0:2|0:0,0:0:0:0:
121,103,19040,2,0,P|165:120|229:161,1,112,8|0,0:2|0:0,0:0:0:0:
314,9,19856,6,0,L|377:3,1,56,2|0,0:2|0:0,0:0:0:0:
456,32,20264,2,0,B|444:87|444:87|461:162,1,112,0|8,0:0|0:2,0:0:0:0:
463,310,21081,2,0,P|472:259|456:236,1,56,0|0,0:0|0:0,0:0:0:0:
392,217,21489,2,0,B|317:222|348:208|264:215,1,112,2|0,0:2|0:0,0:0:0:0:
113,92,22305,2,0,B|186:87|154:102|246:91,1,112,10|0,0:2|0:0,0:0:0:0:
387,27,23122,6,0,P|441:43|475:111,1,112,2|0,0:2|0:0,0:0:0:0:
379,232,23938,2,0,P|325:216|290:151,1,112,8|0,0:2|0:0,0:0:0:0:
241,9,24754,1,2,0:2:0:0:
204,179,25162,1,0,0:0:0:0:
342,69,25571,1,8,0:2:0:0:
364,241,25979,1,0,0:0:0:0:
495,124,26387,6,0,B|447:116|447:116|350:157,1,140,2|0,1:2|0:0,0:0:0:0:
280,200,26999,1,2,0:2:0:0:
293,108,27203,2,0,P|281:67|244:29,1,70,10|2,0:2|0:2,0:0:0:0:
183,10,27611,1,2,0:2:0:0:
97,34,27816,1,2,1:2:0:0:
97,34,28020,6,0,P|50:40|21:75,1,70,2|2,1:2|0:2,0:0:0:0:
4,138,28428,2,0,P|33:171|88:260,1,140,2|8,1:2|0:2,0:0:0:0:
106,349,29040,1,0,1:2:0:0:
106,349,29244,2,0,L|189:358,1,70,0|2,1:2|1:2,0:0:0:0:
265,356,29652,6,0,P|299:309|326:288,1,70,2|2,1:2|0:2,0:0:0:0:
386,256,30060,2,0,L|374:166,1,70,2|2,0:2|0:2,0:0:0:0:
364,95,30469,2,0,L|451:78,2,70,10|2|2,0:2|0:2|0:2,0:0:0:0:
274,114,31081,1,0,1:2:0:0:
274,114,31285,6,0,L|232:180,1,70,0|2,1:2|0:2,0:0:0:0:
195,256,31693,2,0,P|188:311|200:347,1,70,2|2,1:2|0:2,0:0:0:0:
260,383,32101,1,10,0:2:0:0:
338,332,32305,2,0,P|360:272|337:195,1,140,2|0,1:2|1:2,0:0:0:0:
283,130,32918,5,2,1:2:0:0:
209,178,33122,1,2,0:2:0:0:
174,261,33326,2,0,L|96:246,1,70,2|2,0:2|0:2,0:0:0:0:
16,245,33734,2,0,P|10:314|20:343,2,70,10|2|2,0:2|0:2|0:2,0:0:0:0:
69,171,34346,1,0,1:2:0:0:
69,171,34550,6,0,B|78:68|54:127|69:0,1,140,0|0,1:2|1:2,0:0:0:0:
236,0,35367,1,10,0:2:0:0:
291,71,35571,2,0,B|296:98|296:98|288:157,1,70,2|2,1:2|1:2,0:0:0:0:
255,225,35979,1,2,1:2:0:0:
255,225,36183,6,0,P|215:224|179:236,1,70,2|2,1:2|0:2,0:0:0:0:
130,303,36591,2,0,P|147:259|83:175,1,140,2|8,0:2|0:2,0:0:0:0:
99,7,37407,1,2,0:2:0:0:
189,32,37611,1,2,1:2:0:0:
189,32,37816,6,0,B|220:29|220:29|283:46,1,70,2|2,1:2|0:2,0:0:0:0:
338,84,38224,2,0,L|330:164,1,70,2|0,1:2|1:2,0:0:0:0:
317,243,38632,1,10,0:2:0:0:
230,274,38836,2,0,P|183:275|123:350,1,140,2|0,1:2|1:2,0:0:0:0:
209,358,39448,5,2,1:2:0:0:
108,217,39856,2,0,P|66:218|42:190,1,70,2|2,0:2|0:2,0:0:0:0:
35,112,40264,2,0,P|63:81|100:84,1,70,10|2,0:2|0:2,0:0:0:0:
154,145,40673,1,2,0:2:0:0:
242,169,40877,1,0,1:2:0:0:
242,169,41081,5,2,1:2:0:0:
364,44,41489,2,0,P|414:82|422:111,1,70,2|2,1:2|0:2,0:0:0:0:
438,173,41897,1,10,0:2:0:0:
408,258,42101,2,0,P|372:280|328:281,1,70,2|0,1:2|1:2,0:0:0:0:
257,266,42509,1,0,1:2:0:0:
173,299,42713,6,0,P|131:296|74:303,1,70,2|2,1:2|0:2,0:0:0:0:
20,335,43122,2,0,P|13:294|30:256,1,70,2|2,0:2|0:2,0:0:0:0:
76,192,43530,2,0,P|123:171|223:184,1,140,10|2,0:2|0:2,0:0:0:0:
297,208,44142,1,0,1:2:0:0:
297,208,44346,6,0,P|349:211|389:189,1,70,2|2,1:2|0:2,0:0:0:0:
452,178,44754,2,0,P|447:135|428:105,1,70,2|2,1:2|0:2,0:0:0:0:
378,38,45162,1,10,0:2:0:0:
302,85,45367,2,0,P|259:83|219:67,1,70,2|2,1:2|0:2,0:0:0:0:
158,27,45775,1,2,1:2:0:0:
158,27,45979,6,0,P|129:49|72:50,1,70,2|2,1:2|0:2,0:0:0:0:
8,79,46387,2,0,L|26:156,1,70,2|2,0:2|0:2,0:0:0:0:
52,235,46795,2,0,P|120:240|160:315,1,140,10|2,0:2|0:2,0:0:0:0:
184,382,47407,1,2,1:2:0:0:
184,382,47611,5,2,1:2:0:0:
344,328,48020,2,0,L|333:246,1,70,2|2,1:2|0:2,0:0:0:0:
316,168,48428,2,0,P|368:157|392:148,2,70,10|2|2,0:2|1:2|1:2,0:0:0:0:
227,148,49040,1,2,1:2:0:0:
227,148,49244,6,0,P|192:130|157:128,1,59.5000011348725,2|2,1:2|0:2,0:0:0:0:
84,139,49652,2,0,P|45:163|27:190,1,59.5000011348725,2|2,0:2|0:2,0:0:0:0:
7,257,50060,2,0,P|35:320|95:342,1,119.000002269745,2|2,0:2|0:2,0:0:0:0:
169,330,50673,1,2,1:2:0:0:
169,330,50877,6,0,P|217:316|247:320,1,59.5000011348725,0|2,1:2|0:2,0:0:0:0:
310,345,51285,1,0,1:2:0:0:
396,366,51489,2,0,P|441:326|417:262,1,119.000002269745,2|2,1:2|1:2,0:0:0:0:
432,184,52101,2,0,L|464:191,3,19.8333337116242,0|0|0|0,0:0|0:0|0:2|1:0,0:0:0:0:
340,163,52509,5,0,1:2:0:0:
189,38,52918,2,0,P|134:39|109:57,1,70,2|2,1:2|0:2,0:0:0:0:
57,110,53326,1,2,1:2:0:0:
35,198,53530,2,0,L|59:277,1,70,2|2,1:2|1:2,0:0:0:0:
104,347,53938,1,2,1:2:0:0:
104,347,54142,6,0,P|138:367|192:369,1,70,2|2,1:2|0:2,0:0:0:0:
252,341,54550,2,0,P|305:336|336:340,1,70,2|2,1:2|0:2,0:0:0:0:
398,381,54958,2,0,P|410:338|394:297,1,70,2|0,1:2|1:2,0:0:0:0:
346,243,55367,2,0,P|340:208|352:176,1,70,2|0,1:2|1:2,0:0:0:0:
390,95,55775,5,2,1:2:0:0:
220,61,56183,2,0,P|259:43|300:39,2,70,2|2|2,0:2|0:2|0:2,0:0:0:0:
151,116,56795,1,2,1:2:0:0:
151,116,56999,2,0,B|157:197,1,70,2|2,1:2|1:2,0:0:0:0:
168,278,57407,6,0,B|196:283|196:283|237:277,1,70,2|2,1:2|0:2,0:0:0:0:
327,264,57816,2,0,L|407:253,1,70,2|2,1:2|0:2,0:0:0:0:
488,250,58224,2,0,P|510:222|505:169,1,70,2|0,1:2|1:2,0:0:0:0:
505,98,58632,2,0,P|475:63|429:51,1,70,2|0,1:2|1:2,0:0:0:0:
362,71,59040,5,2,1:2:0:0:
157,40,59448,2,0,L|142:92,1,52.5,2|2,0:2|0:2,0:0:0:0:
104,174,59856,2,0,B|194:188|154:161|242:172,1,140,10|2,0:2|0:2,0:0:0:0:
338,181,60469,1,0,1:2:0:0:
338,181,60673,6,0,L|398:181,1,52.5,2|2,1:2|0:2,0:0:0:0:
512,186,61081,2,0,L|512:88,1,70,2|2,1:2|0:2,0:0:0:0:
505,24,61489,2,0,P|442:16|361:20,1,140,10|2,0:2|1:2,0:0:0:0:
275,20,62101,1,0,1:2:0:0:
275,20,62305,6,0,P|257:40|250:66,1,52.5,2|2,1:2|0:2,0:0:0:0:
237,184,62713,2,0,P|246:217|238:251,1,70,2|2,0:2|0:2,0:0:0:0:
186,327,63122,2,0,P|236:283|299:307,1,140,10|2,0:2|0:2,0:0:0:0:
371,369,63734,1,2,1:2:0:0:
371,369,63938,6,0,P|437:363|465:302,1,140,2|0,1:2|1:2,0:0:0:0:
394,220,64550,2,0,B|400:125|381:171|393:80,1,140,0|0,1:2|0:0,0:0:0:0:
392,80,65571,6,0,P|351:71|309:79,1,83.9999974365235,2|2,1:2|0:2,0:0:0:0:
223,107,65979,2,0,P|211:151|170:191,1,83.9999974365235,2|2,0:2|0:2,0:0:0:0:
103,217,66387,1,10,0:2:0:0:
19,256,66591,2,0,P|14:305|55:337,1,83.9999974365235,2|2,0:2|0:2,0:0:0:0:
121,369,66999,1,2,1:2:0:0:
121,369,67203,6,0,L|211:360,1,83.9999974365235,2|2,1:2|0:2,0:0:0:0:
296,356,67611,2,0,P|351:352|389:320,1,83.9999974365235,2|0,1:2|0:0,0:0:0:0:
417,257,68020,2,0,P|400:224|355:200,1,83.9999974365235,10|0,0:2|1:2,0:0:0:0:
273,202,68428,2,0,P|239:219|211:269,1,83.9999974365235,2|0,1:2|1:2,0:0:0:0:
206,351,68836,5,2,1:2:0:0:
206,351,69040,2,0,B|181:344|181:344|105:358,1,83.9999974365235,2|2,0:2|0:2,0:0:0:0:
36,373,69448,1,2,0:2:0:0:
0,293,69652,2,0,L|15:192,1,83.9999974365235,10|2,0:2|0:2,0:0:0:0:
39,120,70060,1,2,0:2:0:0:
131,114,70264,1,2,1:2:0:0:
131,114,70469,6,0,P|180:94|235:96,1,83.9999974365235,2|2,1:2|0:2,0:0:0:0:
290,133,70877,2,0,L|400:124,1,83.9999974365235,2|0,1:2|0:0,0:0:0:0:
470,124,71285,2,0,L|473:223,1,83.9999974365235,10|0,0:2|1:2,0:0:0:0:
473,298,71693,2,0,L|389:304,1,83.9999974365235,2|0,1:2|1:2,0:0:0:0:
300,314,72101,6,0,P|283:350|240:378,2,83.9999974365235,2|2|2,1:2|0:2|0:2,0:0:0:0:
290,224,72713,1,2,0:2:0:0:
266,136,72918,2,0,P|227:125|174:146,1,83.9999974365235,10|2,0:2|0:2,0:0:0:0:
114,192,73326,1,2,0:2:0:0:
83,280,73530,1,2,1:2:0:0:
83,280,73734,6,0,B|92:314|92:314|155:348,1,83.9999974365235,2|2,1:2|0:2,0:0:0:0:
222,361,74142,2,0,L|314:354,1,83.9999974365235,2|0,1:2|0:0,0:0:0:0:
391,329,74550,2,0,L|443:240,1,83.9999974365235,10|0,0:2|1:2,0:0:0:0:
468,170,74958,2,0,L|387:94,1,83.9999974365235,2|0,1:2|1:2,0:0:0:0:
342,49,75367,6,0,L|402:2,2,51.3333348999024,2|2|2,1:2|0:2|0:2,0:0:0:0:
318,71,75775,2,0,B|310:164|334:128|322:224,1,154.000004699707,2|8,0:2|0:2,0:0:0:0:
202,347,76591,2,0,L|258:358,2,51.3333348999024,2|2|2,0:2|0:2|0:2,0:0:0:0:
172,335,76999,6,0,B|160:239|185:273|168:182,1,154.000004699707,2|2,1:2|1:2,0:0:0:0:
102,116,77611,1,2,1:2:0:0:
22,166,77816,1,10,0:2:0:0:
0,251,78020,1,2,1:2:0:0:
34,334,78224,2,0,P|83:361|137:346,1,115.50000352478,2|0,0:2|0:0,0:0:0:0:
153,320,78632,6,0,L|235:306,1,83.9999974365235,2|2,1:2|0:2,0:0:0:0:
314,258,79040,2,0,L|397:271,1,83.9999974365235,2|2,0:2|0:2,0:0:0:0:
487,292,79448,2,0,L|474:405,2,83.9999974365235,10|2|2,0:2|0:2|0:2,0:0:0:0:
500,201,80060,1,2,1:2:0:0:
500,201,80264,6,0,P|495:146|477:105,1,83.9999974365235,0|2,1:2|0:2,0:0:0:0:
447,37,80673,2,0,B|407:27|407:27|338:37,1,83.9999974365235,2|0,1:2|0:0,0:0:0:0:
291,82,81081,2,0,B|248:88|248:88|208:78,1,83.9999974365235,10|0,0:2|1:2,0:0:0:0:
139,25,81489,2,0,B|99:15|99:15|56:21,1,83.9999974365235,2|0,1:2|1:2,0:0:0:0:
0,89,81897,6,0,P|-9:126|3:176,1,83.9999974365235,2|2,1:2|0:2,0:0:0:0:
71,225,82305,2,0,L|82:326,1,83.9999974365235,2|2,0:2|0:2,0:0:0:0:
131,379,82713,1,10,0:2:0:0:
213,345,82918,2,0,L|314:351,1,83.9999974365235,2|2,0:2|0:2,0:0:0:0:
390,354,83326,1,2,1:2:0:0:
390,354,83530,6,0,P|425:331|463:287,1,83.9999974365235,0|2,1:2|0:2,0:0:0:0:
494,222,83938,1,2,1:2:0:0:
479,134,84142,1,2,0:2:0:0:
422,67,84346,2,0,B|383:59|383:59|334:69,1,83.9999974365235,10|0,0:2|1:2,0:0:0:0:
266,119,84754,2,0,B|222:127|222:127|183:119,1,83.9999974365235,2|0,1:2|1:2,0:0:0:0:
98,95,85162,6,0,L|2:74,2,83.9999974365235,2|2|2,1:2|0:2|0:2,0:0:0:0:
183,119,85775,1,2,0:2:0:0:
124,189,85979,2,0,P|105:237|103:300,1,83.9999974365235,10|2,0:2|0:2,0:0:0:0:
95,362,86387,1,2,0:2:0:0:
190,368,86591,1,2,1:2:0:0:
190,368,86795,6,0,P|239:353|268:304,1,83.9999974365235,2|2,1:2|0:2,0:0:0:0:
268,238,87203,2,0,P|321:220|367:246,1,83.9999974365235,2|0,1:2|0:0,0:0:0:0:
386,308,87611,2,0,P|439:326|485:300,1,83.9999974365235,10|0,0:2|1:2,0:0:0:0:
512,239,88020,2,0,P|519:198|501:161,1,83.9999974365235,2|0,1:2|1:2,0:0:0:0:
430,107,88428,6,0,L|470:50,2,51.3333348999024,2|2|2,1:2|0:2|0:2,0:0:0:0:
408,137,88836,2,0,P|358:101|263:159,1,154.000004699707,2|8,0:2|0:2,0:0:0:0:
162,260,89652,2,0,L|101:258,2,51.3333348999024,2|2|2,0:2|0:2|0:2,0:0:0:0:
191,264,90060,6,0,P|258:294|321:256,1,154.000004699707,2|2,1:2|1:2,0:0:0:0:
368,178,90673,1,2,1:2:0:0:
393,90,90877,2,0,P|372:37|340:16,1,77.0000023498536,10|2,0:2|1:2,0:0:0:0:
268,14,91285,2,0,L|179:13,1,77.0000023498536,2|0,0:2|1:2,0:0:0:0:
49,250,104754,6,0,P|93:252|157:225,1,105,2|2,1:2|0:2,0:0:0:0:
176,213,105162,2,0,B|190:311|190:311|232:346,1,140,2|8,0:0|0:2,0:0:0:0:
301,380,105775,2,0,P|351:382|386:369,1,70,2|2,0:2|0:2,0:0:0:0:
406,369,106081,1,2,0:2:0:0:
406,369,106183,1,2,1:2:0:0:
489,334,106387,6,0,P|496:300|464:231,1,105,2|2,1:2|0:2,0:0:0:0:
440,218,106795,2,0,P|399:224|346:210,1,70,0|0,1:2|0:0,0:0:0:0:
289,181,107203,1,8,0:2:0:0:
211,136,107407,1,2,1:2:0:0:
206,122,107509,1,2,0:2:0:0:
200,109,107611,2,0,L|232:57,2,35,2|2|2,1:2|0:2|1:2,0:0:0:0:
133,174,108020,6,0,L|167:306,1,105,2|2,1:2|0:2,0:0:0:0:
171,307,108428,2,0,L|255:300,1,70,2|0,0:0|0:0,0:0:0:0:
332,296,108836,1,8,0:2:0:0:
426,281,109040,1,2,0:2:0:0:
426,281,109142,1,2,0:2:0:0:
426,281,109244,2,0,P|442:237|442:198,1,70,2|2,0:2|1:2,0:0:0:0:
419,125,109652,6,0,P|369:109|276:126,1,140,2|0,1:2|1:2,0:0:0:0:
129,188,110469,1,10,0:2:0:0:
176,263,110673,1,2,1:2:0:0:
186,272,110775,1,2,0:2:0:0:
195,282,110877,2,0,L|156:327,2,35,2|2|2,0:2|0:2|1:2,0:0:0:0:
257,218,111285,6,0,B|247:153|247:153|266:87,2,105,2|2|2,1:2|0:2|0:2,0:0:0:0:
275,307,112101,1,10,0:2:0:0:
357,344,112305,2,0,P|386:336|412:315,1,35,2|2,0:2|0:2,0:0:0:0:
416,316,112509,2,0,L|463:348,2,35,2|0|2,0:2|0:0|1:2,0:0:0:0:
352,249,112918,6,0,L|347:121,2,105,2|2|2,1:2|0:2|0:2,0:0:0:0:
357,344,113734,1,8,0:2:0:0:
265,334,113938,1,2,1:2:0:0:
250,336,114040,1,2,0:2:0:0:
235,339,114142,2,0,L|240:379,2,35,2|2|2,1:2|0:2|1:2,0:0:0:0:
220,250,114550,6,0,L|73:269,1,140,2|2,1:2|0:2,0:0:0:0:
312,245,115367,2,0,B|291:156|283:212|261:115,1,140,8|2,0:2|0:2,0:0:0:0:
265,93,115877,1,2,0:2:0:0:
265,93,115979,1,2,1:2:0:0:
277,6,116183,6,0,B|125:4,1,140,2|0,1:2|1:2,0:0:0:0:
4,109,116999,2,0,P|-3:142|2:177,1,70,10|2,0:2|1:2,0:0:0:0:
50,256,117407,2,0,P|46:300|63:343,1,70,2|2,0:2|1:2,0:0:0:0:
137,354,117816,6,0,L|242:350,1,105,2|0,1:2|0:0,0:0:0:0:
263,344,118224,2,0,L|346:351,1,70,2|0,0:2|0:0,0:0:0:0:
424,363,118632,2,0,P|422:328|409:296,1,70,10|2,0:2|0:2,0:0:0:0:
363,215,119040,2,0,L|372:130,1,70,2|2,0:2|1:2,0:0:0:0:
381,58,119448,6,0,L|303:65,1,70,2|2,1:2|0:2,0:0:0:0:
231,108,119856,2,0,L|156:94,1,70,2|2,1:2|0:2,0:0:0:0:
76,71,120264,2,0,L|69:-31,2,70,10|2|2,0:2|1:2|1:2,0:0:0:0:
76,163,120877,1,0,1:2:0:0:
76,163,121081,6,0,P|52:211|67:275,1,105,2|0,1:2|0:0,0:0:0:0:
78,284,121489,2,0,B|111:292|111:292|170:282,1,70,2|0,0:2|0:0,0:0:0:0:
237,263,121897,2,0,L|336:263,1,70,10|2,0:2|0:2,0:0:0:0:
398,264,122305,1,2,0:2:0:0:
377,174,122509,1,2,1:2:0:0:
377,174,122713,6,0,L|379:84,1,70,2|2,1:2|0:2,0:0:0:0:
378,14,123122,2,0,L|454:15,2,70,2|2|10,1:2|0:2|0:2,0:0:0:0:
288,15,123734,1,2,1:2:0:0:
204,53,123938,2,0,P|184:35|128:28,1,70,2|0,0:2|1:2,0:0:0:0:
70,82,124346,6,0,P|60:132|81:179,1,105,2|0,1:2|0:0,0:0:0:0:
101,198,124754,2,0,L|179:218,1,70,2|0,0:2|0:0,0:0:0:0:
256,240,125162,2,0,P|310:229|354:240,1,70,10|2,0:2|0:2,0:0:0:0:
410,260,125571,2,0,P|412:223|390:177,1,70,2|2,0:2|1:2,0:0:0:0:
364,110,125979,6,0,L|279:80,1,70,2|2,1:2|0:2,0:0:0:0:
212,57,126387,1,2,1:2:0:0:
128,94,126591,2,0,P|102:135|94:179,1,70,2|10,0:2|0:2,0:0:0:0:
77,245,126999,2,0,P|86:288|109:324,1,70,2|2,1:2|1:2,0:0:0:0:
189,340,127407,1,0,1:2:0:0:
189,340,127611,6,0,P|236:338|298:284,1,105,2|0,1:2|0:0,0:0:0:0:
303,280,128020,2,0,L|294:188,1,70,2|0,0:2|0:0,0:0:0:0:
277,122,128428,2,0,B|203:113|223:133|133:117,1,119.000002269745,2|2,0:2|0:2,0:0:0:0:
67,106,129040,1,2,1:2:0:0:
67,106,129244,6,0,L|68:215,1,89.2500017023087,0|0,1:2|0:0,0:0:0:0:
73,229,129652,1,0,1:2:0:0:
76,322,129856,2,0,P|121:356|172:350,1,89.2500017023087,2|0,1:2|0:0,0:0:0:0:
182,356,130264,2,0,B|260:351|221:367|306:360,1,119.000002269745,2|0,1:2|1:2,0:0:0:0:
422,346,130877,5,0,1:2:0:0:
444,174,131285,2,0,L|451:92,2,70,2|2|2,1:2|0:2|1:2,0:0:0:0:
433,262,131897,2,0,L|359:262,1,70,2|2,1:2|1:2,0:0:0:0:
279,237,132305,1,2,1:2:0:0:
279,237,132509,6,0,P|283:193|299:153,1,70,2|2,1:2|0:2,0:0:0:0:
347,96,132918,2,0,P|346:61|335:28,1,70,2|2,1:2|0:2,0:0:0:0:
247,0,133326,2,0,L|178:13,1,70,2|0,1:2|1:2,0:0:0:0:
88,39,133734,2,0,P|80:72|90:106,1,70,2|0,1:2|1:2,0:0:0:0:
126,188,134142,5,2,1:2:0:0:
297,175,134550,2,0,P|277:138|276:98,2,70,2|2|2,0:2|0:2|0:2,0:0:0:0:
378,213,135162,2,0,P|352:244|306:255,1,70,2|2,1:2|1:2,0:0:0:0:
234,258,135571,1,2,1:2:0:0:
234,258,135775,6,0,P|185:256|146:278,1,70,2|2,1:2|0:2,0:0:0:0:
94,319,136183,2,0,P|82:286|87:251,1,70,2|2,1:2|0:2,0:0:0:0:
128,173,136591,2,0,B|87:176|87:176|46:159,1,70,2|0,1:2|1:2,0:0:0:0:
9,87,136999,2,0,B|23:49|23:49|59:20,1,70,2|0,1:2|1:2,0:0:0:0:
129,0,137407,5,2,1:2:0:0:
311,4,137816,2,0,L|376:12,1,52.5,2|2,0:2|0:2,0:0:0:0:
445,89,138224,2,0,P|454:142|459:240,1,140,10|2,0:2|0:2,0:0:0:0:
393,289,138836,1,0,1:2:0:0:
393,289,139040,6,0,P|348:289|327:299,1,52.5,2|2,1:2|0:2,0:0:0:0:
237,337,139448,2,0,P|195:353|165:356,1,70,2|2,1:2|0:2,0:0:0:0:
79,359,139856,2,0,P|57:327|98:227,1,140,10|2,0:2|1:2,0:0:0:0:
156,183,140469,1,0,1:2:0:0:
156,183,140673,6,0,L|218:192,1,52.5,2|2,1:2|0:2,0:0:0:0:
308,138,141081,2,0,L|365:126,1,52.5,2|2,0:2|0:0,0:0:0:0:
466,166,141489,2,0,B|488:224|465:263|465:263|439:311,1,140,10|2,0:2|0:2,0:0:0:0:
377,358,142101,1,2,1:2:0:0:
377,358,142305,6,0,B|319:380|280:357|280:357|232:331,1,140,2|0,1:2|1:2,0:0:0:0:
165,300,142918,2,0,B|171:281|171:281|131:217|176:153,1,140,0|0,1:2|0:0,0:0:0:0:
167,167,143938,6,0,P|199:125|239:96,1,83.9999974365235,2|2,1:2|0:2,0:0:0:0:
298,54,144346,2,0,L|400:47,1,83.9999974365235,2|2,0:2|0:2,0:0:0:0:
469,53,144754,2,0,P|477:85|464:149,1,83.9999974365235,10|2,0:2|0:2,0:0:0:0:
397,198,145162,1,2,0:2:0:0:
324,255,145367,1,2,1:2:0:0:
324,255,145571,6,0,B|320:297|320:297|276:334,1,83.9999974365235,2|2,1:2|0:2,0:0:0:0:
198,367,145979,2,0,P|152:355|116:304,1,83.9999974365235,2|0,1:2|0:0,0:0:0:0:
99,241,146387,2,0,P|124:201|173:182,1,83.9999974365235,10|0,0:2|1:2,0:0:0:0:
245,177,146795,2,0,P|294:158|317:115,1,83.9999974365235,2|0,1:2|1:2,0:0:0:0:
317,41,147203,6,0,L|241:3,2,83.9999974365235,2|2|2,1:2|0:2|0:2,0:0:0:0:
393,92,147816,1,2,0:2:0:0:
421,181,148020,2,0,P|413:224|395:264,1,83.9999974365235,10|2,0:2|0:2,0:0:0:0:
330,329,148428,1,2,0:2:0:0:
238,320,148632,1,2,1:2:0:0:
238,320,148836,6,0,B|196:318|196:318|145:298,1,83.9999974365235,2|2,1:2|0:2,0:0:0:0:
75,260,149244,2,0,L|79:176,1,83.9999974365235,2|0,1:2|0:0,0:0:0:0:
83,85,149652,2,0,L|176:50,1,83.9999974365235,10|0,0:2|1:2,0:0:0:0:
248,32,150060,2,0,L|330:47,1,83.9999974365235,2|0,1:2|1:2,0:0:0:0:
419,73,150469,2,0,P|424:21|385:-14,2,83.9999974365235,2|2|2,1:2|0:2|0:2,0:0:0:0:
357,141,151081,1,2,0:2:0:0:
277,188,151285,2,0,P|288:242|337:275,1,83.9999974365235,10|2,0:2|0:2,0:0:0:0:
396,282,151693,1,2,0:2:0:0:
449,357,151897,1,2,1:2:0:0:
449,357,152101,6,0,L|356:365,1,83.9999974365235,2|2,1:2|0:2,0:0:0:0:
274,365,152509,2,0,B|268:335|268:335|294:270,1,83.9999974365235,2|0,1:2|0:0,0:0:0:0:
328,207,152918,2,0,B|361:220|361:220|431:211,1,83.9999974365235,10|0,0:2|1:2,0:0:0:0:
497,194,153326,2,0,B|503:164|503:164|477:99,1,83.9999974365235,2|0,1:2|1:2,0:0:0:0:
436,38,153734,6,0,L|510:18,2,51.3333348999024,2|2|2,1:2|0:2|0:2,0:0:0:0:
401,46,154142,2,0,L|234:67,1,154.000004699707,2|8,0:2|0:2,0:0:0:0:
76,97,154958,2,0,L|66:32,2,51.3333348999024,2|2|2,0:2|0:2|0:2,0:0:0:0:
78,126,155366,6,0,L|61:290,1,154.000004699707,2|2,1:2|1:2,0:0:0:0:
26,363,155979,1,2,1:2:0:0:
117,368,156183,1,10,0:2:0:0:
205,352,156387,1,2,1:2:0:0:
297,358,156591,2,0,P|284:310|328:256,1,115.50000352478,2|0,0:2|0:0,0:0:0:0:
353,241,156999,6,0,L|353:142,1,83.9999974365235,2|2,1:2|0:2,0:0:0:0:
350,67,157407,2,0,P|316:34|270:23,1,83.9999974365235,2|2,0:2|0:2,0:0:0:0:
191,44,157816,2,0,P|162:85|166:135,1,83.9999974365235,10|2,0:2|0:2,0:0:0:0:
211,195,158224,1,2,0:2:0:0:
295,241,158428,1,2,1:2:0:0:
295,241,158632,6,0,P|297:291|328:320,1,83.9999974365235,0|2,1:2|0:2,0:0:0:0:
406,346,159040,2,0,B|447:346|447:346|489:313,1,83.9999974365235,2|0,1:2|0:0,0:0:0:0:
512,235,159448,2,0,B|512:194|512:194|479:152,1,83.9999974365235,10|0,0:2|1:2,0:0:0:0:
414,104,159856,2,0,B|373:104|373:104|331:136,1,83.9999974365235,2|0,1:2|1:2,0:0:0:0:
277,196,160264,6,0,L|184:196,1,83.9999974365235,2|2,1:2|0:2,0:0:0:0:
104,196,160673,2,0,P|123:148|156:116,1,83.9999974365235,2|2,0:2|0:2,0:0:0:0:
224,79,161081,1,10,0:2:0:0:
310,50,161285,2,0,P|360:54|393:88,1,83.9999974365235,2|2,0:2|0:2,0:0:0:0:
444,143,161693,1,2,1:2:0:0:
444,143,161897,6,0,B|454:176|436:205|436:205|436:245,1,83.9999974365235,0|2,1:2|0:2,0:0:0:0:
441,312,162305,1,2,1:2:0:0:
366,361,162509,1,2,0:2:0:0:
277,364,162713,2,0,P|235:367|195:354,1,83.9999974365235,10|0,0:2|1:2,0:0:0:0:
115,314,163122,2,0,P|111:272|124:232,1,83.9999974365235,2|0,1:2|1:2,0:0:0:0:
166,153,163530,6,0,L|52:142,2,83.9999974365235,2|2|2,1:2|0:2|0:2,0:0:0:0:
255,162,164142,1,2,0:2:0:0:
345,159,164346,2,0,P|393:160|435:184,1,83.9999974365235,10|2,0:2|0:2,0:0:0:0:
496,231,164754,1,2,0:2:0:0:
439,301,164958,1,2,1:2:0:0:
439,301,165162,6,0,L|356:332,1,83.9999974365235,2|2,1:2|0:2,0:0:0:0:
275,364,165571,2,0,P|229:366|192:344,1,83.9999974365235,2|0,1:2|0:0,0:0:0:0:
123,298,165979,2,0,P|89:266|78:225,1,83.9999974365235,10|0,0:2|1:2,0:0:0:0:
73,136,166387,2,0,P|104:102|145:91,1,83.9999974365235,2|0,1:2|1:2,0:0:0:0:
230,94,166795,6,0,L|230:9,2,51.3333348999024,2|2|2,1:2|0:2|0:2,0:0:0:0:
236,126,167203,2,0,B|249:228|225:179|234:279,1,154.000004699707,2|8,0:2|0:2,0:0:0:0:
387,361,168020,2,0,P|417:365|447:360,2,51.3333348999024,2|2|2,0:2|0:2|0:2,0:0:0:0:
354,351,168428,6,0,B|340:248|364:297|355:197,1,154.000004699707,2|2,1:2|1:2,0:0:0:0:
352,108,169040,1,2,1:2:0:0:
288,47,169244,1,10,0:2:0:0:
199,46,169448,1,2,1:2:0:0:
132,110,169652,2,0,P|108:156|104:204,1,77.0000023498536,2|0,0:2|1:2,0:0:0:0:
84,272,170060,6,0,P|38:270|16:274,1,56,2|0,0:2|0:0,0:0:0:0:
3,187,170469,2,0,L|1:76,1,112,0|0,0:0|0:0,0:0:0:0:
179,166,171285,2,0,P|138:166|107:180,1,56,0|0,0:0|0:0,0:0:0:0:
67,249,171693,2,0,P|101:269|160:231,1,112,2|0,0:2|0:0,0:0:0:0:
132,65,172509,2,0,P|166:45|225:83,1,112,2|0,0:2|0:0,0:0:0:0:
285,241,173326,6,0,L|357:242,1,56,2|0,0:2|0:0,0:0:0:0:
432,241,173734,2,0,B|427:161|444:204|432:117,1,112,0|0,0:0|0:0,0:0:0:0:
325,7,174550,2,0,P|282:3|250:7,1,56,0|0,0:0|0:0,0:0:0:0:
181,33,174958,2,0,P|161:78|197:149,1,112,2|0,0:2|0:0,0:0:0:0:
305,255,175775,2,0,P|325:300|289:371,1,112,0|0,0:0|0:0,0:0:0:0:
135,357,176591,6,0,P|134:318|138:289,1,56,2|0,0:2|0:0,0:0:0:0:
172,215,176999,2,0,L|155:80,1,112,0|0,0:0|0:0,0:0:0:0:
307,26,177816,2,0,L|370:23,1,56,0|0,0:0|0:0,0:0:0:0:
454,16,178224,2,0,B|447:53|447:53|470:151,1,112,2|0,0:2|0:0,0:0:0:0:
512,289,179040,2,0,B|475:296|475:296|377:273,1,112,2|0,0:2|0:0,0:0:0:0:
235,240,179856,5,2,0:2:0:0:
78,170,180264,2,0,P|62:223|57:305,2,112,0|0|0,0:0|0:0|0:0,0:0:0:0:
159,17,181489,1,2,0:2:0:0:
206,184,181897,1,0,0:0:0:0:
270,22,182305,1,2,0:2:0:0:
331,181,182713,1,0,0:0:0:0:
461,78,183122,6,0,P|450:111|490:245,1,167.999994873047,2|0,0:2|0:0,0:0:0:0:
414,304,184346,1,0,0:0:0:0:
328,255,184754,2,0,B|287:264|244:255|244:255|195:273|145:255,1,167.999994873047,2|2,0:2|0:2,0:0:0:0:
79,206,185979,1,0,0:0:0:0:
134,127,186387,6,0,P|170:95|289:126,1,167.999994873047,2|0,0:2|0:0,0:0:0:0:
212,181,187611,1,0,0:0:0:0:
294,234,188020,2,0,B|334:258|377:249|377:249|407:213|467:218,1,167.999994873047,2|2,0:2|0:2,0:0:0:0:
451,310,189244,1,0,0:0:0:0:
366,356,189652,6,0,P|297:351|195:312,1,167.999994873047,2|0,0:2|0:0,0:0:0:0:
132,256,190877,1,0,0:0:0:0:
205,195,191285,2,0,P|215:143|121:71,1,167.999994873047,2|2,0:2|0:2,0:0:0:0:
43,101,192509,1,0,0:0:0:0:
138,70,192918,6,0,L|311:63,1,167.999994873047,2|0,0:2|0:0,0:0:0:0:
403,54,194142,1,0,0:0:0:0:
349,137,194550,2,0,B|343:252|366:194|349:323,1,167.999994873047,2|2,0:2|0:2,0:0:0:0:
278,363,195775,1,0,0:0:0:0:
