osu file format v14

[General]
AudioFilename: audio.mp3
AudioLeadIn: 0
PreviewTime: 10
Countdown: 0
SampleSet: Soft
StackLeniency: 0.2
Mode: 0
LetterboxInBreaks: 0
WidescreenStoryboard: 0

[Editor]
DistanceSpacing: 3.8
BeatDivisor: 4
GridSize: 4
TimelineZoom: 2.1

[Metadata]
Title:BANKROLL (snippet)
TitleUnicode:BANKROLL (snippet)
Artist:BROCKHAMPTON ft. A$AP ROCKY
ArtistUnicode:BROCKHAMPTON ft. A$AP ROCKY
Creator:Ancelysia
Version:DAY 1
Source:
Tags:meryln hill
BeatmapID:1804544
BeatmapSetID:862686

[Difficulty]
HPDrainRate:6
CircleSize:4
OverallDifficulty:8
ApproachRate:8
SliderMultiplier:1.2
SliderTickRate:1

[Events]
//Background and Video events
0,0,"BG.png",0,0
//Break Periods
//Storyboard Layer 0 (Background)
//Storyboard Layer 1 (Fail)
//Storyboard Layer 2 (Pass)
//Storyboard Layer 3 (Foreground)
//Storyboard Sound Samples

[TimingPoints]
60,400,4,2,1,80,1,0
60,-133.333333333333,4,2,1,80,0,0
2060,-133.333333333333,4,2,1,80,0,0
4885,400,4,2,1,80,1,0
5685,-133.333333333333,4,2,1,80,0,0
8110,400,4,2,1,80,1,0
10510,-133.333333333333,4,2,1,80,0,0
12135,400,4,2,0,80,1,0
12135,-133.333333333333,4,2,0,80,0,0
14935,-100,4,2,0,80,0,0
16160,400,4,2,0,80,1,0
16960,-133.333333333333,4,2,0,80,0,0
18160,-100,4,2,0,80,0,0
18560,-133.333333333333,4,2,0,80,0,0
19385,400,4,2,0,80,1,0
19385,-133.333333333333,4,2,0,80,0,0
21385,-100,4,2,0,80,0,0
23385,-133.333333333333,4,2,0,80,0,0
24210,400,4,2,0,80,1,0

[Colours]
Combo1 : 255,192,0
Combo2 : 0,202,0
Combo3 : 18,124,255
Combo4 : 242,24,57

[HitObjects]
40,192,60,53,0,1:0:0:0:
112,256,460,1,0,0:0:0:0:
112,256,860,2,0,L|104:360,2,90,0|0|0,0:0|3:0|1:0,0:0:0:0:
128,112,2060,5,0,3:0:0:0:
236,312,2260,1,0,0:0:0:0:
267,53,2460,5,0,3:0:0:0:
159,253,2660,1,0,0:0:0:0:
182,41,2860,5,0,3:0:0:0:
290,241,3060,1,0,0:0:0:0:
407,85,3260,5,0,1:0:0:0:
191,156,3460,1,0,0:0:0:0:
365,303,3660,5,0,3:0:0:0:
314,80,3860,1,0,1:0:0:0:
176,168,4060,6,0,L|64:152,1,90.0000034332277,0|0,0:0|3:0,0:0:0:0:
86,155,4885,1,0,1:0:0:0:
200,292,5285,5,0,3:0:0:0:
228,64,5485,1,0,0:0:0:0:
300,136,5685,6,0,B|348:140|348:140|416:128,3,90.0000034332277,0|0|0|0,0:0|3:0|1:0|3:0,0:0:0:0:
480,236,7285,2,0,B|432:240|432:240|364:228,1,90.0000034332277,0|0,3:0|3:0,0:0:0:0:
296,264,8110,1,0,1:0:0:0:
296,264,8510,5,0,3:0:0:0:
504,360,8710,1,0,0:0:0:0:
232,344,8910,5,0,3:0:0:0:
440,248,9110,1,0,0:0:0:0:
212,204,9310,5,0,3:0:0:0:
401,332,9510,1,0,0:0:0:0:
440,152,9710,5,0,1:0:0:0:
312,341,9910,1,0,0:0:0:0:
328,100,10110,5,0,3:0:0:0:
473,275,10310,1,0,0:0:0:0:
483,47,10510,6,0,L|390:38,1,90.0000034332277,0|0,3:0|3:0,0:0:0:0:
336,112,11310,2,0,L|243:121,1,90.0000034332277,0|0,1:0|3:0,0:0:0:0:
246,120,11910,1,0,1:0:0:0:
160,60,12135,6,0,B|137:64|137:64|120:52|120:52|120:52|116:56|116:56|108:56|108:56|56:60,2,90.0000034332277,0|0|0,3:0|0:0|1:0,0:0:0:0:
256,104,13335,1,0,0:0:0:0:
352,148,13735,2,0,B|388:144|388:144|392:148|392:148|388:152|388:152|404:148|404:148|432:148,2,90.0000034332277,0|0|0,0:0|0:0|1:0,0:0:0:0:
256,104,14935,5,4,3:0:0:0:
152,307,15135,1,0,0:0:0:0:
144,56,15335,5,0,3:0:0:0:
248,259,15535,1,0,0:0:0:0:
39,172,15735,5,0,3:0:0:0:
256,104,15935,1,0,0:0:0:0:
176,348,16160,5,0,1:0:0:0:
112,128,16360,1,0,0:0:0:0:
72,324,16560,5,0,3:0:0:0:
283,243,16760,1,0,1:0:0:0:
96,112,16960,6,0,B|92:144|92:144|96:144|96:144|96:152|96:152|92:160|88:160|88:160|96:196,2,90.0000034332277,0|0|0,0:0|0:0|1:0,0:0:0:0:
152,36,18160,5,4,3:0:0:0:
250,241,18360,1,0,0:0:0:0:
416,88,18560,6,0,B|392:96|392:96|392:88|392:88|376:92|376:92|356:84|356:84|332:84,1,90.0000034332277,0|0,3:0|0:0,0:0:0:0:
256,40,19385,1,0,1:0:0:0:
96,108,19785,1,0,0:0:0:0:
96,108,20185,6,0,B|120:104|120:104|136:116|136:116|148:108|148:108|184:108,1,90.0000034332277
256,60,21010,1,0,1:0:0:0:
365,120,21385,5,0,3:0:0:0:
271,327,21585,1,0,0:0:0:0:
264,88,21785,5,0,3:0:0:0:
358,295,21985,1,0,0:0:0:0:
146,210,22185,5,0,3:0:0:0:
369,165,22385,1,0,0:0:0:0:
124,100,22585,5,0,1:0:0:0:
316,224,22785,1,0,0:0:0:0:
152,304,22985,5,0,3:0:0:0:
228,88,23185,1,0,0:0:0:0:
387,233,23385,6,0,B|354:230|354:230|342:226|342:226|346:234|346:234|346:230|346:230|306:222|306:222|310:226,1,90.0000034332277
228,204,24210,1,0,1:0:0:0:
404,328,24610,5,0,3:0:0:0:
450,104,24810,1,0,1:0:0:0:
