osu file format v14

[General]
AudioFilename: audio.mp3
AudioLeadIn: 0
PreviewTime: 11190
Countdown: 0
SampleSet: Soft
StackLeniency: 0.4
Mode: 0
LetterboxInBreaks: 0
WidescreenStoryboard: 1

[Editor]
Bookmarks: 56513,101690,146866,237219
DistanceSpacing: 1.6
BeatDivisor: 4
GridSize: 16
TimelineZoom: 1

[Metadata]
Title:PALACE
TitleUnicode:PALACE
Artist:BROCKHAMPTON
ArtistUnicode:BROCKHAMPTON
Creator:Revolver
Version:Shattered Glass
Source:
Tags:matt champion bearface joba all-american trash contemporary r&b alternative indie art pop english squilly gay
BeatmapID:1921104
BeatmapSetID:919849

[Difficulty]
HPDrainRate:5
CircleSize:6
OverallDifficulty:7
ApproachRate:7.5
SliderMultiplier:2
SliderTickRate:1

[Events]
//Background and Video events
0,0,"palace.jpg",0,0
//Break Periods
//Storyboard Layer 0 (Background)
//Storyboard Layer 1 (Fail)
//Storyboard Layer 2 (Pass)
//Storyboard Layer 3 (Foreground)
//Storyboard Layer 4 (Overlay)
//Storyboard Sound Samples

[TimingPoints]
48,705.882352941176,4,2,0,40,1,0
56518,-250,4,2,0,25,0,0
66165,-250,4,2,0,5,0,0
66459,-250,4,2,0,25,0,0
73283,-250,4,2,0,5,0,0
73636,-250,4,2,0,25,0,0
77518,-250,4,2,0,5,0,0
77695,-250,4,2,0,25,0,0
83871,-250,4,2,0,5,0,0
84106,-250,4,2,0,25,0,0
88812,-250,4,2,0,5,0,0
88989,-250,4,2,0,25,0,0
101695,-100,4,2,0,40,0,0
146871,-250,4,2,0,25,0,0
156400,-250,4,2,0,5,0,0
156753,-250,4,2,0,25,0,0
163812,-250,4,2,0,5,0,0
163989,-250,4,2,0,25,0,0
167871,-250,4,2,0,5,0,0
168047,-250,4,2,0,25,0,0
179165,-250,4,2,0,5,0,0
179342,-250,4,2,0,25,0,0
197695,-250,4,2,0,30,0,0
203342,-250,4,2,0,35,0,0
208989,-250,4,2,0,40,0,0
214636,-250,4,2,0,40,0,1
220283,-250,4,2,0,45,0,1
225930,-250,4,2,0,50,0,1
231577,-250,4,2,0,55,0,1
237224,-250,4,2,0,40,0,0

[Colours]
Combo1 : 249,15,120
Combo2 : 27,92,158
Combo3 : 46,235,164
Combo4 : 234,159,91

[HitObjects]
96,74,49,5,0,0:0:0:0:
98,82,225,1,0,0:0:0:0:
140,125,401,1,0,0:0:0:0:
138,133,577,1,0,0:0:0:0:
96,176,754,1,0,0:0:0:0:
416,74,2872,5,0,0:0:0:0:
414,82,3048,1,0,0:0:0:0:
372,125,3224,1,0,0:0:0:0:
374,133,3400,1,0,0:0:0:0:
416,176,3577,1,0,0:0:0:0:
96,310,5696,5,0,0:0:0:0:
98,302,5872,1,0,0:0:0:0:
140,259,6048,1,0,0:0:0:0:
138,251,6224,1,0,0:0:0:0:
96,208,6401,1,0,0:0:0:0:
416,310,8519,5,0,0:0:0:0:
414,302,8695,1,0,0:0:0:0:
372,259,8871,1,0,0:0:0:0:
374,251,9047,1,0,0:0:0:0:
416,208,9224,1,0,0:0:0:0:
204,141,10284,6,0,P|152:128|98:178,1,100,0|0,0:0|0:0,0:0:0:0:
94,208,10990,1,0,0:0:0:0:
199,273,11343,6,0,B|244:254|244:254|290:275,1,100,2|0,3:0|0:0,0:0:0:0:
198,336,11872,2,0,B|244:357|244:357|299:335,1,100,2|0,3:0|0:0,0:0:0:0:
198,336,12401,1,8,0:0:0:0:
139,309,12754,1,0,0:0:0:0:
290,275,13107,1,0,3:0:0:0:
344,384,13460,2,0,L|348:332,1,50,8|0,0:0|0:0,0:0:0:0:
412,358,13813,2,0,L|407:306,1,50,0|0,0:0|0:0,0:0:0:0:
347,194,14166,6,0,P|324:239|373:273,1,100,2|0,0:0|0:0,0:0:0:0:
415,177,14696,2,0,P|367:176|350:133,1,100,2|0,0:0|0:0,0:0:0:0:
415,177,15225,1,8,0:0:0:0:
460,138,15578,1,0,0:0:0:0:
284,165,15931,2,0,L|171:155,1,100,2|0,0:0|0:0,0:0:0:0:
133,193,16460,1,2,0:0:0:0:
133,193,16637,2,0,P|126:138|137:122,1,50,8|0,0:0|0:0,0:0:0:0:
80,226,16990,6,0,P|61:161|68:104,1,100,2|0,3:0|0:0,0:0:0:0:
43,68,17519,2,0,P|41:117|25:164,1,100,2|0,3:0|0:0,0:0:0:0:
43,68,18048,1,8,0:0:0:0:
103,43,18401,1,0,0:0:0:0:
202,83,18754,2,0,P|177:82|154:74,1,50,2|0,0:0|0:0,0:0:0:0:
195,24,19107,2,0,P|250:44|244:128,1,150,8|0,0:0|0:0,0:0:0:0:
151,192,19813,6,0,B|197:171|197:171|252:193,1,100,2|0,0:0|0:0,0:0:0:0:
105,242,20343,2,0,B|151:263|151:263|196:244,1,100,2|0,0:0|0:0,0:0:0:0:
49,143,20872,2,0,B|54:200|54:200|40:221|40:221|46:288,1,150,8|0,0:0|0:0,0:0:0:0:
19,348,21578,1,2,0:0:0:0:
84,341,21931,1,2,0:0:0:0:
149,348,22284,1,10,0:0:0:0:
289,307,22637,6,0,P|239:303|213:343,1,100,2|0,3:0|0:0,0:0:0:0:
121,278,23166,2,0,P|168:283|196:244,1,100,2|0,3:0|0:0,0:0:0:0:
121,278,23696,1,8,0:0:0:0:
72,238,24048,1,0,0:0:0:0:
149,348,24401,1,0,3:0:0:0:
213,184,24754,2,0,P|218:156|214:127,1,50,8|0,0:0|0:0,0:0:0:0:
155,157,25107,2,0,P|150:129|154:100,1,50,0|0,0:0|0:0,0:0:0:0:
306,77,25460,6,0,L|197:67,1,100,2|0,0:0|0:0,0:0:0:0:
128,16,25990,2,0,L|227:7,1,100,2|0,0:0|0:0,0:0:0:0:
128,16,26519,1,8,0:0:0:0:
85,59,26872,1,0,0:0:0:0:
17,172,27225,2,0,L|27:63,1,100,2|0,0:0|0:0,0:0:0:0:
88,62,27754,1,2,0:0:0:0:
88,62,27931,2,0,L|82:121,1,50,8|0,0:0|0:0,0:0:0:0:
85,236,28284,6,0,P|85:185|141:198,1,100,2|0,3:0|0:0,0:0:0:0:
224,218,28813,2,0,P|224:167|168:180,1,100,2|0,3:0|0:0,0:0:0:0:
224,218,29343,1,8,0:0:0:0:
186,266,29696,1,0,0:0:0:0:
287,147,30048,2,0,L|293:71,1,50,2|0,0:0|0:0,0:0:0:0:
207,48,30401,2,0,B|242:80|242:80|357:64,1,150,8|0,0:0|0:0,0:0:0:0:
397,27,31107,6,0,P|407:84|383:120,1,100,2|0,0:0|0:0,0:0:0:0:
356,220,31637,2,0,P|400:182|443:185,1,100,2|0,0:0|0:0,0:0:0:0:
369,287,32166,2,0,B|290:296|314:229|235:238,1,150,8|0,0:0|0:0,0:0:0:0:
182,270,32872,1,2,0:0:0:0:
181,209,33225,1,2,0:0:0:0:
180,148,33578,2,0,L|90:139,1,66.6666666666667,10|2,0:0|0:0,0:0:0:0:
98,149,33931,6,0,P|81:104|104:55,1,100,6|0,3:0|0:0,0:0:0:0:
146,19,34460,1,2,3:0:0:0:
100,58,34637,2,0,P|55:75|6:52,1,100,0|8,0:0|0:0,0:0:0:0:
57,13,35343,1,0,0:0:0:0:
98,149,35696,1,0,3:0:0:0:
57,285,36048,2,0,L|48:383,1,100,8|0,0:0|0:0,0:0:0:0:
195,252,36754,6,0,L|296:260,1,100,2|0,0:0|0:0,0:0:0:0:
332,309,37284,1,2,3:0:0:0:
295,261,37460,2,0,L|303:161,1,100,0|8,0:0|0:0,0:0:0:0:
309,102,38166,1,0,0:0:0:0:
295,261,38519,1,0,3:0:0:0:
356,242,38872,2,0,P|363:217|360:189,1,50,0|0,0:0|3:0,0:0:0:0:
303,161,39225,2,0,P|270:151|234:155,1,66.6666666666667,8|2,0:0|0:0,0:0:0:0:
226,165,39578,6,0,B|178:186|178:186|136:163,1,100,2|0,3:0|0:0,0:0:0:0:
181,118,40107,1,2,3:0:0:0:
136,163,40284,2,0,B|115:115|115:115|138:73,1,100,0|8,0:0|0:0,0:0:0:0:
173,20,40990,1,0,0:0:0:0:
136,163,41343,2,0,P|96:177|30:149,2,100,2|8|0,3:0|0:0|0:0,0:0:0:0:
238,153,42401,6,0,P|284:136|331:150,1,100,2|0,0:0|0:0,0:0:0:0:
372,198,42931,1,2,3:0:0:0:
332,151,43107,2,0,P|317:103|334:57,1,100,0|8,0:0|0:0,0:0:0:0:
334,57,44166,1,2,0:0:0:0:
282,14,44519,2,0,L|211:7,1,66.6666666666667,2|0,0:0|0:0,0:0:0:0:
205,17,44872,2,0,L|138:22,1,66.6666666666667,10|2,0:0|0:0,0:0:0:0:
123,16,45225,6,0,L|112:134,1,100,2|0,3:0|0:0,0:0:0:0:
176,116,45754,1,2,3:0:0:0:
106,130,45931,2,0,L|98:229,1,100,0|8,0:0|0:0,0:0:0:0:
161,267,46637,1,0,0:0:0:0:
106,130,46990,1,0,3:0:0:0:
161,267,47343,2,0,P|215:281|270:261,1,100,8|0,0:0|0:0,0:0:0:0:
397,247,48048,6,0,B|370:226|370:226|301:233,1,100,2|0,0:0|0:0,0:0:0:0:
256,269,48578,1,2,3:0:0:0:
304,232,48754,2,0,B|325:205|325:205|318:139,1,100,0|8,0:0|0:0,0:0:0:0:
275,96,49460,1,0,0:0:0:0:
304,232,49813,1,2,3:0:0:0:
354,275,50166,2,0,P|394:288|431:271,1,66.6666666666667,0|0,0:0|3:0,0:0:0:0:
430,271,50519,2,0,P|443:231|426:194,1,66.6666666666667,8|2,0:0|0:0,0:0:0:0:
424,200,50872,6,0,L|434:83,1,100,2|0,3:0|0:0,0:0:0:0:
483,64,51401,1,2,3:0:0:0:
432,100,51578,2,0,L|332:91,1,100,0|8,0:0|0:0,0:0:0:0:
278,122,52284,1,0,0:0:0:0:
173,41,52637,2,0,P|222:72|198:120,2,100,2|8|0,3:0|0:0|0:0,0:0:0:0:
34,88,53696,6,0,P|84:99|144:81,1,100,2|0,3:0|0:0,0:0:0:0:
173,41,54225,1,2,3:0:0:0:
130,88,54401,2,0,P|119:138|137:198,1,100,0|8,0:0|0:0,0:0:0:0:
176,227,55107,1,0,0:0:0:0:
314,172,55460,1,2,0:0:0:0:
469,245,55813,2,0,L|394:238,1,66.6666666666667,2|2,0:0|0:0,0:0:0:0:
388,228,56166,2,0,L|381:302,1,66.6666666666667,10|2,0:0|0:0,0:0:0:0:
386,308,56519,6,0,B|342:288|289:310|289:310|150:342|101:163|344:191|204:352|204:352|163:349|128:301|128:258,1,566.666666666667,4|0,0:0|0:0,0:0:0:0:
271,92,62254,6,0,B|250:85|233:92|233:92|224:121|233:150|233:150|268:159|303:149|303:149|380:116|421:178|408:257|315:274|278:221|289:172,1,445
288,175,66460,6,0,P|239:159|220:166,1,73.3333333333333,2|0,0:0|0:0,0:0:0:0:
288,175,67931,6,0,B|287:118|323:83|323:83|397:105|387:250|301:317|222:299|154:246|166:161|166:161|209:186|216:241,1,626.666666666667
216,239,73637,6,0,B|212:277|212:277|223:298|223:298|215:343|145:369|75:352|59:270|59:270|80:240|80:240|79:231|79:231|101:201|101:201|100:191|100:191|101:166|115:128,1,445
114,129,77696,6,0,P|124:91|106:43,2,80,2|0|2,0:0|0:0|0:0,0:0:0:0:
65,93,79460,5,2,0:0:0:0:
113,53,79813,1,2,0:0:0:0:
177,47,80166,6,0,B|251:69|327:42|327:42|291:99|315:159|315:159|387:117|390:35,1,420,2|0,0:0|0:0,0:0:0:0:
390,43,84107,6,0,P|424:64|463:63,1,80,0|0,0:0|0:0,0:0:0:0:
469,60,85063,6,0,L|467:103,1,40,2|2,0:0|0:0,0:0:0:0:
460,106,85769,6,0,B|480:195|433:263|433:263|378:256|350:193|438:162|475:220,1,345,2|0,0:0|0:0,0:0:0:0:
474,219,88990,6,0,P|482:259|482:300,2,80,2|0|0,0:0|0:0|0:0,0:0:0:0:
424,175,90754,5,2,0:0:0:0:
360,178,91107,1,2,0:0:0:0:
306,142,91460,6,0,B|238:170|216:258|216:258|201:265|201:265|169:308|124:300|124:300|116:249|116:249|121:236|121:236|118:202|118:202|123:189|123:189|60:135|84:85|124:101|117:152,1,520,2|0,0:0|0:0,0:0:0:0:
176,157,96401,5,2,0:0:0:0:
170,93,96754,1,2,0:0:0:0:
212,45,97107,6,0,B|285:38|331:96|331:96|262:132|183:125|106:81,1,360,2|2,0:0|0:0,0:0:0:0:
57,98,100990,5,2,0:0:0:0:
11,251,101696,5,2,3:0:0:0:
64,278,101872,1,0,0:0:0:0:
91,225,102048,1,0,0:0:0:0:
38,198,102225,1,2,3:0:0:0:
11,251,102401,1,0,0:0:0:0:
91,225,102754,2,0,L|203:215,1,100,8|0,0:0|0:0,0:0:0:0:
91,225,103460,1,0,3:0:0:0:
205,276,103813,2,0,L|275:282,1,50,8|0,0:0|0:0,0:0:0:0:
190,216,104166,2,0,L|239:211,1,50,0|0,0:0|0:0,0:0:0:0:
271,161,104519,5,2,0:0:0:0:
324,134,104695,1,0,0:0:0:0:
351,187,104871,1,0,0:0:0:0:
298,214,105048,1,2,0:0:0:0:
271,161,105224,1,0,0:0:0:0:
351,187,105578,2,0,L|464:196,1,100,8|0,0:0|0:0,0:0:0:0:
512,109,106284,2,0,P|526:53|504:10,1,100,2|0,0:0|0:0,0:0:0:0:
442,21,106813,1,2,0:0:0:0:
442,21,106990,2,0,P|475:29|503:22,1,50,8|0,0:0|0:0,0:0:0:0:
384,52,107343,5,2,3:0:0:0:
331,25,107519,1,0,0:0:0:0:
304,78,107695,1,0,0:0:0:0:
357,105,107872,1,2,3:0:0:0:
384,52,108048,1,0,0:0:0:0:
304,78,108401,2,0,L|190:68,1,100,8|0,0:0|0:0,0:0:0:0:
82,104,109107,1,2,0:0:0:0:
135,205,109460,2,0,B|130:152|130:152|146:121|146:121|141:58,1,150,8|0,0:0|0:0,0:0:0:0:
55,51,110166,5,2,0:0:0:0:
2,78,110342,1,0,0:0:0:0:
29,131,110519,1,0,0:0:0:0:
82,104,110695,1,2,0:0:0:0:
55,51,110871,1,0,0:0:0:0:
29,131,111225,2,0,L|12:303,1,150,8|0,0:0|0:0,0:0:0:0:
10,341,111931,1,2,0:0:0:0:
65,313,112283,1,2,0:0:0:0:
120,341,112637,1,10,0:0:0:0:
208,261,112990,5,2,3:0:0:0:
261,288,113166,1,0,0:0:0:0:
234,341,113343,1,0,0:0:0:0:
181,314,113519,1,2,3:0:0:0:
208,261,113695,1,0,0:0:0:0:
234,341,114048,2,0,L|342:350,1,100,8|0,0:0|0:0,0:0:0:0:
208,261,114754,1,0,3:0:0:0:
148,364,115107,2,0,P|112:366|91:363,1,50,8|0,0:0|0:0,0:0:0:0:
119,302,115460,2,0,P|83:300|62:303,1,50,0|0,0:0|0:0,0:0:0:0:
27,243,115813,5,2,0:0:0:0:
80,216,115989,1,0,0:0:0:0:
53,163,116166,1,0,0:0:0:0:
0,190,116342,1,2,0:0:0:0:
27,243,116518,1,0,0:0:0:0:
53,163,116872,2,0,L|62:50,1,100,8|0,0:0|0:0,0:0:0:0:
168,222,117578,2,0,B|120:242|120:242|76:213,1,100,2|0,0:0|0:0,0:0:0:0:
126,163,118107,1,2,0:0:0:0:
126,163,118284,2,0,L|182:139,1,50,8|0,0:0|0:0,0:0:0:0:
256,66,118637,5,2,3:0:0:0:
203,93,118813,1,0,0:0:0:0:
230,146,118990,1,0,0:0:0:0:
283,119,119166,1,2,3:0:0:0:
256,66,119342,1,0,0:0:0:0:
230,146,119696,2,0,L|238:245,1,100,8|0,0:0|0:0,0:0:0:0:
283,119,120401,1,2,0:0:0:0:
382,167,120754,2,0,P|317:141|336:60,1,150,8|0,0:0|0:0,0:0:0:0:
397,87,121460,5,2,0:0:0:0:
450,60,121636,1,0,0:0:0:0:
423,7,121813,1,0,0:0:0:0:
370,34,121989,1,2,0:0:0:0:
397,87,122165,1,0,0:0:0:0:
423,7,122519,2,0,L|319:16,1,100,8|0,0:0|0:0,0:0:0:0:
267,37,123225,1,2,0:0:0:0:
209,20,123578,1,2,0:0:0:0:
153,42,123931,2,0,P|117:49|75:35,1,66.6666666666667,10|2,0:0|0:0,0:0:0:0:
74,35,124284,6,0,P|78:84|47:129,1,100,6|0,3:0|0:0,0:0:0:0:
0,157,124813,1,2,3:0:0:0:
52,125,124990,2,0,P|78:166|74:215,1,100,0|8,0:0|0:0,0:0:0:0:
52,125,125696,1,0,0:0:0:0:
186,165,126047,1,0,3:0:0:0:
322,124,126401,2,0,L|420:115,1,100,8|0,0:0|0:0,0:0:0:0:
267,187,127107,6,0,L|275:288,1,100,2|0,0:0|0:0,0:0:0:0:
323,324,127637,1,2,3:0:0:0:
275,287,127813,2,0,L|175:295,1,100,0|8,0:0|0:0,0:0:0:0:
116,301,128519,1,0,0:0:0:0:
275,287,128872,1,2,3:0:0:0:
256,348,129225,2,0,P|231:355|203:352,1,50,0|2,0:0|3:0,0:0:0:0:
175,295,129578,2,0,P|165:262|169:226,1,66.6666666666667,8|2,0:0|0:0,0:0:0:0:
179,218,129931,6,0,B|200:170|200:170|177:128,1,100,2|0,3:0|0:0,0:0:0:0:
132,173,130460,1,2,3:0:0:0:
177,128,130637,2,0,B|129:107|129:107|87:130,1,100,0|8,0:0|0:0,0:0:0:0:
34,165,131343,1,0,0:0:0:0:
177,128,131696,2,0,P|191:87|163:21,2,100,2|8|0,3:0|0:0|0:0,0:0:0:0:
200,221,132754,6,0,P|251:234|299:221,1,100,2|0,0:0|0:0,0:0:0:0:
352,248,133284,1,2,3:0:0:0:
296,222,133460,2,0,P|283:171|296:123,1,100,0|8,0:0|0:0,0:0:0:0:
294,126,134519,1,2,3:0:0:0:
347,92,134872,2,0,L|339:11,1,66.6666666666667,2|0,0:0|0:0,0:0:0:0:
332,13,135225,2,0,L|251:20,1,66.6666666666667,10|2,0:0|0:0,0:0:0:0:
258,31,135578,6,0,P|209:52|161:31,1,100,2|0,3:0|0:0,0:0:0:0:
118,0,136107,1,2,3:0:0:0:
167,36,136284,2,0,P|181:82|161:126,1,100,0|8,0:0|0:0,0:0:0:0:
65,220,136990,1,0,0:0:0:0:
159,127,137343,1,0,3:0:0:0:
114,176,137696,2,0,B|159:197|159:197|211:174,1,100,8|0,0:0|0:0,0:0:0:0:
269,302,138401,6,0,L|278:189,1,100,2|0,0:0|0:0,0:0:0:0:
338,219,138931,1,2,3:0:0:0:
286,188,139107,2,0,L|294:89,1,100,0|8,0:0|0:0,0:0:0:0:
228,53,139813,1,0,0:0:0:0:
286,188,140166,1,0,3:0:0:0:
208,227,140519,2,0,B|176:238|176:238|128:225,1,66.6666666666667,0|0,0:0|3:0,0:0:0:0:
131,217,140872,2,0,B|120:185|120:185|133:137,1,66.6666666666667,8|2,0:0|0:0,0:0:0:0:
140,145,141225,6,0,B|188:166|188:166|230:143,1,100,2|0,3:0|0:0,0:0:0:0:
185,98,141754,1,2,3:0:0:0:
230,143,141931,2,0,B|251:95|251:95|228:53,1,100,0|8,0:0|0:0,0:0:0:0:
193,0,142637,1,0,0:0:0:0:
230,143,142990,2,0,P|270:157|336:129,2,100,2|8|0,3:0|0:0|0:0,0:0:0:0:
41,149,144048,6,0,P|91:160|151:142,1,100,2|0,0:0|0:0,0:0:0:0:
180,102,144578,1,2,3:0:0:0:
137,149,144754,2,0,P|126:199|144:259,1,100,0|8,0:0|0:0,0:0:0:0:
183,288,145459,1,0,0:0:0:0:
321,233,145812,1,2,0:0:0:0:
476,306,146165,2,0,L|401:299,1,66.6666666666667,2|2,0:0|0:0,0:0:0:0:
395,289,146518,2,0,L|388:363,1,66.6666666666667,10|2,0:0|0:0,0:0:0:0:
394,367,146872,6,0,B|350:348|301:368|301:368|322:328|315:291|315:291|310:281|310:281|308:244|308:244|312:234|312:234|309:178|309:178|287:148|233:138|187:154|151:194|169:257|169:257|175:232|196:211,1,566.666666666667,4|0,0:0|0:0,0:0:0:0:
68,88,152519,6,0,B|66:112|52:149|52:149|-21:131|-3:42|20:-1|91:13|144:21|147:76|120:125|111:161|81:227,1,460,0|0,0:0|0:0,0:0:0:0:
84,218,156754,6,0,P|122:219|151:248,1,80,2|0,0:0|0:0,0:0:0:0:
84,218,158166,6,0,B|71:278|117:314|117:314|157:315|186:350|186:350|214:315|255:316|255:316|300:337|328:314|328:314|442:242|341:115|249:234|300:287|377:300,1,640,0|0,0:0|0:0,0:0:0:0:
373,299,163990,6,0,B|452:262|444:194|444:194|499:146|443:63|361:131|378:197|504:204|504:204|508:225|499:245,1,440
498,245,168048,6,0,P|491:276|500:323,2,80,2|2|0,0:0|0:0|0:0,0:0:0:0:
456,185,169813,5,2,0:0:0:0:
386,203,170166,1,2,0:0:0:0:
341,145,170519,6,0,B|227:179|148:73|148:73|195:197|133:290,1,446.666666666667,2|0,0:0|0:0,0:0:0:0:
85,342,175460,5,2,0:0:0:0:
66,273,175813,1,2,0:0:0:0:
81,202,176166,6,0,B|108:148|60:124|60:96|60:96|60:124|12:146|40:204|40:204|96:227|146:206,1,340,2|0,0:0|0:0,0:0:0:0:
146,205,179343,6,0,P|183:192|225:206,1,80,2|0,0:0|0:0,0:0:0:0:
146,205,181107,5,2,0:0:0:0:
161,146,181460,1,2,0:0:0:0:
150,87,181813,6,0,B|228:49|311:81|311:81|325:256|183:203|206:80|367:136|367:136|365:157|356:177,1,520,2|0,0:0|0:0,0:0:0:0:
341,234,186754,5,2,0:0:0:0:
365,293,187107,1,2,0:0:0:0:
392,355,187460,6,0,B|301:380|245:326|245:326|265:273|265:273|214:245|154:267,1,320,2|0,0:0|0:0,0:0:0:0:
155,261,190637,6,0,P|133:263|116:315,1,80,2|2,0:0|0:0,0:0:0:0:
249,148,192048,6,0,L|252:103,1,40,2|0,0:0|0:0,0:0:0:0:
181,68,192754,2,0,L|184:107,1,40,2|0,0:0|0:0,0:0:0:0:
256,136,193460,6,0,L|259:91,1,40,2|0,0:0|0:0,0:0:0:0:
188,56,194166,2,0,L|191:95,1,40,2|0,0:0|0:0,0:0:0:0:
53,186,194872,6,0,L|49:141,1,40,2|0,0:0|0:0,0:0:0:0:
121,106,195578,2,0,L|117:145,1,40,2|0,0:0|0:0,0:0:0:0:
46,174,196284,6,0,L|42:129,1,40,2|0,0:0|0:0,0:0:0:0:
114,94,196990,2,0,L|110:133,1,40,2|0,0:0|0:0,0:0:0:0:
232,137,197696,5,2,0:0:0:0:
289,109,198048,1,0,0:0:0:0:
261,52,198401,1,2,0:0:0:0:
204,80,198754,1,0,0:0:0:0:
232,147,199107,5,2,0:0:0:0:
289,119,199459,1,0,0:0:0:0:
261,62,199812,1,2,0:0:0:0:
204,90,200165,1,0,0:0:0:0:
381,96,200519,5,2,0:0:0:0:
324,68,200871,1,0,0:0:0:0:
352,11,201224,1,2,0:0:0:0:
409,39,201577,1,0,0:0:0:0:
381,106,201931,5,2,0:0:0:0:
352,21,202284,1,2,0:0:0:0:
324,78,202637,1,0,0:0:0:0:
409,49,202990,1,0,0:0:0:0:
385,218,203343,6,0,P|388:240|382:264,1,40,2|0,0:0|0:0,0:0:0:0:
330,331,204048,2,0,P|326:311|329:291,1,40,2|0,0:0|0:0,0:0:0:0:
389,211,204754,6,0,P|392:233|386:257,1,40,2|0,0:0|0:0,0:0:0:0:
334,324,205460,2,0,P|330:304|333:284,1,40,2|0,0:0|0:0,0:0:0:0:
206,254,206166,6,0,P|203:276|209:300,1,40,2|0,0:0|0:0,0:0:0:0:
261,367,206872,2,0,P|264:347|261:327,1,40,2|0,0:0|0:0,0:0:0:0:
202,247,207578,6,0,P|199:269|205:293,1,40,2|0,0:0|0:0,0:0:0:0:
257,360,208284,2,0,P|260:340|257:320,1,40,2|0,0:0|0:0,0:0:0:0:
84,223,208990,5,2,0:0:0:0:
153,188,209342,1,0,0:0:0:0:
119,119,209695,1,2,0:0:0:0:
49,153,210048,1,0,0:0:0:0:
84,235,210401,5,2,0:0:0:0:
153,201,210753,1,0,0:0:0:0:
119,131,211106,1,2,0:0:0:0:
49,165,211459,1,0,0:0:0:0:
119,339,211813,5,2,0:0:0:0:
50,304,212165,1,0,0:0:0:0:
84,235,212518,1,2,0:0:0:0:
154,269,212871,1,0,0:0:0:0:
119,351,213224,5,2,0:0:0:0:
84,247,213578,1,0,0:0:0:0:
50,317,213931,1,2,0:0:0:0:
154,281,214284,1,0,0:0:0:0:
240,163,214637,6,0,L|261:164,1,20,2|0,0:0|0:0,0:0:0:0:
308,207,214990,2,0,L|327:205,1,20,0|0,0:0|0:0,0:0:0:0:
230,173,215343,6,0,L|251:174,1,20,2|0,0:0|0:0,0:0:0:0:
298,217,215696,2,0,L|317:215,1,20,0|0,0:0|0:0,0:0:0:0:
268,91,216048,6,0,L|289:89,1,20,2|0,0:0|0:0,0:0:0:0:
336,47,216401,2,0,L|355:48,1,20
258,81,216754,6,0,L|279:79,1,20,2|0,0:0|0:0,0:0:0:0:
326,37,217107,2,0,L|345:38,1,20,0|0,0:0|0:0,0:0:0:0:
240,163,217460,6,0,L|218:164,1,20,2|0,0:0|0:0,0:0:0:0:
172,207,217813,2,0,L|152:205,1,20,0|0,0:0|0:0,0:0:0:0:
250,173,218166,6,0,L|228:174,1,20,2|0,0:0|0:0,0:0:0:0:
182,217,218519,2,0,L|162:215,1,20,0|0,0:0|0:0,0:0:0:0:
212,91,218871,6,0,L|190:89,1,20,2|0,0:0|0:0,0:0:0:0:
144,47,219224,2,0,L|124:48,1,20,0|0,0:0|0:0,0:0:0:0:
222,81,219577,6,0,L|200:79,1,20,2|0,0:0|0:0,0:0:0:0:
154,37,219930,2,0,L|134:38,1,20,0|0,0:0|0:0,0:0:0:0:
37,162,220284,6,0,P|34:177|34:187,1,20,2|0,0:0|0:0,0:0:0:0:
116,126,220637,2,0,P|101:123|91:123,1,20,0|0,0:0|0:0,0:0:0:0:
152,205,220990,6,0,P|155:190|155:180,1,20,2|0,0:0|0:0,0:0:0:0:
73,241,221343,2,0,P|88:244|98:244,1,20,0|0,0:0|0:0,0:0:0:0:
31,153,221696,6,0,P|28:168|28:178,1,20,2|0,0:0|0:0,0:0:0:0:
110,117,222047,2,0,P|95:114|85:114,1,20
146,196,222400,6,0,P|149:181|149:171,1,20,2|0,0:0|0:0,0:0:0:0:
67,232,222753,2,0,P|82:235|92:235,1,20
270,311,223107,6,0,P|273:296|273:286,1,20,2|0,0:0|0:0,0:0:0:0:
191,347,223460,2,0,P|206:350|216:350,1,20,0|0,0:0|0:0,0:0:0:0:
155,268,223813,6,0,P|152:283|152:293,1,20,2|0,0:0|0:0,0:0:0:0:
234,232,224166,2,0,P|219:229|209:229,1,20,0|0,0:0|0:0,0:0:0:0:
276,320,224519,6,0,P|279:305|279:295,1,20,2|0,0:0|0:0,0:0:0:0:
161,277,224872,2,0,P|158:292|158:302,1,20
240,241,225225,6,0,P|225:238|215:238,1,20,2|0,0:0|0:0,0:0:0:0:
197,356,225578,2,0,P|212:359|222:359,1,20
384,384,225931,6,0,L|381:356,1,20,2|0,0:0|0:0,0:0:0:0:
464,259,226284,2,0,L|465:239,1,20,0|0,0:0|0:0,0:0:0:0:
470,364,226637,6,0,L|472:336,1,20,2|0,0:0|0:0,0:0:0:0:
390,239,226990,2,0,L|388:219,1,20,0|0,0:0|0:0,0:0:0:0:
391,375,227343,6,0,L|388:347,1,20,2|0,0:0|0:0,0:0:0:0:
471,250,227696,2,0,L|472:230,1,20,0|0,0:0|0:0,0:0:0:0:
477,355,228047,6,0,L|479:327,1,20,2|0,0:0|0:0,0:0:0:0:
397,230,228400,2,0,L|395:210,1,20
285,384,228754,6,0,L|287:356,1,20,2|0,0:0|0:0,0:0:0:0:
205,259,229107,2,0,L|203:239,1,20,0|0,0:0|0:0,0:0:0:0:
199,364,229460,6,0,L|196:336,1,20,2|0,0:0|0:0,0:0:0:0:
279,239,229813,2,0,L|280:219,1,20,0|0,0:0|0:0,0:0:0:0:
278,375,230166,6,0,L|280:347,1,20,2|0,0:0|0:0,0:0:0:0:
198,250,230519,2,0,L|196:230,1,20,0|0,0:0|0:0,0:0:0:0:
192,355,230872,6,0,L|189:327,1,20,2|0,0:0|0:0,0:0:0:0:
272,230,231225,2,0,L|273:210,1,20,0|0,0:0|0:0,0:0:0:0:
72,68,231578,6,0,P|55:66|35:68,1,20,2|0,0:0|0:0,0:0:0:0:
185,110,231931,2,0,P|202:108|222:110,1,20
48,169,232284,6,0,P|31:167|11:169,1,20,2|0,0:0|0:0,0:0:0:0:
161,211,232637,2,0,P|178:209|198:211,1,20
55,60,232990,6,0,P|38:58|18:60,1,20,2|0,0:0|0:0,0:0:0:0:
202,102,233343,2,0,P|219:100|239:102,1,20
29,175,233696,6,0,P|12:173|-8:175,1,20,2|0,0:0|0:0,0:0:0:0:
180,217,234048,2,0,P|197:215|217:217,1,20
423,110,234401,6,0,P|440:108|460:110,1,20,2|0,0:0|0:0,0:0:0:0:
269,175,234754,2,0,P|252:173|232:175,1,20
468,276,235107,6,0,P|485:274|505:276,1,20,2|0,0:0|0:0,0:0:0:0:
314,341,235460,2,0,P|297:339|277:341,1,20
228,114,235813,6,0,P|226:97|228:77,1,20,2|0,0:0|0:0,0:0:0:0:
227,359,236166,2,0,P|225:376|227:396,1,20
95,108,236519,6,0,P|97:91|95:71,1,20,2|0,0:0|0:0,0:0:0:0:
132,365,236872,2,0,P|134:382|132:402,1,20
96,310,237225,5,6,0:0:0:0:
98,302,237401,1,0,0:0:0:0:
140,259,237577,1,0,0:0:0:0:
138,251,237753,1,0,0:0:0:0:
96,208,237930,1,0,0:0:0:0:
416,310,240048,5,0,0:0:0:0:
414,302,240224,1,0,0:0:0:0:
372,259,240400,1,0,0:0:0:0:
374,251,240578,1,0,0:0:0:0:
416,208,240753,1,0,0:0:0:0:
96,74,242872,5,0,0:0:0:0:
98,82,243048,1,0,0:0:0:0:
140,125,243224,1,0,0:0:0:0:
138,133,243400,1,0,0:0:0:0:
96,176,243577,1,0,0:0:0:0:
416,74,245695,5,0,0:0:0:0:
414,82,245871,1,0,0:0:0:0:
372,125,246047,1,0,0:0:0:0:
374,133,246225,1,0,0:0:0:0:
416,176,246400,1,0,0:0:0:0:
