osu file format v14

[General]
AudioFilename: audio.mp3
AudioLeadIn: 0
PreviewTime: 162503
Countdown: 0
SampleSet: Soft
StackLeniency: 0.7
Mode: 0
LetterboxInBreaks: 0
WidescreenStoryboard: 0

[Editor]
DistanceSpacing: 1.2
BeatDivisor: 8
GridSize: 32
TimelineZoom: 1.5

[Metadata]
Title:GINGER
TitleUnicode:GINGER
Artist:BROCKHAMPTON
ArtistUnicode:BROCKHAMPTON
Creator:Aistre
Version:PULL OUT YOUR MIND
Source:
Tags:english hip hop Question Everything matt champion kevin abstract bearface dom mclennon alphabet venax mayflower alternative r&b pop rap
BeatmapID:2540452
BeatmapSetID:1221245

[Difficulty]
HPDrainRate:5
CircleSize:5
OverallDifficulty:8
ApproachRate:8.6
SliderMultiplier:1.9
SliderTickRate:1

[Events]
//Background and Video events
0,0,"ginger.jpg",0,0
//Break Periods
//Storyboard Layer 0 (Background)
//Storyboard Layer 1 (Fail)
//Storyboard Layer 2 (Pass)
//Storyboard Layer 3 (Foreground)
//Storyboard Layer 4 (Overlay)
//Storyboard Sound Samples

[TimingPoints]
42,461.538461538462,4,2,1,44,1,0
14811,-250,4,2,2,44,0,0
29580,-133.333333333333,4,2,1,57,0,0
30965,-133.333333333333,4,2,1,57,0,0
43426,-266.666666666667,4,2,1,57,0,0
44349,-100,4,2,1,57,0,0
59118,-133.333333333333,4,2,3,57,0,0
73195,-133.333333333333,4,2,8,57,0,0
73888,-133.333333333333,4,2,4,57,0,0
88657,-100,4,2,8,57,0,0
102272,-133.333333333333,4,2,1,57,0,0
103426,-100,4,2,8,57,0,0
105272,-100,4,2,80,57,0,0
106657,-100,4,2,81,57,0,0
107118,-100,4,2,8,57,0,0
108965,-100,4,2,80,57,0,0
110811,-100,4,2,81,57,0,0
113580,-100,4,2,80,57,0,0
113811,-100,4,2,81,57,0,0
114042,-100,4,2,8,57,0,0
116349,-200,4,2,1,57,0,0
116811,-133.333333333333,4,2,1,57,0,0
117272,-66.6666666666667,4,2,1,57,0,0
117734,-100,4,2,1,57,0,0
118195,-117.647058823529,4,2,7,57,0,0
120965,-86.9565217391304,4,2,7,57,0,0
121888,-117.647058823529,4,2,7,57,0,0
124657,-86.9565217391304,4,2,7,57,0,0
125580,-117.647058823529,4,2,7,57,0,0
131118,-117.647058823529,4,2,1,57,0,0
132042,-235.294117647059,4,2,1,57,0,0
132965,-86.9565217391304,4,2,1,57,0,0
146811,-173.913043478261,4,2,1,57,0,0
147734,-133.333333333333,4,2,8,57,0,0
160888,-333.333333333333,4,2,1,57,0,0
162503,-100,4,2,9,64,0,0
165272,-100,4,2,1,64,0,0
165734,-100,4,2,9,64,0,0
168965,-100,4,2,1,64,0,0
169426,-100,4,2,9,64,0,0
172657,-100,4,2,1,64,0,0
173118,-100,4,2,9,64,0,0
177272,-200,4,2,1,42,0,0
192042,-100,4,2,1,57,0,0
204734,-200,4,2,1,57,0,0
206580,-100,4,2,1,57,0,0
206811,-83.3333333333333,4,2,10,57,0,0
219734,-133.333333333333,4,2,10,57,0,0
220657,-133.333333333333,4,2,1,57,0,0
221580,-100,4,2,1,70,0,0
221811,-100,4,2,1,50,0,0
222503,-100,4,2,1,40,0,0
223426,-100,4,2,1,30,0,0
224349,-100,4,2,1,20,0,0
225272,-100,4,2,1,10,0,0

[Colours]
Combo1 : 255,128,128
Combo2 : 242,216,223
Combo3 : 113,113,255
Combo4 : 140,202,213
Combo5 : 220,175,114
Combo6 : 192,192,192

[HitObjects]
256,192,11580,12,0,14580,0:0:0:0:
50,115,14811,6,0,L|41:165,1,38,6|0,0:0|0:0,0:0:0:0:
74,218,15272,2,0,L|67:180,1,38
26,286,15734,2,0,L|110:307,1,76,2|0,0:0|0:0,0:0:0:0:
152,352,16426,1,0,0:0:0:0:
224,342,16657,2,0,L|272:334,1,38,2|0,0:0|0:0,0:0:0:0:
192,267,17118,2,0,L|144:259,1,38
245,222,17580,2,0,L|253:184,1,38,2|0,0:0|0:0,0:0:0:0:
209,126,18042,1,2,0:0:0:0:
207,116,18272,1,2,0:0:0:0:
259,50,18503,2,0,L|274:93,1,38,6|0,0:0|0:0,0:0:0:0:
341,87,18965,2,0,L|336:135,1,38
394,167,19426,2,0,L|357:240,1,76,2|0,0:0|0:0,0:0:0:0:
418,166,20407,2,0,L|412:185,1,19,2|0,0:0|0:0,0:0:0:0:
418,167,20811,1,0,0:0:0:0:
432,194,21042,1,0,0:0:0:0:
494,237,21272,2,0,L|486:283,1,38,2|0,0:0|0:0,0:0:0:0:
471,269,21734,2,0,L|484:314,1,38,2|2,0:0|0:0,0:0:0:0:
484,382,22195,54,0,L|442:372,1,38,6|0,0:0|0:0,0:0:0:0:
379,373,22657,2,0,L|351:332,1,38
294,322,23118,2,0,L|305:239,1,76,2|0,0:0|0:0,0:0:0:0:
484,382,24042,2,0,L|442:372,1,38,2|0,0:0|0:0,0:0:0:0:
379,373,24504,2,0,L|351:332,1,38
294,322,24965,2,0,L|305:239,1,76,2|0,0:0|0:0,0:0:0:0:
484,382,25888,2,0,L|442:372,1,38,2|0,0:0|0:0,0:0:0:0:
379,373,26350,2,0,L|351:332,1,38
294,322,26811,2,0,L|305:239,1,76,2|2,0:0|0:0,0:0:0:0:
368,214,27503,1,2,0:0:0:0:
484,382,27734,2,0,L|442:372,1,38,2|0,0:0|0:0,0:0:0:0:
379,373,28196,2,0,L|351:332,1,38
294,322,28657,2,0,L|305:239,1,76,2|0,0:0|0:0,0:0:0:0:
257,56,29580,38,0,L|284:148,1,71.2500027179719,6|0,3:2|0:0,0:0:0:0:
277,124,29926,1,0,3:0:0:0:
275,151,30042,1,8,0:0:0:0:
352,147,30272,1,0,3:0:0:0:
418,188,30503,2,0,L|510:206,1,71.2500027179719,2|0,0:2|0:0,0:0:0:0:
392,283,30965,2,0,L|481:268,1,71.2500027179719,8|0,0:0|0:0,0:0:0:0:
445,351,31426,69,2,3:2:0:0:
312,246,31657,1,0,0:0:0:0:
307,260,31772,1,0,3:0:0:0:
291,259,31888,1,8,0:0:0:0:
224,286,32118,1,0,3:0:0:0:
139,214,32349,2,0,L|150:104,2,106.875004076958,8|2|2,0:1|0:0|0:0,0:0:0:0:
88,261,33272,6,0,L|16:254,1,71.2500027179719,2|0,3:2|0:0,0:0:0:0:
17,254,33618,1,0,3:0:0:0:
8,232,33734,1,8,0:0:0:0:
78,170,33965,1,0,3:0:0:0:
19,104,34195,2,0,L|37:33,2,71.2500027179719,2|0|8,0:0|3:0|0:0,0:0:0:0:
78,170,35118,70,0,L|165:152,1,71.2500027179719,2|0,3:2|0:0,0:0:0:0:
144,152,35465,1,0,3:0:0:0:
185,170,35580,1,8,0:0:0:0:
223,105,35811,1,0,3:0:0:0:
174,49,36042,2,8,L|130:59,1,35.625001358986,8|8,0:1|0:1,0:1:0:0:
193,27,36272,2,0,L|230:6,1,35.625001358986,2|2,3:1|0:1,0:0:0:0:
231,115,36503,1,8,0:0:0:0:
281,183,36734,1,0,3:0:0:0:
279,264,36965,6,0,L|199:254,1,71.2500027179719,2|0,3:2|0:0,0:0:0:0:
208,255,37311,1,0,3:0:0:0:
179,285,37426,1,8,0:0:0:0:
221,353,37657,1,0,3:0:0:0:
313,357,37888,2,0,L|394:377,2,71.2500027179719,2|2|8,0:0|0:1|0:0,0:0:0:0:
279,264,38811,2,0,L|199:254,1,71.2500027179719,2|0,3:2|0:0,0:0:0:0:
208,255,39157,1,0,3:0:0:0:
179,285,39272,1,8,0:0:0:0:
221,353,39503,1,0,3:0:0:0:
313,357,39734,2,0,L|394:377,2,71.2500027179719,2|0|8,0:0|3:0|0:0,0:0:0:0:
313,357,40426,1,0,0:0:0:0:
279,264,40657,2,0,L|199:254,1,71.2500027179719,2|0,3:2|0:0,0:0:0:0:
209,255,41003,1,0,3:0:0:0:
179,285,41118,1,8,0:0:0:0:
221,353,41349,1,0,3:0:0:0:
313,357,41580,2,0,L|394:377,1,71.2500027179719,2|0,0:0|3:0,0:0:0:0:
313,357,42042,1,10,0:0:0:0:
313,357,42272,1,2,0:0:0:0:
279,264,42503,2,0,L|199:254,1,71.2500027179719,2|0,0:0|0:0,0:0:0:0:
179,285,42965,1,0,0:0:0:0:
221,353,43196,1,0,0:0:0:0:
313,357,43426,2,0,L|394:377,1,71.2500027179719,2|0,0:0|0:0,0:0:0:0:
36,49,44349,70,0,L|50:155,1,95,6|0,3:2|0:0,0:0:0:0:
74,179,44695,1,0,3:0:0:0:
42,159,44811,1,8,0:0:0:0:
189,124,45042,1,0,3:0:0:0:
277,182,45272,2,0,L|380:170,1,95,2|0,0:2|0:0,0:0:0:0:
230,32,45734,2,0,L|127:20,1,95,8|0,0:0|0:0,0:0:0:0:
301,12,46195,5,2,3:2:0:0:
386,182,46426,1,0,0:0:0:0:
374,196,46542,1,0,3:0:0:0:
375,217,46657,1,8,0:0:0:0:
471,193,46888,1,0,3:0:0:0:
490,287,47118,2,0,L|516:124,2,142.5,8|2|2,0:1|0:0|0:0,0:0:0:0:
471,193,48042,70,0,L|462:83,1,95,2|0,3:2|0:0,0:0:0:0:
435,73,48388,1,0,3:0:0:0:
473,91,48503,1,8,0:0:0:0:
342,95,48734,1,0,3:0:0:0:
253,16,48965,2,0,L|133:39,2,95,2|0|8,0:0|3:0|0:0,0:0:0:0:
412,146,49888,6,0,L|425:248,1,95,2|0,3:2|0:0,0:0:0:0:
413,282,50234,1,0,3:0:0:0:
435,247,50349,1,8,0:0:0:0:
332,303,50580,1,0,3:0:0:0:
225,326,50811,2,8,L|163:315,1,47.5,8|8,0:1|0:1,0:1:0:0:
238,368,51042,2,0,L|300:357,1,47.5,2|2,3:1|0:1,0:0:0:0:
249,254,51272,1,8,0:0:0:0:
211,185,51503,1,0,3:0:0:0:
270,111,51734,70,0,L|264:3,1,95,2|0,3:2|0:0,0:0:0:0:
229,0,52080,1,0,3:0:0:0:
274,24,52195,1,8,0:0:0:0:
164,79,52426,1,0,3:0:0:0:
46,26,52657,2,0,L|15:117,2,95,2|2|8,0:0|0:1|0:0,0:0:0:0:
270,111,53580,2,0,L|264:3,1,95,2|0,3:2|0:0,0:0:0:0:
229,0,53926,1,0,3:0:0:0:
274,24,54042,1,8,0:0:0:0:
164,79,54272,1,0,3:0:0:0:
46,26,54503,2,0,L|15:117,2,95,2|0|8,0:0|3:0|0:0,0:0:0:0:
97,133,55195,1,0,0:0:0:0:
270,111,55426,2,0,L|264:3,1,95,2|0,3:2|0:0,0:0:0:0:
229,0,55772,1,0,3:0:0:0:
274,24,55887,1,8,0:0:0:0:
164,79,56118,1,0,3:0:0:0:
46,26,56349,2,0,L|15:117,2,95,2|0|10,0:0|3:0|0:0,0:0:0:0:
46,26,57042,1,2,0:0:0:0:
270,111,57272,2,0,L|264:3,1,95,2|0,0:3|0:0,0:0:0:0:
264,17,57733,1,2,0:3:0:0:
164,79,57964,1,0,0:0:0:0:
46,26,58195,2,0,L|15:117,2,95,2|0|2,0:3|0:0|0:3,0:0:0:0:
431,299,59118,6,0,L|425:343,1,35.625001358986,2|0,0:0|0:0,0:0:0:0:
485,241,59580,2,0,L|397:222,1,71.2500027179719,2|0,0:2|0:2,0:2:0:0:
489,165,60042,2,0,L|326:201,1,142.500005435944,8|2,0:1|0:0,0:0:0:0:
349,195,60965,1,2,0:0:0:0:
279,144,61195,1,0,0:0:0:0:
205,192,61426,2,0,L|118:206,1,71.2500027179719,2|0,0:0|0:0,0:0:0:0:
181,271,61888,2,0,L|18:296,1,142.500005435944,10|2,0:0|0:0,0:0:0:0:
243,366,62811,70,0,L|255:288,1,71.2500027179719,2|0,0:0|0:0,0:0:0:0:
281,231,63272,1,2,0:0:0:0:
341,267,63503,1,0,0:0:0:0:
503,257,63734,1,8,0:1:0:0:
440,304,63965,1,0,0:0:0:0:
432,230,64195,1,2,0:0:0:0:
475,171,64426,2,0,L|491:90,1,71.2500027179719,0|2,0:0|0:0,0:0:0:0:
400,157,64888,1,0,0:0:0:0:
348,86,65118,2,0,L|276:98,1,71.2500027179719,2|0,0:0|0:0,0:0:0:0:
254,161,65580,2,0,L|112:180,1,142.500005435944,10|2,0:0|0:0,0:0:0:0:
19,28,66503,6,0,L|36:108,1,71.2500027179719,2|0,0:0|0:0,0:0:0:0:
98,174,66965,1,2,0:0:0:0:
117,102,67195,1,0,0:0:0:0:
112,191,67426,2,0,L|108:281,1,71.2500027179719,8|0,0:1|0:0,0:0:0:0:
150,318,67888,1,2,0:0:0:0:
197,265,68118,1,0,0:0:0:0:
241,151,68349,2,0,L|258:231,1,71.2500027179719,2|0,0:0|0:0,0:0:0:0:
301,275,68811,2,0,L|284:355,1,71.2500027179719,2|0,0:0|0:0,0:0:0:0:
359,369,69272,2,0,L|315:217,1,142.500005435944,10|2,0:0|0:0,0:0:0:0:
337,31,70195,70,0,L|354:111,1,71.2500027179719,2|0,0:0|0:0,0:0:0:0:
416,177,70657,1,2,0:0:0:0:
435,105,70887,1,0,0:0:0:0:
438,201,71118,2,0,L|524:186,1,71.2500027179719,8|0,0:1|0:0,0:0:0:0:
435,105,71580,2,0,L|394:99,1,35.625001358986,2|0,0:0|0:0,0:0:0:0:
250,33,72042,2,0,L|264:100,1,47.5000018119813,2|0,0:0|0:0,0:0:0:0:
316,165,72503,1,2,0:0:0:0:
338,92,72734,1,0,0:0:0:0:
239,151,72965,6,0,L|191:144,1,35.625001358986,8|0,0:0|0:0,0:0:0:0:
184,157,73195,1,2,0:2:0:0:
132,83,73426,2,0,L|158:228,1,142.500005435944,2|2,0:2|3:2,0:0:0:0:
157,223,74349,1,2,0:0:0:0:
178,296,74580,1,0,3:0:0:0:
114,353,74811,2,0,L|63:345,1,35.625001358986,10|0,0:0|0:0,0:0:0:0:
55,326,75042,1,0,0:0:0:0:
10,235,75272,2,0,L|165:262,1,142.500005435944,2|2,0:0|3:2,0:0:0:0:
150,259,76195,1,2,0:0:0:0:
230,234,76426,1,0,3:0:0:0:
302,281,76657,2,0,L|296:317,1,35.625001358986,10|0,0:0|0:0,0:0:0:0:
274,343,76888,1,0,3:0:0:0:
388,373,77118,2,0,L|375:286,1,71.2500027179719,2|0,0:0|0:0,0:0:0:0:
381,166,77580,2,0,L|375:202,1,35.625001358986,2|0,3:2|0:0,0:0:0:0:
353,228,77811,1,0,0:0:0:0:
467,258,78041,2,0,L|454:171,1,71.2500027179719,2|0,0:0|3:0,0:0:0:0:
340,103,78503,1,8,0:0:0:0:
326,124,78618,1,0,0:0:0:0:
241,64,78965,2,0,L|93:53,1,142.500005435944,2|2,0:0|3:2,0:0:0:0:
120,43,79888,1,2,0:0:0:0:
141,48,80118,1,0,3:0:0:0:
52,105,80349,69,10,0:0:0:0:
23,182,80580,1,0,3:0:0:0:
59,260,80811,2,0,L|127:238,1,71.2500027179719,2|0,0:0|3:0,0:0:0:0:
143,242,81157,1,0,0:0:0:0:
157,256,81272,1,2,3:2:0:0:
273,331,81618,1,0,3:0:0:0:
250,306,81734,2,0,L|259:222,1,71.2500027179719,2|0,0:0|3:0,0:0:0:0:
160,139,82195,1,10,0:0:0:0:
199,71,82426,1,0,0:0:0:0:
269,119,82657,2,0,L|362:90,1,71.2500027179719,2|0,0:0|0:0,0:0:0:0:
356,96,83003,1,0,0:0:0:0:
370,110,83118,1,2,3:2:0:0:
474,184,83580,2,0,L|483:100,1,71.2500027179719,2|0,0:0|3:0,0:0:0:0:
296,225,84042,1,10,0:0:0:0:
335,157,84273,1,0,3:0:0:0:
405,205,84504,2,0,L|498:176,1,71.2500027179719,2|0,0:0|0:0,0:0:0:0:
490,320,84965,1,2,3:2:0:0:
437,274,85195,1,0,0:0:0:0:
404,362,85426,2,0,L|311:333,1,71.2500027179719,2|0,0:0|3:0,0:0:0:0:
268,305,85888,2,0,L|353:293,1,71.2500027179719,8|0,0:0|0:0,0:0:0:0:
320,221,86349,2,0,L|192:294,1,142.500005435944,2|6,0:0|3:2,0:0:0:0:
94,326,87272,5,6,0:0:0:0:
45,289,87503,1,0,3:0:0:0:
40,248,87734,1,14,0:0:0:0:
52,228,88195,1,6,0:0:0:0:
91,134,88657,6,0,P|76:109|48:103,1,47.5,2|2,3:2|0:0,0:0:0:0:
49,75,88888,2,0,P|30:89|-1:88,1,47.5,2|0,0:0|3:0,0:0:0:0:
113,19,89118,1,10,0:0:0:0:
136,38,89234,1,2,0:0:0:0:
181,43,89349,1,2,3:2:0:0:
278,22,89580,1,2,0:2:0:0:
369,67,89811,1,2,0:0:0:0:
395,126,90042,1,10,0:0:0:0:
394,174,90272,2,0,P|389:201|390:232,2,47.5,2|0|0,0:2|0:0|3:2,0:0:0:0:
427,293,90734,1,2,0:0:0:0:
430,296,90849,1,0,3:0:0:0:
433,299,90965,1,10,0:0:0:0:
355,350,91195,1,2,3:2:0:0:
294,300,91426,2,0,P|274:244|206:200,2,142.5,2|2|2,0:1|0:2|0:0,0:0:0:0:
277,313,92349,54,0,P|290:260|322:231,1,95,2|2,3:2|0:0,0:0:0:0:
352,213,92695,1,0,3:0:0:0:
354,249,92811,1,10,0:0:0:0:
414,169,93042,1,2,3:2:0:0:
316,105,93272,2,0,P|336:49|404:5,2,142.5,2|2|2,0:0|0:0|3:2,0:0:0:0:
218,158,94195,2,0,P|174:194|124:185,1,95,2|2,3:2|0:2,0:0:0:0:
99,199,94542,1,0,3:0:0:0:
113,163,94657,1,10,0:2:0:0:
161,96,94888,1,2,3:2:0:0:
244,136,95118,2,8,P|262:191|231:240,1,95,8|2,0:1|3:1,0:1:0:0:
234,244,95465,1,2,0:1:0:0:
259,241,95580,1,10,0:0:0:0:
165,296,95811,1,2,3:2:0:0:
307,367,96042,21,0,3:2:0:0:
417,301,96388,1,0,3:0:0:0:
407,325,96503,2,0,P|357:296|304:299,1,95,10|2,0:0|3:2,0:0:0:0:
409,211,96965,2,0,P|467:223|501:210,1,95,2|2,0:0|0:1,0:0:0:0:
350,171,97426,2,0,P|377:124|378:78,1,95,10|2,0:0|3:2,0:0:0:0:
265,205,97888,2,0,P|207:137|88:144,1,190,2|8,3:3|0:0,0:0:0:0:
39,110,98580,2,0,P|95:143|108:178,1,95,2|2,3:3|0:1,0:0:0:0:
94,182,98926,1,2,0:1:0:0:
117,198,99042,1,8,3:1:0:0:
110,243,99157,1,8,0:1:0:0:
145,268,99272,1,8,0:0:0:0:
41,365,99734,54,0,P|99:339|149:343,1,95,0|2,3:2|0:0,0:0:0:0:
169,334,100080,1,0,3:0:0:0:
162,367,100195,1,10,0:0:0:0:
251,326,100426,1,2,3:2:0:0:
325,317,100657,2,0,P|377:290|436:283,1,95,2|2,0:0|3:2,0:0:0:0:
286,217,101118,2,0,P|229:198|177:171,1,95,10|2,0:0|3:2,0:0:0:0:
211,58,101580,2,0,P|286:59|327:157,1,190,2|0,0:3|0:0,0:0:0:0:
208,67,102272,22,0,P|269:85|304:174,1,142.500005435944,2|0,0:2|0:0,0:0:0:0:
305,150,102965,1,0,0:0:0:0:
45,17,103426,54,0,P|11:67|14:110,1,95,2|0,3:2|0:2,0:2:0:0:
5,143,103772,1,0,3:2:0:0:
42,129,103888,1,8,0:2:0:0:
100,239,104118,2,0,P|119:294|107:336,1,95,2|0,3:2|0:2,0:2:0:0:
24,228,104580,1,0,0:2:0:0:
116,203,104811,2,0,P|169:206|211:236,1,95,10|0,0:2|0:2,0:2:0:0:
212,368,105272,22,0,P|205:320|292:295,1,142.5,4|0,3:2|3:0,0:0:0:0:
297,313,105734,2,0,P|360:310|342:248,1,142.5,12|0,0:1|0:0,0:0:0:0:
328,237,106195,2,0,P|325:216|357:223,2,47.5,6|2|2,0:3|0:3|3:1,0:0:0:0:
381,312,106657,2,0,P|440:298|491:318,1,95,12|0,0:2|0:0,0:0:0:0:
435,91,107118,54,0,P|418:147|367:162,1,95,2|0,3:2|0:0,0:0:0:0:
356,184,107465,1,0,3:0:0:0:
352,148,107580,1,8,0:0:0:0:
267,71,107811,2,0,P|210:51|166:80,1,95,2|0,3:2|0:0,0:0:0:0:
335,22,108272,1,0,0:0:0:0:
270,97,108503,2,0,P|233:146|240:186,1,95,10|0,0:0|0:0,0:0:0:0:
298,324,108965,22,0,P|331:273|260:256,1,142.5,4|0,3:2|3:0,0:0:0:0:
249,268,109426,2,0,P|201:277|143:201,1,142.5,12|0,0:1|0:0,0:0:0:0:
140,182,109888,2,0,P|135:153|124:138,2,47.5,6|2|2,0:3|0:3|3:1,0:0:0:0:
138,222,110234,1,2,0:1:0:0:
107,199,110349,1,12,0:1:0:0:
223,215,110580,1,0,3:0:0:0:
48,363,110811,54,0,P|69:308|142:308,1,95,6|0,3:1|0:0,0:0:0:0:
125,324,111157,1,0,3:0:0:0:
132,289,111272,1,8,0:0:0:0:
250,372,111503,2,0,P|312:361|341:328,1,95,2|0,3:1|0:0,0:0:0:0:
288,227,111965,1,0,0:0:0:0:
226,365,112195,2,0,P|244:312|226:264,1,95,10|0,0:0|0:0,0:0:0:0:
143,127,112657,22,0,P|102:154|160:205,1,142.5,4|0,3:2|3:0,0:0:0:0:
177,220,113118,2,0,P|207:180|284:211,1,142.5,8|0,0:0|0:0,0:0:0:0:
317,222,113580,1,2,0:3:0:0:
289,249,113695,1,2,0:3:0:0:
323,268,113811,1,12,3:3:0:0:
416,356,114042,1,8,0:0:0:0:
497,238,114272,1,2,0:0:0:0:
377,157,114503,54,0,P|391:102|422:78,1,95,2|2,3:2|0:0,0:0:0:0:
453,99,114849,1,0,3:0:0:0:
449,57,114965,2,0,P|391:39|344:58,1,95,10|2,0:0|3:2,0:0:0:0:
231,134,115426,1,2,0:0:0:0:
158,96,115657,1,2,1:2:0:0:
186,25,115888,1,2,0:0:0:0:
296,12,116118,1,2,0:0:0:0:
247,157,116349,22,0,P|225:177|220:212,1,47.5,2|0,0:0|0:0,0:0:0:0:
260,247,116811,2,0,P|243:216|247:182,1,71.2500027179719,2|0,0:0|0:0,0:0:0:0:
271,211,117272,2,0,P|355:215|381:166,1,142.500005435944,2|0,0:0|0:0,0:0:0:0:
340,127,117734,2,0,P|343:173|317:212,1,95,2|0,0:0|0:0,0:0:0:0:
443,37,118195,70,0,L|468:130,1,80.750001540184,2|2,3:2|0:0,0:0:0:0:
441,188,118657,1,2,0:0:0:0:
463,260,118888,1,2,0:0:0:0:
438,293,119118,2,0,L|461:379,1,80.750001540184,10|2,0:0|0:0,0:0:0:0:
347,263,119580,2,0,L|326:341,1,80.750001540184,2|2,3:2|0:0,0:0:0:0:
264,283,120042,2,0,L|244:188,1,80.750001540184,2|2,0:0|0:0,0:0:0:0:
181,296,120503,2,0,L|84:275,1,80.750001540184,2|2,3:2|0:1,0:0:0:0:
81,288,120849,1,0,0:1:0:0:
19,328,120965,70,0,L|9:264,1,54.6250010418892,10|0,0:0|0:0,0:0:0:0:
46,218,121195,2,0,L|62:77,1,109.250002083778,2|2,0:0|0:0,0:0:0:0:
190,25,121657,2,0,L|133:5,1,54.6250010418892,2|0,3:2|0:0,0:0:0:0:
221,49,121888,6,0,L|321:32,1,80.750001540184,2|2,1:2|0:0,0:0:0:0:
362,72,122349,1,2,0:0:0:0:
418,31,122580,1,2,3:2:0:0:
443,57,122811,2,0,L|471:141,2,80.750001540184,8|2|2,0:0|0:0|3:2,0:0:0:0:
498,13,123388,1,0,0:0:0:0:
510,31,123503,1,2,0:0:0:0:
438,141,123734,2,0,L|407:234,1,80.750001540184,2|2,0:0|0:0,0:0:0:0:
482,231,124195,2,0,L|504:334,1,80.750001540184,2|2,3:2|0:1,0:0:0:0:
493,326,124542,1,2,0:1:0:0:
413,303,124657,70,0,L|340:318,1,54.6250010418892,10|0,0:2|0:0,0:0:0:0:
339,338,124888,2,0,L|182:313,1,109.250002083778,2|2,0:0|0:0,0:0:0:0:
22,298,125349,2,0,L|37:368,1,54.6250010418892,2|0,3:2|0:0,0:0:0:0:
42,278,125580,6,0,L|51:185,1,80.750001540184,2|2,3:2|0:0,0:0:0:0:
13,104,126042,1,2,0:0:0:0:
83,129,126272,1,2,0:0:0:0:
133,195,126503,2,0,L|226:181,1,80.750001540184,10|2,0:0|0:0,0:0:0:0:
233,172,126965,1,2,3:2:0:0:
215,167,127080,1,2,0:0:0:0:
202,155,127195,1,2,0:0:0:0:
42,278,127426,2,0,L|51:185,1,80.750001540184,2|2,1:2|0:0,0:0:0:0:
13,104,127888,1,2,0:0:0:0:
83,129,128118,1,2,0:0:0:0:
133,195,128349,2,0,L|226:181,1,80.750001540184,10|2,0:0|0:0,0:0:0:0:
233,172,128811,1,2,0:0:0:0:
215,167,128926,1,2,0:0:0:0:
202,155,129041,1,2,0:0:0:0:
42,278,129272,2,0,L|51:185,1,80.750001540184,2|2,1:2|0:0,0:0:0:0:
13,104,129734,1,2,0:0:0:0:
83,129,129964,1,2,3:2:0:0:
133,195,130195,2,0,L|226:181,1,80.750001540184,10|2,0:0|0:0,0:0:0:0:
231,197,130657,2,0,L|274:184,1,40.375000770092,2|0,3:2|0:0,0:0:0:0:
294,163,130888,1,2,0:0:0:0:
42,278,131118,38,0,L|51:185,1,80.750001540184,2|0,0:0|0:0,0:0:0:0:
13,104,131580,1,0,0:0:0:0:
83,129,131810,1,0,0:0:0:0:
133,195,132042,2,0,L|226:181,1,80.750001540184,2|0,0:0|0:0,0:0:0:0:
486,71,132965,22,0,L|426:83,1,54.6250010418892,6|0,3:2|0:0,0:0:0:0:
361,40,133195,1,0,0:0:0:0:
349,61,133311,1,0,3:0:0:0:
323,58,133426,1,8,0:0:0:0:
234,117,133657,1,0,3:0:0:0:
124,32,133888,2,0,L|97:144,1,109.250002083778,2|0,0:2|0:0,0:0:0:0:
177,261,134349,2,0,L|157:211,1,54.6250010418892,8|0,0:0|0:0,0:0:0:0:
90,202,134580,2,0,L|17:190,1,54.6250010418892
235,316,134811,6,0,L|360:294,1,109.250002083778,2|0,3:2|0:0,0:0:0:0:
413,321,135157,1,0,3:0:0:0:
342,297,135272,1,8,0:0:0:0:
480,249,135503,1,0,3:0:0:0:
365,157,135734,2,0,L|300:168,1,54.6250010418892,2|2,0:1|0:1,0:0:0:0:
309,179,135965,2,0,L|248:169,1,54.6250010418892,8|8,3:1|3:1,0:0:0:0:
209,120,136195,2,0,L|165:1,1,109.250002083778,8|0,0:0|0:0,0:0:0:0:
42,135,136657,70,0,L|99:151,1,54.6250010418892,2|0,3:2|0:0,0:0:0:0:
152,200,136888,1,0,0:0:0:0:
143,228,137003,1,0,3:0:0:0:
163,246,137118,1,8,0:0:0:0:
108,315,137349,1,0,3:0:0:0:
192,377,137580,2,0,L|303:338,1,109.250002083778,2|0,0:0|3:0,0:0:0:0:
294,269,138042,2,0,L|238:253,1,54.6250010418892,8|0,0:0|0:0,0:0:0:0:
416,366,138503,6,0,L|489:355,1,54.6250010418892,2|0,3:2|0:0,0:0:0:0:
374,267,138849,1,0,3:0:0:0:
389,338,138965,2,0,L|441:313,1,54.6250010418892,8|0,0:0|0:0,0:0:0:0:
478,256,139195,2,0,L|475:174,1,54.6250010418892,0|0,3:0|0:0,0:0:0:0:
458,53,139426,1,8,0:1:0:0:
437,76,139542,1,8,0:1:0:0:
402,85,139657,1,2,3:1:0:0:
392,120,139772,1,2,0:1:0:0:
358,139,139888,2,0,L|245:122,1,109.250002083778,8|0,0:0|3:0,0:0:0:0:
241,41,140349,70,0,L|290:123,1,54.6250010418892,2|0,3:2|0:0,0:0:0:0:
166,105,140580,1,0,0:0:0:0:
146,93,140695,1,0,3:0:0:0:
122,109,140811,1,8,0:0:0:0:
70,175,141042,1,0,3:0:0:0:
119,240,141272,2,0,L|287:272,1,163.875003125668,2|0,0:0|0:0,0:0:0:0:
282,288,141734,2,0,L|229:184,1,109.250002083778,8|0,0:0|0:0,0:0:0:0:
241,41,142195,2,0,L|290:123,1,54.6250010418892,2|0,3:2|0:0,0:0:0:0:
166,105,142426,1,0,0:0:0:0:
146,93,142541,1,0,3:0:0:0:
122,109,142657,1,8,0:0:0:0:
70,175,142888,1,0,3:0:0:0:
119,240,143118,2,0,L|287:272,1,163.875003125668,2|0,0:0|0:0,0:0:0:0:
282,288,143580,2,0,L|229:184,1,109.250002083778,8|0,0:0|0:0,0:0:0:0:
241,41,144042,2,0,L|290:123,1,54.6250010418892,2|0,3:2|0:0,0:0:0:0:
166,105,144273,1,0,0:0:0:0:
146,93,144388,1,0,3:0:0:0:
122,109,144504,1,8,0:0:0:0:
70,175,144735,1,0,3:0:0:0:
119,240,144965,2,0,L|240:265,1,109.250002083778,2|0,0:0|3:0,0:0:0:0:
282,288,145427,2,0,L|229:184,1,109.250002083778,10|2,0:0|0:0,0:0:0:0:
241,41,145888,54,0,L|290:123,1,54.6250010418892,2|0,0:0|0:0,0:0:0:0:
166,105,146119,1,0,0:0:0:0:
122,109,146350,1,0,0:0:0:0:
70,175,146581,1,0,0:0:0:0:
119,240,146811,2,0,L|240:265,1,109.250002083778,2|0,0:0|0:0,0:0:0:0:
486,86,147734,22,0,P|501:59|468:26,1,71.2500027179719,2|0,3:2|0:0,0:0:0:0:
461,31,148080,1,0,3:0:0:0:
413,81,148195,2,0,L|336:84,1,71.2500027179719,8|0,0:0|3:0,0:0:0:0:
386,159,148657,2,0,L|463:173,2,71.2500027179719,2|0|8,0:2|0:0|0:0,0:0:0:0:
326,99,149349,1,0,0:0:0:0:
261,48,149580,2,0,P|211:42|214:110,1,106.875004076958,2|0,3:2|3:0,0:0:0:0:
210,112,150042,2,0,L|118:96,1,71.2500027179719,8|0,0:0|3:0,0:0:0:0:
97,21,150503,1,2,0:1:0:0:
64,34,150618,1,2,0:1:0:0:
53,64,150734,1,8,3:1:0:0:
23,90,150849,1,8,3:1:0:0:
21,124,150965,1,8,0:0:0:0:
58,281,151426,2,0,P|101:257|94:226,1,71.2500027179719,2|0,3:2|0:0,0:0:0:0:
83,209,151772,1,0,3:0:0:0:
145,181,151887,2,0,L|215:192,1,71.2500027179719,8|0,0:0|3:0,0:0:0:0:
276,238,152349,1,2,0:0:0:0:
341,200,152580,1,0,3:0:0:0:
426,272,152811,1,8,0:0:0:0:
437,262,153042,1,0,3:0:0:0:
492,178,153272,2,0,P|457:144|417:149,1,71.2500027179719,2|0,3:2|0:0,0:0:0:0:
415,158,153618,1,0,3:0:0:0:
373,100,153734,2,0,L|389:25,1,71.2500027179719,8|0,0:0|3:0,0:0:0:0:
234,41,154195,1,8,0:1:0:0:
255,54,154311,1,8,0:1:0:0:
256,91,154426,1,2,3:1:0:0:
280,115,154542,1,2,0:1:0:0:
280,140,154657,1,8,0:0:0:0:
189,122,154888,1,0,3:0:0:0:
101,71,155118,2,0,L|112:161,1,71.2500027179719,2|0,3:2|0:0,0:0:0:0:
96,162,155465,1,0,3:0:0:0:
32,191,155580,2,0,P|59:227|108:226,1,71.2500027179719,8|0,0:0|3:0,0:0:0:0:
162,277,156042,2,0,L|146:199,1,71.2500027179719,2|2,0:0|0:1,0:0:0:0:
251,268,156503,1,8,0:0:0:0:
274,191,156734,1,0,3:0:0:0:
348,154,156965,2,0,L|423:181,1,71.2500027179719,2|0,3:2|0:0,0:0:0:0:
441,178,157311,1,0,3:0:0:0:
488,234,157426,2,0,P|458:262|452:298,1,71.2500027179719,8|0,0:0|3:0,0:0:0:0:
390,359,157888,1,2,0:1:0:0:
371,328,158003,1,2,0:1:0:0:
378,294,158118,1,8,3:1:0:0:
341,298,158234,1,8,0:1:0:0:
309,285,158349,1,8,0:0:0:0:
189,350,158811,2,0,P|235:331|230:295,1,71.2500027179719,2|0,3:2|0:0,0:0:0:0:
225,287,159157,1,0,3:0:0:0:
166,244,159272,2,0,L|121:252,1,35.625001358986,8|0,0:0|0:0,0:0:0:0:
82,305,159503,2,0,L|98:222,1,71.2500027179719,0|2,3:0|0:0,0:0:0:0:
49,174,159965,1,0,3:0:0:0:
22,130,160195,2,0,L|11:40,1,71.2500027179719,8|0,0:0|3:0,0:0:0:0:
135,22,160888,2,0,P|139:66|250:71,1,170.999994781494
105,225,162503,38,0,B|81:234|81:234|71:261,1,47.5,4|2,3:1|0:3,0:0:0:0:
8,326,162734,1,2,0:0:0:0:
26,337,162849,1,2,3:3:0:0:
36,355,162965,2,0,B|77:379|77:379|125:371,1,95,10|6,0:0|3:2,0:0:0:0:
240,330,163426,2,0,B|225:311|225:311|200:309,1,47.5,6|2,0:0|0:3,0:0:0:0:
306,353,163657,2,0,B|323:331|323:331|319:301,1,47.5,6|2,0:0|0:3,0:0:0:0:
402,282,163888,2,0,B|353:305|353:305|289:283,1,95,10|6,0:0|0:0,0:0:0:0:
406,207,164349,38,0,B|389:162|389:162|404:113,1,95,2|2,3:2|0:0,0:0:0:0:
448,68,164695,1,2,3:3:0:0:
506,117,164811,2,0,B|471:125|471:125|411:89,1,95,10|6,0:0|3:2,0:0:0:0:
295,42,165272,2,0,B|310:23|310:23|335:21,1,47.5,8|8,0:1|0:1,0:0:0:0:
233,76,165503,2,0,B|219:55|219:55|225:31,1,47.5,2|2,3:1|0:1,0:0:0:0:
199,167,165734,2,0,B|157:142|157:142|97:153,1,95,14|6,0:0|0:0,0:0:0:0:
68,27,166195,38,0,B|81:47|81:47|67:98,1,47.5,4|2,3:2|0:3,0:0:0:0:
34,139,166426,1,2,0:0:0:0:
20,159,166542,1,2,3:3:0:0:
25,187,166657,1,10,0:0:0:0:
68,258,166888,1,6,3:2:0:0:
105,364,167118,2,0,B|117:341|117:341|107:319,1,47.5,6|2,0:0|0:3,0:0:0:0:
166,238,167349,2,0,B|154:261|154:261|164:283,1,47.5,6|2,0:0|0:3,0:0:0:0:
204,340,167580,2,0,B|227:352|227:352|249:342,1,47.5,10|0,0:0|0:0,0:0:0:0:
234,268,167811,1,6,0:0:0:0:
318,341,168042,38,0,B|383:312|383:312|452:346,1,142.5,2|2,3:2|3:3,0:0:0:0:
465,353,168503,2,0,B|456:305|456:305|487:264,1,95,10|6,0:0|3:2,0:0:0:0:
454,141,168965,1,8,0:1:0:0:
441,179,169080,1,8,0:1:0:0:
433,216,169195,1,2,3:1:0:0:
398,199,169311,1,2,0:1:0:0:
361,179,169426,1,14,0:0:0:0:
384,103,169657,1,6,0:0:0:0:
318,52,169888,38,0,B|293:49|293:49|263:76,1,47.5,4|2,3:1|0:3,0:0:0:0:
184,73,170118,1,2,0:0:0:0:
171,90,170234,1,2,3:3:0:0:
149,99,170349,2,0,B|114:58|114:58|137:7,1,95,10|6,0:0|3:2,0:0:0:0:
59,111,170811,2,0,B|72:161|72:161|48:212,1,95,6|6,0:0|0:0,0:0:0:0:
4,250,171157,1,2,0:3:0:0:
63,289,171272,2,0,B|73:242|73:242|50:194,1,95,10|6,0:0|0:0,0:0:0:0:
131,317,171734,38,0,B|127:337|127:337|138:369,1,47.5,2|2,3:2|0:3,0:0:0:0:
255,245,172080,1,2,3:3:0:0:
271,310,172195,2,0,B|220:311|220:311|192:266,1,95,10|6,0:0|3:2,0:0:0:0:
159,161,172657,2,0,B|174:142|174:142|167:112,1,47.5,8|8,0:1|0:1,0:0:0:0:
242,115,172888,2,0,B|246:83|246:83|226:63,1,47.5,2|2,3:1|0:1,0:0:0:0:
338,108,173118,2,0,B|382:89|382:89|436:109,1,95,14|6,0:0|0:0,0:0:0:0:
474,218,173580,38,0,B|457:236|457:236|461:272,1,47.5,0|2,3:1|0:3,0:0:0:0:
410,367,173811,1,2,0:0:0:0:
424,340,173926,1,2,3:3:0:0:
406,318,174042,2,0,B|362:292|362:292|310:306,1,95,14|6,0:0|3:2,0:0:0:0:
168,356,174503,2,0,B|141:311|141:311|80:327,1,95,6|6,0:0|0:0,0:0:0:0:
43,344,174849,1,2,0:3:0:0:
8,284,174965,2,0,B|39:242|39:242|72:286,1,95,10|6,0:0|0:0,0:0:0:0:
22,106,175426,37,2,3:2:0:0:
61,55,175888,1,10,0:0:0:0:
126,34,176118,1,6,3:2:0:0:
159,54,176349,1,6,0:0:0:0:
263,83,176580,1,4,0:0:0:0:
396,36,176811,1,4,0:0:0:0:
475,360,177272,38,0,B|483:266|483:266|411:178,1,190,2|2,0:0|0:0,0:0:0:0:
324,207,178426,1,2,0:0:0:0:
309,228,178657,1,2,0:0:0:0:
306,251,178888,2,0,B|247:204|247:204|181:215,1,142.5,2|0,0:0|0:0,0:0:0:0:
75,264,179811,1,2,0:0:0:0:
94,147,180042,1,4,0:3:0:0:
114,210,180272,1,4,0:3:0:0:
28,123,180503,1,4,0:3:0:0:
75,43,180734,2,0,B|137:75|137:75|213:53,1,142.5,4|0,0:3|0:0,0:0:0:0:
266,111,181657,1,0,0:0:0:0:
280,82,181888,1,2,0:0:0:0:
300,65,182118,1,2,0:0:0:0:
331,56,182349,1,2,0:0:0:0:
402,83,182580,2,0,B|361:142|361:142|383:229,1,142.5,2|0,0:0|0:0,0:0:0:0:
435,252,183503,2,0,B|454:232|454:232|450:201,2,47.5,0|2|2,0:0|0:0|0:0,0:0:0:0:
418,324,184195,1,2,0:0:0:0:
355,364,184426,2,0,B|318:311|318:311|232:306,1,142.5,2|0,0:0|0:0,0:0:0:0:
144,362,185349,37,2,0:0:0:0:
97,302,185580,2,0,B|79:267|79:267|92:234,1,71.25,2|2,0:0|0:0,0:0:0:0:
97,227,186042,1,2,0:0:0:0:
32,186,186272,2,0,B|4:117|4:117|36:49,1,142.5,2|0,0:0|0:0,0:0:0:0:
116,40,187195,1,2,0:0:0:0:
219,115,187426,1,4,0:3:0:0:
149,98,187657,1,4,0:3:0:0:
286,78,187888,1,4,0:3:0:0:
357,68,188118,2,0,B|432:53|432:53|505:83,1,142.5,4|0,0:3|0:0,0:0:0:0:
412,162,189042,1,0,0:0:0:0:
409,234,189272,2,0,B|445:241|445:241|468:216,1,71.25,2|2,0:0|0:0,0:0:0:0:
477,205,189734,1,2,0:0:0:0:
464,308,189965,2,0,B|406:269|406:269|330:280,1,142.5,2|0,0:0|0:0,0:0:0:0:
263,340,190888,1,2,0:0:0:0:
197,348,191118,1,0,0:0:0:0:
132,354,191349,1,0,0:0:0:0:
66,360,191580,1,0,0:0:0:0:
67,56,192042,70,0,B|79:121|79:121|85:128|85:128|97:195,1,142.5,2|2,3:2|3:2,0:0:0:0:
87,211,192503,1,8,0:0:0:0:
151,117,192734,1,2,3:2:0:0:
173,137,192849,1,2,0:2:0:0:
202,134,192965,2,0,B|245:129|245:129|257:133|257:133|303:124,1,95,2|0,0:2|0:0,0:0:0:0:
352,76,193311,1,2,0:0:0:0:
314,144,193426,2,0,B|357:149|357:149|369:145|369:145|415:154,1,95,8|2,0:0|0:0,0:0:0:0:
494,264,193888,2,0,B|435:247|435:247|420:254|420:254|351:237,1,142.5,0|0,3:2|3:0,0:0:0:0:
339,223,194349,2,0,B|347:265|347:265|343:276|343:276|347:319,1,95,8|0,0:0|3:0,0:0:0:0:
234,362,194811,1,2,0:1:0:0:
228,333,194926,1,2,0:1:0:0:
237,317,195042,1,8,3:1:0:0:
246,300,195157,1,8,3:1:0:0:
237,271,195272,1,8,0:0:0:0:
87,339,195734,6,0,P|36:332|54:279,1,95,2|0,3:3|0:0,0:0:0:0:
45,288,196080,1,0,3:0:0:0:
9,223,196195,2,0,L|24:127,1,95,8|0,0:0|3:0,0:0:0:0:
129,34,196657,1,2,0:3:0:0:
126,112,196888,1,0,3:0:0:0:
176,180,197118,1,8,0:0:0:0:
190,156,197349,1,0,3:0:0:0:
112,222,197580,2,0,L|134:336,1,95,2|0,3:3|0:0,0:0:0:0:
143,332,197926,1,0,3:0:0:0:
197,273,198042,2,0,P|253:274|256:326,1,95,8|0,0:0|3:0,0:0:0:0:
386,358,198503,2,8,L|339:338,1,47.5,8|8,0:1|0:1,0:1:0:0:
356,270,198734,2,0,L|318:233,1,47.5,2|2,3:1|0:1,0:0:0:0:
388,183,198965,1,8,0:0:0:0:
473,103,199195,1,0,3:0:0:0:
328,24,199426,70,0,B|267:40|267:40|259:47|259:47|182:68,1,142.5,2|2,3:2|3:2,0:0:0:0:
183,93,199888,1,8,0:0:0:0:
39,42,200118,1,2,3:2:0:0:
61,31,200234,1,2,0:0:0:0:
86,47,200349,2,0,B|77:90|77:90|83:103|83:103|77:144,1,95,2|0,0:0|0:0,0:0:0:0:
0,192,200695,1,2,0:0:0:0:
63,158,200811,2,0,B|72:201|72:201|66:214|66:214|72:255,1,95,8|2,0:0|3:2,0:0:0:0:
157,347,201272,2,0,B|232:331|232:331|241:335|241:335|302:321,1,142.5,2|0,3:3|3:0,0:0:0:0:
331,332,201734,54,0,B|376:306|376:306|424:317,1,95,10|2,0:2|3:2,0:0:0:0:
462,207,202195,2,0,B|477:228|477:228|473:255,1,47.5,2|2,0:1|0:1,0:0:0:0:
404,165,202426,2,0,B|397:189|397:189|371:198,1,47.5,8|8,3:1|0:1,0:0:0:0:
368,102,202657,2,0,B|353:56|353:56|386:8,1,95,10|2,0:0|0:0,0:0:0:0:
282,203,203118,2,0,B|245:181|245:181|195:197,1,95,2|0,3:2|0:0,0:0:0:0:
137,160,203465,1,0,3:0:0:0:
180,221,203580,2,0,B|193:267|193:267|171:310,1,95,10|2,0:0|3:2,0:0:0:0:
38,363,204042,2,0,B|29:338|29:338|47:316,1,47.5,2|0,0:0|0:0,0:0:0:0:
7,264,204272,1,0,3:0:0:0:
59,182,204503,1,10,0:0:0:0:
29,79,204734,2,0,B|69:17|69:17|134:59,1,142.5,2|0,0:2|0:0,0:0:0:0:
29,79,205657,2,0,B|69:17|69:17|134:59,1,142.5,2|0,0:0|0:0,0:0:0:0:
29,79,206580,2,0,B|46:59|46:59|70:79,1,47.5,2|0,0:0|0:0,0:0:0:0:
264,28,206811,22,0,B|259:54|259:54|264:63|264:63|257:95,1,56.9999982604981,6|0,3:2|0:0,0:0:0:0:
224,158,207042,1,2,0:2:0:0:
239,202,207157,1,4,3:2:0:0:
211,233,207272,2,0,B|166:219|166:219|138:225|138:225|88:215,1,113.999996520996,10|6,0:2|3:2,0:0:0:0:
40,247,207618,1,4,0:0:0:0:
12,323,207734,2,0,B|64:311|64:311|81:318|81:318|129:308,1,113.999996520996,6|2,0:2|0:2,0:0:0:0:
249,376,208195,1,10,0:2:0:0:
321,296,208426,1,6,0:2:0:0:
408,332,208657,2,0,B|395:283|395:283|398:267|398:267|382:207,1,113.999996520996,2|2,3:2|0:0,0:0:0:0:
380,127,209003,1,0,3:2:0:0:
443,153,209118,54,0,B|468:102|468:102|447:40,1,113.999996520996,10|2,0:2|3:2,0:0:0:0:
353,17,209580,2,0,B|325:30|325:30|316:64,1,56.9999982604981,12|8,0:1|0:1,0:0:0:0:
246,67,209811,2,0,B|270:86|270:86|269:123,1,56.9999982604981,6|2,3:1|0:1,0:0:0:0:
288,181,210042,1,8,0:0:0:0:
159,136,210272,1,2,0:0:0:0:
51,166,210503,2,0,B|77:220|77:220|59:284,1,113.999996520996,2|2,3:2|0:2,0:0:0:0:
105,352,210849,1,0,3:2:0:0:
77,290,210965,2,0,B|127:267|127:267|182:292,1,113.999996520996,10|2,0:2|3:2,0:0:0:0:
319,363,211426,2,0,B|289:349|289:349|276:316,1,56.9999982604981,2|0,0:2|0:0,0:0:0:0:
327,270,211657,1,2,0:2:0:0:
386,214,211888,2,0,B|403:188|403:188|444:178,1,56.9999982604981,10|0,0:2|0:0,0:0:0:0:
468,237,212118,2,0,B|500:241|500:241|520:274,1,56.9999982604981,2|0,0:2|0:0,0:0:0:0:
367,190,212349,2,0,B|374:130|374:130|344:76,1,113.999996520996,2|2,3:2|0:0,0:0:0:0:
270,107,212695,1,0,3:2:0:0:
221,39,212811,2,0,B|166:53|166:53|137:110,1,113.999996520996,10|2,0:2|3:2,0:0:0:0:
32,129,213272,1,12,0:1:0:0:
59,158,213388,1,8,0:1:0:0:
82,181,213503,1,6,3:1:0:0:
64,212,213618,1,2,0:1:0:0:
39,243,213734,1,8,0:0:0:0:
143,288,213965,1,2,3:2:0:0:
247,376,214195,22,0,B|232:304|232:304|237:284|237:284|216:203,1,170.999994781494,6|4,3:2|3:2,0:0:0:0:
203,195,214657,1,10,0:2:0:0:
253,55,214888,1,6,3:2:0:0:
271,93,215003,1,4,0:0:0:0:
311,90,215118,2,0,B|362:82|362:82|379:86|379:86|433:80,1,113.999996520996,6|2,0:2|0:2,0:0:0:0:
436,164,215465,1,4,0:0:0:0:
451,87,215580,2,0,B|459:138|459:138|455:155|455:155|461:209,1,113.999996520996,10|6,0:2|0:2,0:0:0:0:
418,344,216042,2,0,B|401:294|401:294|405:277|405:277|391:228,1,113.999996520996,2|2,3:2|0:0,0:0:0:0:
329,202,216388,1,0,3:2:0:0:
281,253,216503,54,0,B|231:222|231:222|225:159,1,113.999996520996,10|2,0:2|3:2,0:0:0:0:
120,77,216965,2,0,B|146:94|146:94|153:128,1,56.9999982604981,12|8,0:1|0:1,0:0:0:0:
73,141,217195,2,0,B|77:169|77:169|48:209,1,56.9999982604981,6|2,3:1|0:1,0:0:0:0:
5,238,217426,1,8,0:0:0:0:
76,326,217657,1,2,0:0:0:0:
4,376,217888,2,0,B|14:319|14:319|80:269,1,113.999996520996,2|2,3:2|0:2,0:0:0:0:
124,274,218234,1,0,3:2:0:0:
181,320,218349,2,0,B|233:344|233:344|293:314,1,113.999996520996,10|2,0:2|3:2,0:0:0:0:
387,371,218811,2,0,B|396:339|396:339|381:308,1,56.9999982604981,2|0,0:2|0:0,0:0:0:0:
385,241,219042,2,0,B|358:222|358:222|331:228,1,56.9999982604981,2|0,0:2|0:0,0:0:0:0:
258,251,219272,1,10,0:2:0:0:
179,197,219503,1,2,0:2:0:0:
182,172,219734,2,0,B|204:102|204:102|167:29,1,142.500005435944,2|2,3:2|0:0,0:0:0:0:
8,73,220426,1,2,0:0:0:0:
75,96,220657,1,0,0:0:0:0:
218,103,220888,1,0,0:0:0:0:
294,135,221118,2,0,B|285:150|285:150|288:176,3,35.625001358986
349,236,221580,5,4,3:2:0:0:
256,192,221811,12,0,225272,3:0:0:0:
