osu file format v14

[General]
AudioFilename: audio.mp3
AudioLeadIn: 0
PreviewTime: 39729
Countdown: 0
SampleSet: Soft
StackLeniency: 0.5
Mode: 0
LetterboxInBreaks: 0
WidescreenStoryboard: 1

[Editor]
Bookmarks: 36073,41110,75900,91530,107665,109682,123799,141951,180275
DistanceSpacing: 1.2
BeatDivisor: 4
GridSize: 16
TimelineZoom: 0.9

[Metadata]
Title:Ichinen Nikagetsu Hatsuka (Cut Ver.)
TitleUnicode:1年2ヶ月20日 (Cut Ver.)
Artist:BRIGHT
ArtistUnicode:BRIGHT
Creator:Fanboyyou
Version:mynt's Normal
Source:
Tags:LOVE〜ある愛のカタチ〜 aru ainokatachi one year two months twenty days 1-nen 2-kagetsu 20-nichi j-pop jpop j pop japanese SAO sword art online kirito lisbeth lis lizbeth liz mynt
BeatmapID:3303304
BeatmapSetID:1580730

[Difficulty]
HPDrainRate:3
CircleSize:3
OverallDifficulty:3
ApproachRate:5.5
SliderMultiplier:1.4
SliderTickRate:1

[Events]
//Background and Video events
0,0,"www.jpg",0,0
//Break Periods
2,109687,121787
//Storyboard Layer 0 (Background)
//Storyboard Layer 1 (Fail)
//Storyboard Layer 2 (Pass)
//Storyboard Layer 3 (Foreground)
//Storyboard Layer 4 (Overlay)
//Storyboard Sound Samples
Sample,111956,2,"Juicer.ogg",100
Sample,179014,2,"Thanks.ogg",80

[TimingPoints]
6830,504.201680672269,4,2,1,40,1,0
6830,-111.111111111111,4,2,1,40,0,0
21956,-111.111111111111,4,2,2,40,0,0
22964,-100,4,2,2,60,0,0
35065,-100,4,2,2,70,0,0
37334,-100,4,2,2,5,0,0
37586,-100,4,2,2,70,0,0
37838,-100,4,2,2,5,0,0
38090,-100,4,2,2,70,0,0
41115,-90.9090909090909,4,2,2,80,0,1
56241,-100,4,2,2,80,0,0
57250,-90.9090909090909,4,2,2,80,0,1
71619,-100,4,2,2,80,0,0
73384,-100,4,2,2,80,0,1
75401,-111.111111111111,4,2,2,50,0,0
89519,-100,4,2,2,55,0,0
89771,-100,4,2,2,5,0,0
90023,-100,4,2,2,55,0,0
91535,-100,4,2,2,60,0,0
105905,-100,4,2,2,5,0,0
106157,-100,4,2,2,60,0,0
106409,-100,4,2,2,5,0,0
106661,-100,4,2,2,60,0,0
108678,-111.111111111111,4,2,2,60,0,0
123804,-100,4,2,2,70,0,0
125821,-90.9090909090909,4,2,2,80,0,1
139939,-90.9090909090909,4,2,2,80,0,0
141956,-100,4,2,2,80,0,0
158090,-100,4,2,2,80,0,1
170443,-100,4,2,2,5,0,1
170947,-100,4,2,2,80,0,1
171955,-100,4,2,2,5,0,1
172208,-100,4,2,2,80,0,0
174224,-117.647058823529,4,2,2,60,0,0
175737,-111.111111111111,4,2,1,50,0,0
176998,-111.111111111111,4,2,2,40,0,0
178258,-111.111111111111,4,2,1,25,0,0
179014,-111.111111111111,4,2,2,15,0,0
179771,-111.111111111111,4,2,1,10,0,0
180275,-111.111111111111,4,2,2,5,0,0

[Colours]
Combo1 : 255,207,64
Combo2 : 122,124,192
Combo3 : 253,138,187
Combo4 : 245,90,114

[HitObjects]
95,195,6830,5,0,3:0:0:0:
95,195,7082,2,0,P|88:225|88:257,1,62.9999980773926,2|2,0:0|3:2,0:0:0:0:
131,326,7586,1,2,0:0:0:0:
200,282,7838,2,0,L|273:296,1,62.9999980773926,2|2,3:2|0:0,0:0:0:0:
410,362,8594,1,2,0:0:0:0:
474,311,8846,6,0,P|486:249|486:186,1,125.999996154785,2|2,3:2|3:2,0:0:0:0:
466,106,9603,1,2,0:0:0:0:
315,169,10107,1,2,0:3:0:0:
243,208,10359,1,8,3:2:0:0:
181,153,10611,1,2,0:0:0:0:
211,77,10863,6,0,P|152:99|89:100,1,125.999996154785,2|2,3:2|3:2,0:0:0:0:
33,254,11872,2,0,L|27:316,2,62.9999980773926,2|2|2,3:2|0:0|3:2,0:0:0:0:
159,150,12880,6,0,B|218:123|218:123|277:135,1,125.999996154785,2|0,3:0|3:0,0:0:0:0:
357,278,13888,2,0,L|223:249,1,125.999996154785,2|12,3:0|3:2,0:0:0:0:
83,200,14897,5,2,3:2:0:0:
83,200,15149,2,0,P|93:171|94:139,1,62.9999980773926,2|2,0:0|3:2,0:0:0:0:
69,60,15653,1,2,0:0:0:0:
137,15,15905,2,0,L|210:29,1,62.9999980773926,2|2,3:2|0:0,0:0:0:0:
359,59,16661,1,2,0:0:0:0:
370,140,16913,6,0,B|378:185|378:185|367:216|367:216|377:261,1,125.999996154785,2|2,3:2|3:2,0:0:0:0:
396,342,17670,1,2,0:0:0:0:
234,316,18174,1,2,0:3:0:0:
168,364,18426,1,8,3:2:0:0:
113,303,18678,1,2,0:0:0:0:
157,234,18930,6,0,L|172:172,1,62.9999980773926,2|2,3:2|0:0,0:0:0:0:
113,115,19435,2,0,L|98:53,1,62.9999980773926,2|2,3:2|0:0,0:0:0:0:
163,4,19939,2,0,P|214:41|276:45,1,125.999996154785,2|2,3:2|3:2,0:0:0:0:
412,140,20947,6,0,B|404:206,1,62.9999980773926,8|0,0:3|0:0,0:0:0:0:
392,283,21451,1,4,0:3:0:0:
258,188,21956,1,10,0:0:0:0:
124,283,22460,1,10,0:0:0:0:
2,166,22964,6,0,P|38:108|110:102,1,140,6|8,3:2|3:2,0:0:0:0:
182,144,23720,1,2,0:0:0:0:
182,144,23972,1,2,3:2:0:0:
340,86,24477,1,10,3:2:0:0:
290,246,24981,6,0,P|298:314|355:350,1,140,2|8,3:2|3:2,0:0:0:0:
442,346,25737,1,2,0:0:0:0:
442,346,25989,1,2,3:2:0:0:
509,192,26493,1,10,3:2:0:0:
377,86,26998,6,0,L|297:75,1,70,2|0,3:2|1:0,0:0:0:0:
243,22,27502,2,0,L|163:33,1,70,10|2,3:2|0:0,0:0:0:0:
113,90,28006,2,0,L|102:170,1,70,2|2,3:2|0:0,0:0:0:0:
52,226,28510,1,10,3:2:0:0:
110,286,28762,6,0,B|159:265|219:287|196:295|256:320|314:296,1,210,2|10,0:0|3:2,0:0:0:0:
465,224,30023,1,2,3:2:0:0:
350,100,30527,1,10,3:2:0:0:
234,221,31031,6,0,P|170:248|98:245,1,140,2|10,3:2|3:2,0:0:0:0:
3,108,32040,1,2,3:2:0:0:
150,27,32544,1,10,3:2:0:0:
200,94,32796,6,0,P|267:114|337:110,1,140,2|2,0:0|0:0,0:0:0:0:
403,60,33552,1,10,3:2:0:0:
494,200,34056,2,0,P|467:272|397:251,1,140,2|10,3:2|3:2,0:0:0:0:
332,122,35065,6,0,L|241:103,1,70,2|2,3:2|0:0,0:0:0:0:
181,90,35569,1,10,3:2:0:0:
112,243,36073,6,0,L|204:224,1,70,2|2,3:2|0:0,0:0:0:0:
263,211,36577,1,10,3:2:0:0:
344,358,37082,6,0,L|249:331,1,70,2|2,3:2|0:0,0:0:0:0:
207,384,37586,2,0,L|138:336,1,70,10|2,3:2|0:0,0:0:0:0:
75,380,38090,2,0,L|-4:247,1,140,2|10,3:2|3:2,0:0:0:0:
132,150,39098,2,0,B|198:144|190:197|267:190,1,140,8|4,0:3|0:3,0:0:0:0:
261,190,41115,6,0,L|243:84,1,77.0000023498536,6|2,3:2|1:2,0:0:0:0:
289,30,41619,2,0,L|395:12,1,77.0000023498536,10|2,3:2|0:0,0:0:0:0:
437,75,42124,2,0,L|466:243,2,154.000004699707,2|10|2,3:2|3:2|3:2,0:0:0:0:
256,37,43636,5,10,3:2:0:0:
187,97,43888,2,0,P|150:89|111:89,2,77.0000023498536,2|2|2,0:0|3:2|0:0,0:0:0:0:
246,169,44645,1,10,3:2:0:0:
306,343,45149,6,0,L|412:361,1,77.0000023498536,6|2,3:2|1:2,0:0:0:0:
466,315,45653,2,0,L|484:209,1,77.0000023498536,10|2,3:2|0:0,0:0:0:0:
421,167,46157,2,0,L|253:138,2,154.000004699707,2|10|2,3:2|3:2|3:2,0:0:0:0:
502,0,47670,5,10,3:2:0:0:
318,24,48174,2,0,P|282:11|244:10,1,77.0000023498536,2|2,3:2|0:0,0:0:0:0:
183,80,48678,2,0,P|147:92|109:93,1,77.0000023498536,10|2,3:2|3:2,0:0:0:0:
18,77,49182,6,0,P|31:152|13:226,1,154.000004699707,6|10,3:2|3:2,0:0:0:0:
45,316,49939,1,2,0:0:0:0:
45,316,50191,2,0,P|104:266|177:243,2,154.000004699707,2|10|2,3:2|3:2|3:2,0:0:0:0:
26,132,51703,5,10,3:2:0:0:
178,27,52208,2,0,L|254:12,1,77.0000023498536,2|2,3:2|0:0,0:0:0:0:
313,83,52712,2,0,L|395:97,1,77.0000023498536,10|2,3:2|3:2,0:0:0:0:
479,77,53216,6,0,L|497:237,1,154.000004699707,6|10,3:2|3:2,0:0:0:0:
433,298,53972,1,2,0:0:0:0:
433,298,54224,2,0,P|387:219|319:169,1,154.000004699707,2|10,3:2|3:2,0:0:0:0:
262,127,54981,1,2,0:0:0:0:
170,138,55233,2,0,L|137:223,2,77.0000023498536,6|2|14,3:2|0:0|3:2,0:0:0:0:
201,51,55989,1,8,0:3:0:0:
117,57,56241,2,0,P|83:90|70:141,1,70,8|4,3:3|0:3,0:0:0:0:
36,185,56745,2,0,P|70:218|83:269,1,70,4|4,3:3|3:3,0:0:0:0:
64,329,57250,5,6,3:2:0:0:
248,315,57754,2,0,P|260:278|261:240,1,77.0000023498536,10|2,3:2|0:0,0:0:0:0:
202,168,58259,2,0,P|171:97|168:21,2,154.000004699707,2|10|2,3:2|3:2|3:2,0:0:0:0:
340,290,59771,5,10,3:2:0:0:
505,208,60275,2,0,P|471:190|433:189,1,77.0000023498536,2|2,3:2|0:0,0:0:0:0:
380,113,60779,2,0,P|398:78|399:40,1,77.0000023498536,10|2,3:2|3:2,0:0:0:0:
316,0,61283,5,6,3:2:0:0:
232,164,61787,2,0,P|195:152|157:151,1,77.0000023498536,10|2,3:2|0:0,0:0:0:0:
64,154,62292,2,0,P|95:83|98:7,2,154.000004699707,2|10|2,3:2|3:2|3:2,0:0:0:0:
0,326,63805,5,10,3:2:0:0:
145,211,64309,2,0,L|234:231,1,77.0000023498536,2|2,3:2|0:0,0:0:0:0:
302,187,64813,2,0,L|313:274,1,77.0000023498536,10|2,3:2|3:2,0:0:0:0:
356,344,65317,5,6,3:2:0:0:
510,243,65821,1,10,3:2:0:0:
458,161,66073,1,2,0:0:0:0:
458,161,66325,2,0,P|422:173|384:171,1,77.0000023498536,2|2,3:2|0:0,0:0:0:0:
311,229,66830,2,0,P|275:218|237:220,1,77.0000023498536,10|2,3:2|0:0,0:0:0:0:
158,270,67334,5,6,3:2:0:0:
25,141,67838,1,10,3:2:0:0:
205,100,68342,2,0,B|262:89|262:89|301:102|301:102|357:91,1,154.000004699707,2|10,3:2|3:2,0:0:0:0:
511,199,69351,5,6,3:2:0:0:
511,199,69603,1,2,0:0:0:0:
394,342,70107,5,6,0:0:0:0:
394,342,70359,1,2,3:2:0:0:
242,245,70863,5,14,3:2:0:0:
242,245,71115,1,2,0:0:0:0:
199,82,71619,6,0,P|206:47|206:13,2,70,2|10|2,1:2|3:2|0:0,0:0:0:0:
124,121,72376,2,0,P|58:125|43:189,1,140,2|10,3:2|3:2,0:0:0:0:
183,278,73384,6,0,B|228:225|228:225|317:260,2,140,6|12|8,3:2|3:2|0:3,0:0:0:0:
50,382,74897,1,4,0:3:0:0:
48,230,75401,6,0,B|93:159|194:145|239:228|283:311|401:211|416:127|372:63|265:56|254:122,1,503.999984619141,4|2,0:3|0:0,0:0:0:0:
423,368,78426,5,2,0:0:0:0:
494,220,78930,2,0,L|477:159,1,62.9999980773926,10|2,0:0|0:0,0:0:0:0:
447,83,79435,1,2,0:0:0:0:
317,185,79939,6,0,P|293:194|187:174,1,125.999996154785,10|2,0:0|0:0,0:0:0:0:
48,111,80947,1,10,0:0:0:0:
32,273,81451,2,0,B|92:293|143:330|143:330|198:296|198:296|217:317|253:324,1,251.999992309571,2|2,0:0|0:0,0:0:0:0:
415,300,82964,5,10,0:0:0:0:
479,148,83468,2,0,P|430:95|388:121,1,125.999996154785,2|10,3:2|0:0,0:0:0:0:
181,367,84981,5,10,0:0:0:0:
109,220,85485,2,0,P|159:167|201:193,1,125.999996154785,2|10,3:2|0:0,0:0:0:0:
456,378,86998,5,10,0:0:0:0:
436,215,87502,2,0,P|396:168|335:163,1,125.999996154785,2|10,3:2|0:0,0:0:0:0:
261,206,88258,2,0,P|207:131|116:120,1,188.999994232178,2|10,0:0|0:0,0:0:0:0:
163,296,89519,6,0,L|261:278,1,70,6|2,3:2|0:0,0:0:0:0:
321,261,90023,1,14,3:2:0:0:
400,96,90527,2,0,L|302:78,1,70,8|12,3:0|0:3,0:0:0:0:
242,61,91031,1,4,3:3:0:0:
106,156,91535,6,0,P|139:217|137:286,1,140,4|10,3:2|3:2,0:0:0:0:
120,374,92292,1,2,0:0:0:0:
120,374,92544,2,0,P|155:366|190:365,1,70,2|2,3:2|0:0,0:0:0:0:
273,357,93048,1,10,3:2:0:0:
437,320,93552,6,0,L|444:229,1,70,2|2,3:2|0:0,0:0:0:0:
508,196,94056,2,0,L|515:105,1,70,10|2,3:2|0:0,0:0:0:0:
452,69,94561,2,0,L|459:-22,2,70,2|2|10,3:2|0:0|3:2,0:0:0:0:
333,187,95569,6,0,P|272:154|203:156,1,140,2|10,3:2|3:2,0:0:0:0:
119,188,96326,1,2,0:0:0:0:
119,188,96578,2,0,P|112:153|111:118,1,70,2|2,3:2|0:0,0:0:0:0:
130,37,97082,1,10,3:2:0:0:
211,11,97334,1,2,0:0:0:0:
257,81,97586,6,0,P|250:115|249:150,2,70,2|2|10,3:2|0:0|3:2,0:0:0:0:
416,41,98594,1,2,3:2:0:0:
416,41,98846,2,0,B|442:66|442:66|447:100,1,70,2|10,0:0|3:2,0:0:0:0:
434,183,99351,1,2,3:2:0:0:
363,226,99603,6,0,B|310:205|310:205|211:235,1,140,2|10,3:2|3:2,0:0:0:0:
111,346,100611,2,0,P|164:325|263:355,1,140,2|10,3:2|3:2,0:0:0:0:
317,381,101367,1,2,0:0:0:0:
388,335,101619,6,0,B|367:282|367:282|397:183,1,140,2|10,3:2|3:2,0:0:0:0:
423,124,102376,1,2,0:0:0:0:
425,40,102628,2,0,P|457:26|493:26,2,70,2|2|10,3:2|0:0|3:2,0:0:0:0:
269,102,103636,6,0,B|205:91|205:91|187:105|187:105|134:96,1,140,2|10,3:2|3:2,0:0:0:0:
87,166,104393,2,0,P|155:149|213:211,1,140,2|2,0:0|0:0,0:0:0:0:
217,273,105149,1,10,3:2:0:0:
382,302,105653,6,0,L|419:212,1,70,6|2,3:2|0:0,0:0:0:0:
345,182,106157,2,0,L|308:92,1,70,14|2,3:2|0:0,0:0:0:0:
306,34,106661,2,0,B|372:29|438:74|438:74|466:58|506:62,1,210,2|2,3:2|3:2,0:0:0:0:
166,81,123804,5,4,3:2:0:0:
44,195,124308,1,6,3:2:0:0:
143,331,124813,2,0,L|212:316,1,70,8|8,0:3|0:3,0:0:0:0:
286,357,125317,2,0,L|355:342,1,70,4|4,0:3|0:3,0:0:0:0:
420,276,125821,6,0,P|411:238|411:200,1,77.0000023498536,6|2,3:2|1:2,0:0:0:0:
424,108,126325,2,0,P|387:117|349:117,1,77.0000023498536,10|2,3:2|0:0,0:0:0:0:
256,112,126830,2,0,P|278:185|277:262,2,154.000004699707,2|10|2,3:2|3:2|3:2,0:0:0:0:
107,3,128342,5,10,3:2:0:0:
64,182,128846,2,0,L|142:198,1,77.0000023498536,2|2,3:2|0:0,0:0:0:0:
234,200,129351,2,0,L|216:116,1,77.0000023498536,10|2,3:2|3:2,0:0:0:0:
281,52,129855,6,0,P|317:38|356:38,1,77.0000023498536,6|2,3:2|1:2,0:0:0:0:
446,56,130359,2,0,P|433:91|433:130,1,77.0000023498536,10|2,3:2|0:0,0:0:0:0:
419,221,130863,2,0,P|349:190|273:187,2,154.000004699707,2|10|2,3:2|3:2|3:2,0:0:0:0:
323,378,132376,5,10,3:2:0:0:
174,269,132880,2,0,P|138:285|99:287,1,77.0000023498536,2|2,3:2|0:0,0:0:0:0:
22,237,133384,2,0,L|42:142,1,77.0000023498536,10|2,3:2|3:2,0:0:0:0:
60,71,133888,5,6,3:2:0:0:
235,11,134392,1,10,3:2:0:0:
296,80,134644,1,2,0:0:0:0:
296,80,134896,2,0,L|379:62,1,77.0000023498536,2|2,3:2|0:0,0:0:0:0:
458,97,135401,2,0,P|447:133|449:171,1,77.0000023498536,10|2,3:2|0:0,0:0:0:0:
488,255,135905,5,6,3:2:0:0:
343,368,136409,1,10,3:2:0:0:
267,200,136913,2,0,B|227:174|179:196|196:205|152:225|106:200,1,154.000004699707,2|10,3:2|3:2,0:0:0:0:
0,65,137922,5,6,3:2:0:0:
0,65,138174,1,2,0:0:0:0:
170,6,138678,5,6,0:0:0:0:
170,6,138930,1,2,3:2:0:0:
338,78,139434,5,14,3:2:0:0:
338,78,139686,1,2,0:0:0:0:
437,234,140191,6,0,L|520:215,2,77.0000023498536,2|10|2,1:2|3:2|0:0,0:0:0:0:
375,302,140948,2,0,P|320:252|249:276,1,154.000004699707,2|10,3:2|3:2,0:0:0:0:
124,383,141956,5,4,3:2:0:0:
35,240,142460,2,0,B|-30:181|-26:92|4:58|82:49|105:126,1,280,10|10,3:2|3:2,0:0:0:0:
155,178,143720,1,2,0:0:0:0:
209,113,143972,6,0,P|236:31|298:-7,2,140,2|10|2,3:2|3:2|3:2,0:0:0:0:
238,278,145485,1,10,3:2:0:0:
311,318,145737,1,2,3:2:0:0:
362,251,145989,6,0,P|341:171|290:119,1,140,2|10,3:2|3:2,0:0:0:0:
439,28,146998,1,2,3:2:0:0:
462,196,147502,2,0,L|447:274,1,70,10|2,3:2|0:0,0:0:0:0:
403,334,148006,6,0,P|389:266|342:215,2,140,2|10|2,3:2|3:2|3:2,0:0:0:0:
238,301,149519,1,10,3:2:0:0:
165,260,149771,1,2,3:2:0:0:
82,266,150023,1,2,3:2:0:0:
105,99,150527,6,0,B|153:67|216:107|177:111|245:153|302:116,1,210,10|2,3:2|0:0,0:0:0:0:
364,61,151535,1,10,3:2:0:0:
298,9,151787,2,0,B|251:-22|188:17|226:21|159:63|102:26,1,210,2|10,0:0|3:2,0:0:0:0:
39,183,153048,5,2,3:2:0:0:
97,244,153300,2,0,L|194:274,1,70,2|10,0:0|3:2,0:0:0:0:
209,335,153804,2,0,L|311:326,1,70,2|2,3:2|3:2,0:0:0:0:
420,235,154561,5,10,3:2:0:0:
395,155,154813,2,0,B|327:136|327:136|195:179|195:179|128:159,1,280,2|2,0:0|0:0,0:0:0:0:
126,71,156073,6,0,L|194:91,1,70,6|2,3:2|0:0,0:0:0:0:
273,63,156577,2,0,L|341:42,1,70,14|8,3:2|0:3,0:0:0:0:
418,75,157082,2,0,L|486:95,1,70,8|4,3:3|0:3,0:0:0:0:
504,176,157586,2,0,P|485:206|483:240,1,70,4|4,3:3|3:3,0:0:0:0:
421,305,158090,6,0,P|396:281|295:300,1,140,4|10,3:2|3:2,0:0:0:0:
241,363,158846,1,2,0:2:0:0:
241,363,159098,1,2,3:2:0:0:
100,269,159603,1,10,3:2:0:0:
100,269,159855,1,2,0:2:0:0:
144,197,160107,2,0,P|173:176|238:167,1,70,2|2,3:2|0:0,0:0:0:0:
373,134,160863,1,2,0:2:0:0:
373,134,161115,2,0,P|318:201|326:277,1,140,2|10,3:2|3:2,0:0:0:0:
371,318,161872,1,2,3:2:0:0:
454,319,162124,6,0,P|509:252|501:176,1,140,2|10,3:2|3:2,0:0:0:0:
465,131,162880,1,2,0:2:0:0:
395,177,163132,2,0,P|325:176|261:128,1,140,2|10,3:2|3:2,0:0:0:0:
234,62,163888,1,2,0:2:0:0:
167,111,164140,2,0,P|135:172|145:240,1,140,2|10,3:2|3:2,0:0:0:0:
202,301,164897,1,2,0:2:0:0:
283,277,165149,2,0,B|334:267|334:267|368:286|368:286|418:277,1,140,2|10,3:2|3:2,0:0:0:0:
456,114,166157,6,0,L|372:129,1,70,6|2,3:2|1:2,0:0:0:0:
310,89,166661,1,10,3:2:0:0:
310,89,166914,1,2,0:2:0:0:
257,153,167166,2,0,L|272:237,1,70,2|2,3:2|0:0,0:0:0:0:
327,290,167670,1,10,3:2:0:0:
327,290,167922,1,2,0:2:0:0:
264,345,168174,2,0,P|173:343|103:355,1,140,2|10,3:2|3:2,0:0:0:0:
45,375,168930,1,2,0:2:0:0:
3,302,169182,2,0,P|-14:239|26:168,1,140,2|10,3:2|3:2,0:0:0:0:
136,295,170191,6,0,L|159:412,1,70,6|2,3:2|0:0,0:0:0:0:
240,221,170947,2,0,L|263:104,1,70,6|2,0:2|3:2,0:0:0:0:
347,292,171703,2,0,L|370:409,1,70,14|2,3:2|0:0,0:0:0:0:
449,364,172208,2,0,B|498:312|487:218|415:206|392:170|389:115|413:99,1,280,2|0,3:2|0:0,0:0:0:0:
295,359,174224,6,0,B|276:283|126:293|208:342|102:376|28:328|23:263|23:263|122:267|210:231|80:180|231:107|294:184|294:184|325:103|437:112|416:183|372:243|562:148|602:81|531:-36|442:-1|387:-45|299:-6|310:31|360:26|315:86|244:95|193:65|232:35|183:-8|83:9|47:67|57:132,1,1428.00002723694,4|0,0:1|0:0,0:0:0:0:
