osu file format v14

[General]
AudioFilename: audio.mp3
AudioLeadIn: 0
PreviewTime: 39729
Countdown: 0
SampleSet: Soft
StackLeniency: 0.5
Mode: 0
LetterboxInBreaks: 0
WidescreenStoryboard: 1

[Editor]
Bookmarks: 36073,41110,75900,91530,107665,109682,123799,141951
DistanceSpacing: 1.5
BeatDivisor: 4
GridSize: 8
TimelineZoom: 1

[Metadata]
Title:Ichinen Nikagetsu Hatsuka (Cut Ver.)
TitleUnicode:1年2ヶ月20日 (Cut Ver.)
Artist:BRIGHT
ArtistUnicode:BRIGHT
Creator:Fanboyyou
Version:Hard
Source:
Tags:LOVE〜ある愛のカタチ〜 aru ainokatachi one year two months twenty days 1-nen 2-kagetsu 20-nichi j-pop jpop j pop japanese SAO sword art online kirito lisbeth lis lizbeth liz mynt
BeatmapID:3294350
BeatmapSetID:1580730

[Difficulty]
HPDrainRate:4.5
CircleSize:3.6
OverallDifficulty:7
ApproachRate:7.5
SliderMultiplier:1.4
SliderTickRate:1

[Events]
//Background and Video events
0,0,"www.jpg",0,0
//Break Periods
2,75853,82418
2,109887,122754
//Storyboard Layer 0 (Background)
//Storyboard Layer 1 (Fail)
//Storyboard Layer 2 (Pass)
//Storyboard Layer 3 (Foreground)
//Storyboard Layer 4 (Overlay)
//Storyboard Sound Samples
Sample,111956,2,"Juicer.ogg",100
Sample,179014,2,"Thanks.ogg",80

[TimingPoints]
6830,504.201680672269,4,2,1,40,1,0
21956,-100,4,2,2,40,0,0
22964,-66.6666666666667,4,2,2,60,0,0
35065,-66.6666666666667,4,2,2,70,0,0
41115,-62.5,4,2,2,80,0,1
56241,-62.5,4,2,2,80,0,0
57250,-62.5,4,2,2,80,0,1
71367,-66.6666666666667,4,2,2,80,0,0
73384,-66.6666666666667,4,2,2,80,0,1
75905,-100,4,2,2,50,0,0
89519,-66.6666666666667,4,2,2,55,0,0
91535,-66.6666666666667,4,2,2,60,0,0
123804,-66.6666666666667,4,2,2,70,0,0
125821,-62.5,4,2,2,80,0,1
139939,-62.5,4,2,2,80,0,0
158090,-62.5,4,2,2,80,0,1
172208,-62.5,4,2,2,80,0,0
174224,-200,4,2,2,60,0,0
175737,-100,4,2,1,50,0,0
176998,-100,4,2,2,40,0,0
178258,-100,4,2,1,25,0,0
179014,-100,4,2,2,10,0,0
179771,-100,4,2,1,5,0,0

[Colours]
Combo1 : 255,207,64
Combo2 : 122,124,192
Combo3 : 253,138,187
Combo4 : 245,90,114

[HitObjects]
76,46,6830,5,0,3:0:0:0:
145,101,7082,1,2,0:0:0:0:
145,101,7334,2,0,P|185:94|242:87,1,70,2|2,3:2|0:0,0:0:0:0:
278,35,7838,1,2,3:2:0:0:
361,46,8090,2,0,P|403:99|400:167,1,140,2|2,0:0|0:0,0:0:0:0:
409,252,8846,5,2,3:2:0:0:
329,278,9098,1,2,0:0:0:0:
282,210,9351,1,2,3:2:0:0:
201,187,9603,2,0,P|138:219|126:299,1,140,2|2,0:0|0:3,0:0:0:0:
54,373,10359,2,0,P|48:337|40:304,1,70,8|2,3:2|0:0,0:0:0:0:
0,211,10863,6,0,P|37:191|83:201,1,70,2|0,3:2|0:0,0:0:0:0:
144,167,11367,2,0,P|179:189|194:233,1,70,2|0,3:2|0:0,0:0:0:0:
164,293,11872,1,2,3:2:0:0:
225,349,12124,1,2,0:0:0:0:
308,345,12376,2,0,P|315:306|330:265,1,70,2|0,3:2|0:0,0:0:0:0:
383,217,12880,6,0,P|376:178|361:137,2,70,2|2|0,3:0|0:0|3:0,0:0:0:0:
448,269,13636,2,0,P|437:302|431:336,2,70,2|2|2,0:0|3:0|0:3,0:0:0:0:
509,211,14393,1,12,3:2:0:0:
509,211,14645,1,0,0:0:0:0:
409,40,14897,6,0,P|372:46|322:52,1,70,2|2,3:2|0:0,0:0:0:0:
292,119,15401,1,2,3:2:0:0:
292,119,15653,1,2,0:0:0:0:
229,62,15905,1,2,3:2:0:0:
145,60,16157,2,0,P|71:96|79:163,1,140,2|2,0:0|0:0,0:0:0:0:
113,218,16914,5,2,3:2:0:0:
144,295,17166,1,2,0:0:0:0:
81,351,17418,1,2,3:2:0:0:
7,315,17670,2,0,P|81:320|166:337,1,140,2|2,0:0|0:3,0:0:0:0:
238,360,18426,2,0,L|329:343,1,70,8|2,3:2|0:0,0:0:0:0:
377,302,18930,6,0,L|362:231,1,70,2|2,3:2|0:0,0:0:0:0:
444,115,19435,2,0,L|430:184,1,70,2|2,3:2|0:0,0:0:0:0:
490,44,19939,1,2,3:2:0:0:
417,1,20191,1,2,0:0:0:0:
344,43,20443,2,0,P|309:48|274:54,1,70,2|2,3:2|0:0,0:0:0:0:
331,162,20947,5,8,0:3:0:0:
334,151,21073,1,4,0:3:0:0:
270,220,21325,1,8,0:3:0:0:
273,231,21451,1,4,0:3:0:0:
211,143,21703,6,0,P|187:156|175:178,1,35,4|0,0:3|0:0,0:0:0:0:
115,204,21956,2,0,P|114:231|127:252,1,35,10|0,0:0|0:0,0:0:0:0:
119,317,22208,2,0,P|142:331|167:330,1,35,2|0,0:0|0:0,0:0:0:0:
230,359,22460,2,0,P|223:306|216:264,1,70,10|2,0:0|0:0,0:0:0:0:
273,231,22838,5,2,0:0:0:0:
273,231,22964,2,0,L|285:116,2,105.000004005432,6|0|8,3:2|1:0|3:2,0:0:0:0:
375,359,23720,2,0,P|412:370|457:348,1,52.5000020027161,2|2,0:0|0:0,0:0:0:0:
437,291,23972,2,0,P|400:279|355:301,1,52.5000020027161,2|0,3:2|0:0,0:0:0:0:
313,307,24224,1,2,0:0:0:0:
174,383,24477,2,0,P|123:373|52:365,1,105.000004005432,10|2,3:2|0:0,0:0:0:0:
2,224,24981,6,0,P|-3:144|124:125,1,210.000008010865,2|8,3:2|3:2,0:0:0:0:
178,256,25737,1,2,0:0:0:0:
178,256,25989,2,0,P|210:256|229:246,1,52.5000020027161,2|0,3:2|0:0,0:0:0:0:
306,252,26241,2,0,P|322:224|322:202,1,52.5000020027161,2|2,0:0|0:0,0:0:0:0:
357,133,26493,2,0,B|409:146|384:186|435:196,1,105.000004005432,10|2,3:2|0:0,0:0:0:0:
337,29,26998,6,0,B|290:37|290:37|282:43|282:43|233:53,1,105.000004005432,2|0,3:2|1:0,0:0:0:0:
163,20,27376,1,2,0:0:0:0:
163,20,27502,1,10,3:2:0:0:
4,112,27754,1,2,0:0:0:0:
155,195,28006,2,0,B|209:247|169:314|155:298|107:348|168:413,1,210.000008010865,2|10,3:2|3:2,0:0:0:0:
274,323,28762,1,2,0:0:0:0:
243,158,29014,6,0,P|179:166|148:222,1,105.000004005432,0|2,3:2|0:0,0:0:0:0:
274,323,29519,2,0,P|328:315|400:309,1,105.000004005432,10|2,3:2|0:0,0:0:0:0:
452,276,29897,1,2,0:3:0:0:
452,276,30023,2,0,L|442:195,1,52.5000020027161,2|2,3:2|0:3,0:0:0:0:
491,159,30275,2,0,L|501:78,1,52.5000020027161,2|2,0:0|0:3,0:0:0:0:
487,28,30527,2,0,P|418:30|388:84,1,105.000004005432,10|2,3:2|0:0,0:0:0:0:
341,201,31031,6,0,P|270:188|190:182,1,105.000004005432,2|0,3:2|1:0,0:0:0:0:
132,67,31535,2,0,P|155:76|173:135,1,52.5000020027161,10|0,3:2|0:0,0:0:0:0:
244,134,31787,2,0,P|247:159|205:203,1,52.5000020027161,2|2,0:0|0:0,0:0:0:0:
183,242,32040,2,0,P|129:240|69:101,1,210.000008010865,2|10,3:2|3:2,0:0:0:0:
185,15,32796,5,2,0:0:0:0:
185,15,32922,1,2,0:0:0:0:
185,15,33048,2,0,P|263:22|289:64,1,105.000004005432,0|2,3:2|0:0,0:0:0:0:
353,196,33552,2,0,P|322:154|326:103,1,105.000004005432,10|2,3:2|0:0,0:0:0:0:
399,70,33930,1,2,0:3:0:0:
399,70,34056,2,0,P|423:77|438:98,1,52.5000020027161,2|2,3:2|0:3,0:0:0:0:
484,162,34308,2,0,P|489:187|479:209,1,52.5000020027161,2|2,0:3|0:3,0:0:0:0:
472,289,34561,2,0,B|421:271|421:271|390:312,1,105.000004005432,10|2,3:2|0:0,0:0:0:0:
330,361,34939,5,2,0:0:0:0:
330,361,35065,2,0,P|269:346|212:339,2,105.000004005432,2|2|10,3:2|0:0|3:2,0:0:0:0:
390,311,35821,1,2,0:0:0:0:
253,228,36073,2,0,P|301:208|352:194,2,105.000004005432,2|2|10,3:2|0:0|3:2,0:0:0:0:
118,113,36830,5,2,0:0:0:0:
118,113,36956,1,2,0:0:0:0:
118,113,37082,2,0,P|22:160|27:258,1,210.000008010865,2|10,3:2|3:2,0:0:0:0:
139,358,37838,1,2,0:0:0:0:
103,204,38090,1,2,3:2:0:0:
14,334,38342,1,2,0:0:0:0:
161,278,38594,2,0,B|212:285|212:285|217:282|217:282|293:294,1,105.000004005432,10|2,3:2|0:0,0:0:0:0:
410,350,39098,6,0,L|417:295,3,52.5000020027161,8|8|8|8,0:3|0:3|0:3|0:3,0:0:0:0:
475,244,39603,2,0,L|468:189,1,52.5000020027161,4|4,0:3|0:3,0:0:0:0:
407,141,39855,1,4,0:3:0:0:
49,46,41115,6,0,P|76:50|100:71,1,56,6|0,3:2|0:0,0:0:0:0:
179,87,41367,2,0,P|189:112|182:143,1,56,2|2,1:2|0:0,0:0:0:0:
135,242,41619,2,0,P|189:228|254:220,1,112,10|2,3:2|0:0,0:0:0:0:
347,58,42124,2,0,P|296:69|282:141,1,112,2|2,3:2|0:0,0:0:0:0:
343,274,42628,2,0,P|358:224|303:176,1,112,10|2,3:2|0:0,0:0:0:0:
173,104,43132,6,0,B|226:91|226:91|322:149|322:149|376:133,1,224,2|10,3:2|3:2,0:0:0:0:
494,13,43888,2,0,P|466:17|444:41,1,56,2|2,0:0|0:0,0:0:0:0:
380,80,44140,2,0,P|370:106|379:137,1,56,2|0,3:2|0:0,0:0:0:0:
369,217,44393,1,2,0:0:0:0:
498,323,44645,1,10,3:2:0:0:
354,236,44897,1,2,3:2:0:0:
250,367,45149,6,0,P|188:369|147:318,1,112,6|2,3:2|1:2,0:0:0:0:
108,272,45527,1,2,0:0:0:0:
108,272,45653,2,0,B|99:222|99:222|102:215|102:215|88:144,1,112,10|2,3:2|0:0,0:0:0:0:
189,26,46157,2,0,B|244:11|236:78|308:57,1,112,2|2,3:2|0:0,0:0:0:0:
457,76,46661,2,0,P|408:99|394:153,1,112,10|2,3:2|0:0,0:0:0:0:
312,299,47166,6,0,B|369:292|416:337|416:337|484:335|511:268,1,224,2|10,3:2|3:2,0:0:0:0:
506,114,47922,2,0,P|482:99|453:97,1,56,2|2,0:0|0:3,0:0:0:0:
378,61,48174,2,0,P|353:74|336:98,1,56,2|2,3:2|0:3,0:0:0:0:
345,180,48426,1,2,0:0:0:0:
199,96,48678,1,10,3:2:0:0:
354,213,48930,1,2,3:2:0:0:
184,320,49182,6,0,P|176:272|157:186,1,112,6|2,3:2|1:2,0:0:0:0:
95,168,49561,1,2,0:0:0:0:
95,168,49687,2,0,P|46:191|34:268,1,112,10|2,3:2|0:0,0:0:0:0:
184,320,50191,2,0,B|245:352|296:307|272:286|331:230|401:281,1,224,2|10,3:2|3:2,0:0:0:0:
474,42,50947,5,2,0:0:0:0:
474,42,51073,1,2,0:0:0:0:
474,42,51199,2,0,B|424:51|424:51|417:47|417:47|363:58,1,112,2|2,3:2|0:0,0:0:0:0:
297,16,51577,1,2,0:0:0:0:
297,16,51703,2,0,P|205:35|195:62,1,112,10|2,3:2|0:0,0:0:0:0:
126,192,52208,2,0,P|98:187|77:169,1,56,2|0,3:2|0:0,0:0:0:0:
4,127,52460,2,0,P|-5:100|0:73,1,56,2|2,0:0|0:0,0:0:0:0:
55,17,52712,1,10,3:2:0:0:
186,124,52964,1,2,3:2:0:0:
8,207,53216,6,0,P|19:261|28:317,1,112,6|2,3:2|1:2,0:0:0:0:
96,374,53594,1,2,0:0:0:0:
96,374,53720,2,0,P|150:363|206:354,1,112,10|2,3:2|0:0,0:0:0:0:
375,276,54224,1,2,3:2:0:0:
205,215,54477,1,2,0:0:0:0:
345,101,54729,1,10,3:2:0:0:
292,255,54981,2,0,P|288:285|307:323,1,56,2|2,0:0|0:0,0:0:0:0:
375,275,55233,6,0,P|385:215|399:155,1,112,6|2,3:2|0:0,0:0:0:0:
483,182,55611,1,2,0:0:0:0:
483,182,55737,2,0,P|470:237|461:291,1,112,14|8,3:2|0:3,0:0:0:0:
456,101,56241,2,0,P|423:78|382:82,1,56,8|8,3:3|0:3,0:0:0:0:
336,31,56493,2,0,P|300:47|283:85,1,56,4|4,0:3|0:3,0:0:0:0:
242,128,56745,1,4,3:3:0:0:
110,23,56998,1,4,3:3:0:0:
0,177,57250,6,0,B|30:192|60:169|45:162|80:130|116:150,1,112,6|2,3:2|1:2,0:0:0:0:
156,214,57628,1,2,0:0:0:0:
156,214,57754,2,0,L|141:367,1,112,10|2,3:2|0:0,0:0:0:0:
302,383,58258,2,0,P|344:353|341:264,1,112,2|2,3:2|0:0,0:0:0:0:
259,145,58762,2,0,P|268:198|312:231,1,112,10|2,3:2|0:0,0:0:0:0:
468,97,59266,6,0,B|376:107|376:107|354:135|354:135|258:145,1,224,2|10,3:2|3:2,0:0:0:0:
138,27,60023,2,0,P|106:49|101:89,1,56,2|2,0:0|0:0,0:0:0:0:
37,119,60275,2,0,P|40:157|72:182,1,56,2|0,3:2|0:0,0:0:0:0:
118,219,60527,1,2,0:0:0:0:
258,144,60779,1,10,3:2:0:0:
113,251,61031,1,2,3:2:0:0:
273,369,61283,6,0,L|248:226,1,112,6|2,3:2|1:2,0:0:0:0:
195,206,61661,1,2,0:0:0:0:
195,206,61787,2,0,L|220:63,1,112,10|2,3:2|0:0,0:0:0:0:
356,4,62292,2,0,P|449:37|465:76,1,112,2|2,3:2|0:0,0:0:0:0:
327,178,62796,2,0,P|302:128|312:74,1,112,10|2,3:2|0:0,0:0:0:0:
512,98,63300,6,0,P|490:187|466:326,1,224,2|10,3:2|3:2,0:0:0:0:
312,382,64056,2,0,L|237:367,1,56,2|2,0:0|0:3,0:0:0:0:
198,310,64308,2,0,L|143:320,1,56,2|2,3:2|0:3,0:0:0:0:
80,377,64561,1,2,0:0:0:0:
165,227,64813,1,10,3:2:0:0:
8,160,65065,1,2,3:2:0:0:
8,160,65317,6,0,P|20:213|32:272,1,112,6|2,3:2|1:2,0:0:0:0:
60,74,65821,2,0,P|96:48|160:68,1,112,10|2,3:2|0:0,0:0:0:0:
221,127,66199,1,2,0:0:0:0:
221,127,66325,2,0,P|271:145|318:118,1,112,2|2,3:2|0:0,0:0:0:0:
423,0,66830,1,10,3:2:0:0:
261,51,67082,1,2,0:0:0:0:
428,85,67334,6,0,B|462:144|399:208|403:159|318:243|387:307,1,224,6|10,3:2|3:2,0:0:0:0:
501,381,68090,1,2,0:0:0:0:
501,381,68216,1,2,0:0:0:0:
501,381,68342,2,0,P|458:340|431:340,1,56,2|0,3:2|0:0,0:0:0:0:
421,269,68594,2,0,P|363:285|350:309,1,56,2|2,0:0|0:0,0:0:0:0:
316,347,68846,1,10,3:2:0:0:
141,336,69098,1,2,3:2:0:0:
141,336,69351,6,0,P|198:355|263:409,2,112,6|2|10,3:2|0:0|3:2,0:0:0:0:
2,275,70107,2,0,P|55:257|101:226,2,112,6|2|2,0:0|3:2|0:0,0:0:0:0:
136,138,70863,2,0,P|182:169|235:186,2,112,14|2|4,3:2|0:0|3:1,0:0:0:0:
18,72,71619,5,2,1:2:0:0:
18,72,71872,1,10,3:2:0:0:
173,31,72124,1,2,0:0:0:0:
235,186,72376,2,0,P|283:199|335:157,1,105.000004005432,2|2,3:2|0:0,0:0:0:0:
352,41,72880,2,0,P|304:28|252:70,1,105.000004005432,10|2,3:2|0:0,0:0:0:0:
436,193,73384,6,0,B|391:146|427:70|438:112|476:42|431:-5,2,210.000008010865,6|12|8,3:2|3:2|0:3,0:0:0:0:
481,354,74645,1,8,0:3:0:0:
481,354,74771,1,8,0:3:0:0:
481,354,74897,2,0,P|450:341|410:338,1,52.5000020027161,4|4,0:3|0:3,0:0:0:0:
383,275,75149,2,0,P|352:288|312:291,1,52.5000020027161,4|4,0:3|0:3,0:0:0:0:
269,245,75401,6,0,P|215:246|172:323,1,105.000004005432,4|0,0:3|0:0,0:0:0:0:
475,73,83468,6,0,L|463:237,1,140,2|10,3:2|0:0,0:0:0:0:
131,258,84729,5,2,0:0:0:0:
80,324,84981,1,10,0:0:0:0:
48,199,85233,1,2,0:0:0:0:
48,199,85359,1,2,0:0:0:0:
48,199,85485,2,0,L|20:56,1,140,2|10,3:2|0:0,0:0:0:0:
378,234,86745,5,2,0:0:0:0:
315,290,86998,1,10,0:0:0:0:
365,153,87250,1,2,0:0:0:0:
365,153,87376,1,2,0:0:0:0:
365,153,87502,2,0,P|421:114|487:127,1,140,2|10,3:2|0:0,0:0:0:0:
502,210,88258,2,0,P|445:248|379:235,1,140,2|2,0:0|0:0,0:0:0:0:
299,207,89014,1,10,0:0:0:0:
115,182,89266,5,2,0:0:0:0:
115,182,89393,1,2,0:0:0:0:
115,182,89519,2,0,B|189:143|189:143|339:230,2,210.000008010865,6|14|8,3:2|3:2|3:0,0:0:0:0:
38,319,90779,2,0,P|71:328|100:343,1,52.5000020027161,12|12,0:3|0:3,0:0:0:0:
145,282,91031,2,0,P|129:227|114:181,1,105.000004005432,4|4,3:3|0:3,0:0:0:0:
276,105,91535,6,0,P|260:155|245:205,1,105.000004005432,4|2,3:2|1:2,0:0:0:0:
303,384,92040,2,0,P|329:379|348:361,1,52.5000020027161,10|0,3:2|0:0,0:0:0:0:
416,322,92292,2,0,P|425:297|419:272,1,52.5000020027161,2|2,0:0|0:0,0:0:0:0:
350,219,92544,2,0,L|208:201,1,105.000004005432,2|2,3:2|0:0,0:0:0:0:
163,71,93048,2,0,P|218:80|250:127,1,105.000004005432,10|2,3:2|0:0,0:0:0:0:
192,264,93552,5,2,3:2:0:0:
103,133,93804,1,2,0:0:0:0:
245,205,94056,1,10,3:2:0:0:
104,320,94308,1,2,0:0:0:0:
104,320,94435,1,2,0:0:0:0:
104,320,94561,2,0,L|118:228,1,52.5000020027161,2|2,3:2|0:0,0:0:0:0:
43,228,94813,2,0,L|29:136,1,52.5000020027161,2|2,0:0|0:0,0:0:0:0:
20,103,95065,1,10,3:2:0:0:
20,103,95317,1,2,3:2:0:0:
168,159,95569,6,0,B|216:164|216:164|223:162|223:162|272:167,1,105.000004005432,2|2,3:2|1:2,0:0:0:0:
434,97,96073,2,0,P|449:138|422:201,1,105.000004005432,10|2,3:2|0:0,0:0:0:0:
354,53,96577,2,0,P|382:19|450:10,1,105.000004005432,2|2,3:2|0:0,0:0:0:0:
362,143,97082,1,10,3:2:0:0:
266,31,97334,1,2,0:0:0:0:
183,185,97586,6,0,P|119:165|64:161,1,105.000004005432,2|2,3:2|0:0,0:0:0:0:
27,103,97964,1,2,0:0:0:0:
27,103,98090,2,0,P|46:43|183:40,1,210.000008010865,10|2,3:2|3:2,0:0:0:0:
264,162,98846,1,2,0:0:0:0:
123,102,99098,1,10,3:2:0:0:
123,102,99351,1,2,3:2:0:0:
189,282,99603,6,0,B|236:336|325:279|283:258|333:225|373:245,1,210.000008010865,2|10,3:2|3:2,0:0:0:0:
492,375,100359,1,2,0:0:0:0:
492,375,100485,1,2,0:0:0:0:
492,375,100611,2,0,L|482:271,1,105.000004005432,2|2,3:2|0:0,0:0:0:0:
406,160,101115,1,10,3:2:0:0:
406,160,101367,1,2,0:0:0:0:
506,38,101619,6,0,B|459:-16|370:41|412:62|362:95|322:75,1,210.000008010865,2|10,3:2|3:2,0:0:0:0:
194,19,102376,1,2,0:0:0:0:
194,19,102502,1,2,0:0:0:0:
194,19,102628,2,0,P|155:15|123:42,1,52.5000020027161,2|0,3:2|0:0,0:0:0:0:
65,25,102880,2,0,P|42:56|49:97,1,52.5000020027161,2|2,0:0|0:0,0:0:0:0:
12,142,103132,1,10,3:2:0:0:
136,238,103384,1,2,3:2:0:0:
37,360,103636,6,0,L|49:245,1,105.000004005432,2|2,3:2|0:0,0:0:0:0:
125,133,104140,2,0,L|135:237,1,105.000004005432,10|2,3:2|0:0,0:0:0:0:
204,384,104645,6,0,L|216:269,1,105.000004005432,2|2,3:2|0:0,0:0:0:0:
292,157,105149,2,0,L|302:261,1,105.000004005432,10|2,3:2|0:0,0:0:0:0:
431,351,105653,6,0,B|457:374|506:378|546:320|519:254|443:224,2,210.000008010865,6|14|2,3:2|3:2|3:2,0:0:0:0:
374,214,106914,1,2,0:0:0:0:
374,214,107040,1,2,0:0:0:0:
374,214,107166,2,0,P|361:264|346:316,1,105.000004005432,10|2,3:2|3:2,0:0:0:0:
212,24,109687,5,4,3:1:0:0:
489,285,123804,6,0,L|363:308,1,105.000004005432,4|2,3:2|0:0,0:0:0:0:
328,357,124182,1,2,0:0:0:0:
328,357,124308,2,0,L|224:338,1,105.000004005432,6|2,3:2|0:0,0:0:0:0:
166,292,124687,1,2,0:0:0:0:
166,292,124813,1,8,0:3:0:0:
13,351,125065,1,8,0:3:0:0:
98,220,125317,1,4,0:3:0:0:
0,97,125569,1,4,0:3:0:0:
168,160,125821,6,0,P|222:143|292:125,1,112,6|2,3:2|1:2,0:0:0:0:
343,78,126199,1,2,0:0:0:0:
343,78,126325,2,0,P|356:53|450:45,1,112,10|2,3:2|0:0,0:0:0:0:
512,188,126830,2,0,P|500:234|489:305,1,112,2|2,3:2|0:0,0:0:0:0:
347,384,127334,2,0,P|338:328|324:274,1,112,10|2,3:2|0:0,0:0:0:0:
235,106,127838,6,0,P|309:84|372:217,1,224,2|10,3:2|3:2,0:0:0:0:
239,272,128594,2,0,P|212:267|184:263,1,56,2|2,0:0|0:0,0:0:0:0:
134,196,128846,2,0,P|106:201|78:205,1,56,2|0,3:2|0:0,0:0:0:0:
11,155,129098,1,2,0:0:0:0:
101,293,129351,1,10,3:2:0:0:
101,293,129603,1,2,3:2:0:0:
105,111,129855,6,0,L|119:0,1,112,6|2,3:2|1:2,0:0:0:0:
207,9,130233,1,2,0:0:0:0:
207,9,130359,2,0,L|189:148,1,112,10|2,3:2|0:0,0:0:0:0:
293,283,130863,2,0,P|247:253|236:199,1,112,2|2,3:2|0:0,0:0:0:0:
366,112,131367,2,0,P|363:166|321:202,1,112,10|2,3:2|0:0,0:0:0:0:
192,120,131872,6,0,B|244:91|294:132|294:132|348:178|398:141,1,224,2|10,3:2|3:2,0:0:0:0:
494,6,132628,2,0,P|469:19|455:43,1,56,2|2,0:0|0:3,0:0:0:0:
385,89,132880,2,0,P|383:117|397:141,1,56,2|2,3:2|0:3,0:0:0:0:
463,192,133132,1,2,0:0:0:0:
337,303,133384,1,10,3:2:0:0:
337,303,133636,1,2,3:2:0:0:
175,201,133888,6,0,B|154:255|154:255|187:299,1,112,6|2,3:2|1:2,0:0:0:0:
258,145,134393,1,10,3:2:0:0:
130,51,134645,1,2,0:0:0:0:
130,51,134771,1,2,0:0:0:0:
130,51,134897,2,0,P|87:57|55:129,1,112,2|2,3:2|0:0,0:0:0:0:
166,236,135401,1,10,3:2:0:0:
50,358,135653,1,2,0:0:0:0:
179,216,135905,6,0,P|291:227|402:240,1,224,6|10,3:2|3:2,0:0:0:0:
493,380,136661,1,2,0:0:0:0:
416,229,136914,1,2,3:2:0:0:
346,347,137166,1,2,0:0:0:0:
495,270,137418,1,10,3:2:0:0:
372,155,137670,1,2,3:2:0:0:
336,353,137922,6,0,L|184:327,2,112,6|2|10,3:2|0:0|3:2,0:0:0:0:
245,212,138678,2,0,L|134:230,2,112,6|2|2,0:0|3:2|0:0,0:0:0:0:
145,348,139435,2,0,L|34:329,2,112,14|2|4,3:2|0:0|3:1,0:0:0:0:
19,236,140191,5,2,1:2:0:0:
159,133,140443,1,10,3:2:0:0:
0,95,140695,1,2,0:0:0:0:
122,207,140947,1,2,3:2:0:0:
219,67,141199,2,0,P|248:52|288:65,1,56,2|2,0:0|0:0,0:0:0:0:
350,30,141451,2,0,P|377:47|386:88,1,56,10|0,3:2|0:0,0:0:0:0:
379,151,141703,1,2,3:2:0:0:
284,312,141956,6,0,L|37:281,1,224,4|10,3:2|3:2,0:0:0:0:
14,133,142712,1,2,0:0:0:0:
14,133,142838,1,2,0:0:0:0:
14,133,142964,2,0,P|74:101|127:148,1,112,2|2,3:2|0:0,0:0:0:0:
241,13,143468,1,10,3:2:0:0:
319,161,143720,6,0,P|355:175|390:158,1,56,2|2,0:0|0:0,0:0:0:0:
444,213,143972,2,0,P|475:189|477:150,1,56,2|0,3:2|0:0,0:0:0:0:
491,91,144224,1,2,0:0:0:0:
330,40,144477,2,0,L|202:71,1,112,10|2,3:2|0:0,0:0:0:0:
175,137,144855,1,2,0:0:0:0:
175,137,144981,2,0,L|77:113,1,56,2|2,3:2|0:0,0:0:0:0:
75,53,145233,2,0,L|20:66,1,56,2|2,0:0|0:0,0:0:0:0:
1,148,145485,1,10,3:2:0:0:
147,230,145737,1,2,3:2:0:0:
24,345,145989,6,0,P|76:375|145:356,1,112,2|2,3:2|1:2,0:0:0:0:
190,314,146367,1,2,0:0:0:0:
190,314,146493,2,0,P|236:285|291:290,1,112,10|2,3:2|0:0,0:0:0:0:
358,350,146872,1,2,0:0:0:0:
358,350,146998,2,0,P|404:378|459:373,1,112,2|2,3:2|0:0,0:0:0:0:
503,300,147376,1,2,0:0:0:0:
503,300,147502,2,0,L|490:195,1,56,10|0,3:2|0:0,0:0:0:0:
484,161,147754,2,0,L|471:56,1,56,2|2,0:0|0:0,0:0:0:0:
418,45,148006,6,0,P|382:32|328:62,1,56,2|0,3:2|0:0,0:0:0:0:
283,16,148258,2,0,P|253:40|252:102,1,56,2|2,0:0|0:0,0:0:0:0:
188,116,148510,1,10,3:2:0:0:
267,264,148762,1,2,0:0:0:0:
356,122,149014,6,0,L|363:223,1,56,2|2,3:2|0:3,0:0:0:0:
297,234,149266,2,0,L|290:335,1,56,2|2,0:0|0:3,0:0:0:0:
336,362,149519,1,10,3:2:0:0:
190,277,149771,1,2,3:2:0:0:
59,378,150023,6,0,L|35:247,1,112,2|2,3:2|1:2,0:0:0:0:
10,194,150401,1,2,0:0:0:0:
10,194,150527,2,0,P|98:114|202:167,1,224,10|2,3:2|3:2,0:0:0:0:
186,145,151283,1,2,0:0:0:0:
313,254,151535,2,0,P|344:244|397:243,1,56,10|0,3:2|0:0,0:0:0:0:
348,159,151787,2,0,P|320:162|293:171,1,56,2|2,0:0|0:0,0:0:0:0:
231,229,152040,6,0,B|176:268|118:226|140:214|87:161|29:206,1,224,2|10,3:2|3:2,0:0:0:0:
87,374,152796,1,2,0:0:0:0:
87,374,152922,1,2,0:0:0:0:
87,374,153048,2,0,P|90:346|95:318,1,56,2|2,3:2|0:0,0:0:0:0:
37,261,153300,2,0,P|33:233|28:205,1,56,2|2,0:0|0:0,0:0:0:0:
86,144,153552,1,10,3:2:0:0:
0,39,153804,1,2,3:2:0:0:
173,110,154056,6,0,L|306:88,1,112,2|2,3:2|1:2,0:0:0:0:
347,35,154435,1,2,0:0:0:0:
347,35,154561,2,0,L|457:53,1,112,10|2,3:2|0:0,0:0:0:0:
502,124,154939,1,2,0:0:0:0:
502,124,155065,2,0,P|451:236|371:213,1,224,2|10,3:2|3:2,0:0:0:0:
271,96,155821,5,2,0:0:0:0:
271,96,155947,1,2,0:0:0:0:
271,96,156073,2,0,P|286:173|312:330,1,224,6|14,3:2|3:2,0:0:0:0:
477,377,156830,5,8,0:3:0:0:
477,377,156957,1,8,0:3:0:0:
477,377,157082,2,0,P|496:357|502:323,1,56,8|8,3:3|0:3,0:0:0:0:
504,246,157334,2,0,P|497:219|470:197,1,56,4|4,0:3|0:3,0:0:0:0:
397,173,157586,1,4,3:3:0:0:
310,316,157838,1,4,3:3:0:0:
200,188,158090,6,0,P|154:149|86:154,2,112,4|2|10,3:2|1:2|3:2,0:0:0:0:
73,297,158846,1,2,0:2:0:0:
219,378,159098,2,0,P|273:373|314:336,2,112,2|2|10,3:2|0:0|3:2,0:0:0:0:
73,297,159855,1,2,0:2:0:0:
200,188,160107,6,0,L|323:203,1,112,2|2,3:2|0:0,0:0:0:0:
369,269,160485,1,2,0:0:0:0:
369,269,160611,2,0,L|480:255,1,112,10|2,3:2|0:2,0:0:0:0:
512,180,160989,1,2,0:0:0:0:
512,180,161115,2,0,P|510:152|498:127,1,56,2|2,3:2|0:0,0:0:0:0:
498,43,161367,2,0,P|475:26|448:19,1,56,2|2,0:0|0:0,0:0:0:0:
379,65,161619,1,10,3:2:0:0:
220,6,161872,1,2,3:2:0:0:
88,110,162124,6,0,P|63:67|-3:19,2,112,2|2|10,3:2|1:2|3:2,0:0:0:0:
146,277,162880,1,2,0:2:0:0:
146,277,163006,1,2,0:0:0:0:
146,277,163132,2,0,P|117:324|73:359,2,112,2|2|10,3:2|0:0|3:2,0:0:0:0:
7,181,163888,1,2,0:2:0:0:
171,148,164140,6,0,P|226:149|278:169,1,112,2|2,3:2|0:0,0:0:0:0:
325,331,164645,2,0,P|340:272|361:216,1,112,10|2,3:2|0:2,0:0:0:0:
418,166,165023,1,2,0:3:0:0:
418,166,165149,2,0,P|451:170|480:203,1,56,2|2,3:2|0:3,0:0:0:0:
498,261,165401,2,0,P|511:291|496:333,1,56,2|2,0:2|0:3,0:0:0:0:
444,368,165653,1,10,3:2:0:0:
357,224,165905,1,2,3:2:0:0:
248,352,166157,6,0,B|218:356|196:334|196:334|173:312|143:318,1,112,6|2,3:2|1:2,0:0:0:0:
69,352,166535,1,2,0:0:0:0:
69,352,166661,2,0,L|34:211,1,112,10|2,3:2|0:2,0:0:0:0:
96,179,167040,1,2,0:0:0:0:
96,179,167166,2,0,L|131:38,1,112,2|2,3:2|0:0,0:0:0:0:
166,1,167544,1,2,0:0:0:0:
166,1,167670,2,0,P|232:1|267:36,1,112,10|2,3:2|0:2,0:0:0:0:
356,170,168174,6,0,P|433:192|390:101,1,224,2|10,3:2|3:2,0:0:0:0:
250,166,168930,1,2,0:2:0:0:
250,166,169056,1,2,0:0:0:0:
250,166,169182,2,0,P|258:204|263:240,1,56,2|2,3:2|0:0,0:0:0:0:
317,283,169435,2,0,P|309:321|304:357,1,56,2|2,0:0|0:0,0:0:0:0:
235,382,169687,1,10,3:2:0:0:
390,319,169939,1,2,3:2:0:0:
194,300,170191,6,0,L|73:322,1,112,6|2,3:2|0:0,0:0:0:0:
0,174,170695,1,10,3:2:0:0:
55,17,170947,6,0,P|123:27|152:165,1,224,6|2,0:2|0:0,0:0:0:0:
83,320,171703,6,0,P|57:256|162:161,1,224,14|2,3:2|3:2,0:0:0:0:
511,295,174224,6,0,B|449:279|398:223|419:131|419:131|464:202|435:296|402:343|362:372|362:372|286:348|319:296|240:257|240:257|301:253|331:318,1,770,4|0,0:1|0:0,0:0:0:0:
