osu file format v14

[General]
AudioFilename: audio.mp3
AudioLeadIn: 0
PreviewTime: 39729
Countdown: 0
SampleSet: Soft
StackLeniency: 0.6
Mode: 0
LetterboxInBreaks: 0
WidescreenStoryboard: 1

[Editor]
Bookmarks: 41110,75900,91530,107665,109682,123799,141951
DistanceSpacing: 1.2
BeatDivisor: 4
GridSize: 4
TimelineZoom: 1

[Metadata]
Title:Ichinen Nikagetsu Hatsuka (Cut Ver.)
TitleUnicode:1年2ヶ月20日 (Cut Ver.)
Artist:BRIGHT
ArtistUnicode:BRIGHT
Creator:Fanboyyou
Version:Advanced
Source:
Tags:LOVE〜ある愛のカタチ〜 aru ainokatachi one year two months twenty days 1-nen 2-kagetsu 20-nichi j-pop jpop j pop japanese SAO sword art online kirito lisbeth lis lizbeth liz mynt
BeatmapID:3380553
BeatmapSetID:1580730

[Difficulty]
HPDrainRate:3.5
CircleSize:3.2
OverallDifficulty:5
ApproachRate:6.5
SliderMultiplier:1.4
SliderTickRate:1

[Events]
//Background and Video events
0,0,"www.jpg",0,0
//Break Periods
2,109687,122829
//Storyboard Layer 0 (Background)
//Storyboard Layer 1 (Fail)
//Storyboard Layer 2 (Pass)
//Storyboard Layer 3 (Foreground)
//Storyboard Layer 4 (Overlay)
//Storyboard Sound Samples
Sample,111956,2,"Juicer.ogg",100
Sample,179014,2,"Thanks.ogg",80

[TimingPoints]
6830,504.201680672269,4,2,1,40,1,0
21956,-100,4,2,2,40,0,0
22964,-100,4,2,2,60,0,0
35065,-100,4,2,2,70,0,0
41115,-100,4,2,2,80,0,1
56241,-100,4,2,2,80,0,0
57250,-100,4,2,2,80,0,1
71367,-100,4,2,2,80,0,0
73384,-100,4,2,2,80,0,1
75905,-100,4,2,2,50,0,0
89519,-100,4,2,2,55,0,0
91535,-100,4,2,2,60,0,0
123804,-100,4,2,2,70,0,0
125821,-100,4,2,2,80,0,1
139939,-100,4,2,2,80,0,0
158090,-100,4,2,2,80,0,1
172208,-100,4,2,2,80,0,0
174224,-100,4,2,2,60,0,0

[Colours]
Combo1 : 255,207,64
Combo2 : 122,124,192
Combo3 : 253,138,187
Combo4 : 245,90,114

[HitObjects]
137,198,6830,5,0,3:0:0:0:
61,175,7082,1,2,0:0:0:0:
61,175,7334,2,0,P|37:149|37:115,1,70,2|2,3:2|0:0,0:0:0:0:
105,65,7838,2,0,P|115:32|144:14,1,70,2|2,3:2|0:0,0:0:0:0:
215,60,8342,2,0,P|255:68|305:79,1,70,0|2,3:0|0:0,0:0:0:0:
346,18,8846,5,2,3:2:0:0:
346,18,9098,1,2,0:0:0:0:
407,75,9351,2,0,L|391:168,1,70,2|2,3:2|0:0,0:0:0:0:
457,200,9855,2,0,L|473:293,1,70,2|2,3:0|0:3,0:0:0:0:
429,343,10359,1,8,3:2:0:0:
353,305,10611,1,2,0:0:0:0:
290,360,10863,6,0,P|197:349|181:305,1,140,2|2,3:2|3:2,0:0:0:0:
219,240,11619,1,0,0:0:0:0:
165,182,11872,1,2,3:2:0:0:
165,182,12124,1,2,0:0:0:0:
81,183,12376,2,0,P|50:214|56:263,1,70,2|0,3:2|0:0,0:0:0:0:
66,326,12880,6,0,P|26:338|-14:354,2,70,2|2|0,3:0|0:0|3:0,0:0:0:0:
126,267,13636,2,0,P|166:279|206:295,2,70,2|2|2,0:0|3:0|0:3,0:0:0:0:
47,238,14393,1,12,3:2:0:0:
197,381,14897,6,0,P|228:369|286:358,1,70,2|2,3:2|0:0,0:0:0:0:
315,294,15401,2,0,P|346:306|404:317,1,70,2|2,3:2|0:0,0:0:0:0:
463,296,15905,1,2,3:2:0:0:
463,296,16157,1,2,0:0:0:0:
503,222,16409,2,0,P|509:187|500:153,1,70,0|2,3:0|0:0,0:0:0:0:
485,70,16914,5,2,3:2:0:0:
411,110,17166,1,2,0:0:0:0:
352,57,17418,1,2,3:2:0:0:
352,57,17670,2,0,B|266:55|304:99|219:92,1,140,2|2,0:0|0:3,0:0:0:0:
151,45,18426,1,8,3:2:0:0:
151,45,18678,1,2,0:0:0:0:
74,78,18930,6,0,P|69:113|63:148,1,70,2|2,3:2|0:0,0:0:0:0:
132,197,19435,2,0,P|136:231|142:266,1,70,2|2,3:2|0:0,0:0:0:0:
214,319,19939,1,2,3:2:0:0:
214,319,20191,1,2,0:0:0:0:
274,260,20443,2,0,P|268:225|263:190,1,70,2|2,3:2|0:0,0:0:0:0:
310,121,20947,6,0,P|331:123|369:135,1,35,8|4,0:3|0:3,0:0:0:0:
410,74,21325,2,0,P|427:72|444:69,1,35,8|4,0:3|0:3,0:0:0:0:
509,122,21703,1,4,0:3:0:0:
499,205,21956,2,0,P|474:250|431:265,1,70,10|2,0:0|0:0,0:0:0:0:
431,338,22460,2,0,P|379:338|345:309,1,70,10|2,0:0|0:0,0:0:0:0:
302,273,22964,6,0,P|305:224|308:189,1,70,6|0,3:2|1:0,0:0:0:0:
291,169,23342,1,2,0:0:0:0:
291,169,23468,2,0,P|248:149|208:167,1,70,8|2,3:2|0:0,0:0:0:0:
178,221,23972,1,2,3:2:0:0:
99,250,24224,1,2,0:0:0:0:
23,212,24477,2,0,L|5:118,1,70,10|2,3:2|0:0,0:0:0:0:
83,102,24981,6,0,L|96:33,1,70,2|2,3:2|0:0,0:0:0:0:
134,17,25359,1,2,0:0:0:0:
134,17,25485,2,0,L|211:33,1,70,8|2,3:2|0:0,0:0:0:0:
238,107,25989,1,2,3:2:0:0:
320,122,26241,1,2,0:0:0:0:
371,55,26493,1,10,3:2:0:0:
452,33,26745,1,2,0:0:0:0:
511,93,26998,6,0,P|511:139|497:156,1,70,2|0,3:2|1:0,0:0:0:0:
478,195,27376,1,2,0:0:0:0:
478,195,27502,2,0,P|487:234|494:262,1,70,10|2,3:2|0:0,0:0:0:0:
496,346,28006,2,0,P|440:305|372:311,1,140,2|10,3:2|3:2,0:0:0:0:
299,353,28762,5,2,0:0:0:0:
299,353,28888,1,2,0:0:0:0:
299,353,29014,2,0,L|206:326,1,70,0|2,3:2|0:0,0:0:0:0:
153,364,29519,2,0,L|85:383,1,70,10|2,3:2|0:0,0:0:0:0:
49,374,29897,1,2,0:3:0:0:
49,374,30023,2,0,P|23:350|19:296,1,70,2|2,3:2|0:0,0:0:0:0:
25,236,30527,2,0,P|49:210|103:206,1,70,10|2,3:2|0:0,0:0:0:0:
186,276,31031,6,0,B|226:285|247:258|247:258|270:229|312:237,1,140,2|10,3:2|3:2,0:0:0:0:
364,316,31787,1,2,0:0:0:0:
364,316,31914,1,2,0:0:0:0:
364,316,32040,2,0,P|393:341|446:332,1,70,2|2,3:2|0:0,0:0:0:0:
487,288,32544,1,10,3:2:0:0:
487,288,32796,1,2,0:0:0:0:
491,204,33048,6,0,P|482:169|475:135,1,70,0|2,3:2|0:0,0:0:0:0:
394,114,33552,2,0,P|385:148|378:182,1,70,10|2,3:2|0:0,0:0:0:0:
347,210,33930,1,2,0:3:0:0:
347,210,34056,2,0,P|308:219|275:230,1,70,2|2,3:2|0:3,0:0:0:0:
205,268,34561,1,10,3:2:0:0:
142,213,34813,1,2,0:0:0:0:
70,169,35065,6,0,L|57:96,1,70,2|2,3:2|0:0,0:0:0:0:
133,59,35569,2,0,L|145:127,1,70,10|2,3:2|0:0,0:0:0:0:
225,154,36073,6,0,L|238:81,1,70,2|2,3:2|0:0,0:0:0:0:
320,91,36577,2,0,L|307:159,1,70,10|2,3:2|0:0,0:0:0:0:
328,202,36956,5,2,0:0:0:0:
328,202,37082,2,0,P|394:211|441:287,1,140,2|10,3:2|3:2,0:0:0:0:
430,349,37838,1,2,0:0:0:0:
347,362,38090,2,0,L|263:344,1,70,2|2,3:2|0:0,0:0:0:0:
237,274,38594,2,0,L|305:259,1,70,10|2,3:2|0:0,0:0:0:0:
336,181,39098,6,0,L|279:167,3,35,8|8|8|8,0:3|0:3|0:3|0:3,0:0:0:0:
262,137,39603,2,0,L|228:145,2,35,4|4|4,0:3|0:3|0:3,0:0:0:0:
47,357,41115,5,6,3:2:0:0:
96,289,41367,1,2,1:2:0:0:
53,217,41619,2,0,P|43:170|33:128,1,70,10|2,3:2|0:0,0:0:0:0:
56,66,42124,2,0,P|138:76|154:113,1,105,2|2,3:2|0:0,0:0:0:0:
180,111,42628,2,0,P|215:101|252:93,1,70,10|2,3:2|0:0,0:0:0:0:
277,63,43006,5,2,0:0:0:0:
277,63,43132,2,0,P|345:48|391:111,1,140,2|10,3:2|3:2,0:0:0:0:
396,178,43888,1,2,0:0:0:0:
324,222,44140,1,2,3:2:0:0:
354,300,44393,1,2,0:0:0:0:
435,319,44645,2,0,P|446:276|459:238,1,70,10|2,3:2|3:2,0:0:0:0:
505,185,45149,6,0,P|494:144|481:104,1,70,6|2,3:2|1:2,0:0:0:0:
460,91,45527,1,2,0:0:0:0:
460,91,45653,2,0,P|410:61|375:68,1,70,10|2,3:2|0:0,0:0:0:0:
323,94,46157,2,0,P|273:76|224:58,1,105,2|2,3:2|0:0,0:0:0:0:
184,43,46661,2,0,P|132:48|109:79,1,70,10|2,3:2|0:0,0:0:0:0:
97,95,47040,5,2,0:0:0:0:
97,95,47166,2,0,B|124:122|113:171|90:150|79:194|101:228,1,140,2|10,3:2|3:2,0:0:0:0:
179,252,47922,2,0,P|212:241|245:229,2,70,2|2|2,0:0|3:2|0:0,0:0:0:0:
162,334,48678,1,10,3:2:0:0:
241,359,48930,1,2,3:2:0:0:
313,312,49182,6,0,P|326:262|339:222,1,70,6|2,3:2|1:2,0:0:0:0:
367,220,49561,1,2,0:0:0:0:
367,220,49687,2,0,P|354:170|341:130,1,70,10|2,3:2|0:0,0:0:0:0:
291,91,50191,2,0,P|243:76|197:98,1,105,2|2,3:2|0:0,0:0:0:0:
196,140,50695,2,0,P|186:173|179:208,1,70,10|2,3:2|0:0,0:0:0:0:
130,275,51199,2,0,P|46:265|30:216,1,140,2|10,3:2|3:2,0:0:0:0:
69,146,51956,1,2,0:0:0:0:
150,165,52208,1,2,3:2:0:0:
213,110,52460,1,2,0:0:0:0:
187,30,52712,2,0,P|152:13|113:14,1,70,10|2,3:2|3:2,0:0:0:0:
47,51,53216,6,0,P|54:86|59:120,1,70,6|2,3:2|1:2,0:0:0:0:
39,159,53594,1,2,0:0:0:0:
39,159,53720,2,0,P|31:193|26:227,1,70,10|2,3:2|0:0,0:0:0:0:
64,302,54224,2,0,P|96:330|141:332,1,70,2|2,3:2|0:0,0:0:0:0:
205,319,54729,1,10,3:2:0:0:
209,236,54981,1,2,0:0:0:0:
283,196,55233,6,0,B|311:157|370:222|336:270|325:279,2,140,6|14|8,3:2|3:2|3:3,0:0:0:0:
209,236,56493,1,4,0:3:0:0:
165,164,56745,2,0,P|175:123|182:93,1,70,4|4,3:3|3:3,0:0:0:0:
54,51,57250,6,0,B|93:43|138:69|107:78|145:106|198:92,1,140,6|10,3:2|3:2,0:0:0:0:
225,24,58006,1,2,0:0:0:0:
307,7,58258,2,0,P|344:24|364:52,1,70,2|2,3:2|0:0,0:0:0:0:
387,86,58636,1,2,0:0:0:0:
387,86,58762,2,0,P|380:151|376:184,1,70,10|2,3:2|0:0,0:0:0:0:
303,191,59266,6,0,P|358:204|389:294,1,140,2|10,3:2|3:2,0:0:0:0:
442,342,60023,1,2,0:0:0:0:
508,291,60275,1,2,3:2:0:0:
469,216,60527,1,2,0:0:0:0:
510,143,60779,1,10,3:2:0:0:
479,66,61031,1,2,3:2:0:0:
408,20,61283,6,0,P|366:20|336:47,1,70,6|2,3:2|1:2,0:0:0:0:
332,79,61661,1,2,0:0:0:0:
332,79,61787,2,0,P|302:106|243:97,1,70,10|2,3:2|0:0,0:0:0:0:
197,73,62292,2,0,B|163:43|163:43|89:69,1,105,2|2,3:2|0:0,0:0:0:0:
64,57,62796,2,0,P|34:75|16:105,1,70,10|2,3:2|0:0,0:0:0:0:
46,183,63300,6,0,L|76:347,1,140,2|10,3:2|3:2,0:0:0:0:
149,290,64056,2,0,P|154:255|161:221,2,70,2|2|2,0:0|3:2|0:0,0:0:0:0:
210,347,64813,1,10,3:2:0:0:
284,308,65065,1,2,3:2:0:0:
340,245,65317,6,0,P|373:253|482:295,1,140,6|10,3:2|3:2,0:0:0:0:
431,366,66073,1,2,0:0:0:0:
431,366,66199,1,2,0:0:0:0:
431,366,66325,2,0,P|400:348|366:339,1,70,2|2,3:2|0:0,0:0:0:0:
300,288,66830,2,0,P|269:305|235:314,1,70,10|2,3:2|0:0,0:0:0:0:
193,239,67334,6,0,B|199:186|252:167|252:167|266:189|289:193,1,140,6|10,3:2|3:2,0:0:0:0:
362,163,68090,1,2,0:0:0:0:
402,89,68342,2,0,P|394:50|375:7,1,70,2|2,3:2|0:0,0:0:0:0:
300,8,68846,1,10,3:2:0:0:
226,47,69098,1,2,3:2:0:0:
197,126,69351,6,0,L|118:112,1,70,6|2,3:2|0:0,0:0:0:0:
6,229,70107,2,0,L|23:308,1,70,6|2,0:0|3:2,0:0:0:0:
168,376,70863,2,0,L|182:307,1,70,14|2,3:2|0:0,0:0:0:0:
234,241,71367,6,0,P|277:238|319:269,1,70,4|2,3:1|1:2,0:0:0:0:
371,294,71872,1,10,3:2:0:0:
434,239,72124,1,2,0:0:0:0:
401,161,72376,2,0,P|395:127|386:79,1,70,2|2,3:2|0:0,0:0:0:0:
325,36,72880,1,10,3:2:0:0:
204,153,73384,6,0,B|164:168|128:138|152:136|120:107|77:116,1,140,6|12,3:2|3:2,0:0:0:0:
2,266,74393,2,0,P|47:271|78:244,1,70,8|8,0:3|0:3,0:0:0:0:
144,290,74897,2,0,P|170:253|162:213,1,70,4|4,0:3|0:3,0:0:0:0:
204,153,75401,1,4,0:3:0:0:
320,31,75905,5,10,0:0:0:0:
320,31,76914,1,10,0:0:0:0:
320,31,77922,1,10,0:0:0:0:
453,132,78426,2,0,P|463:172|447:201,1,70,2|2,0:0|0:0,0:0:0:0:
483,274,78930,2,0,P|453:302|420:303,1,70,10|2,0:0|0:0,0:0:0:0:
354,260,79435,1,2,0:0:0:0:
275,111,79939,5,10,0:0:0:0:
275,111,80947,1,10,0:0:0:0:
275,111,81956,1,10,0:0:0:0:
210,165,82208,1,2,0:0:0:0:
146,219,82460,2,0,L|56:204,1,70,2|2,0:0|0:0,0:0:0:0:
51,287,82964,2,0,L|120:298,1,70,10|2,0:0|0:0,0:0:0:0:
169,366,83468,6,0,B|257:373|216:326|309:334,1,140,2|10,3:2|0:0,0:0:0:0:
463,374,84477,1,2,0:0:0:0:
425,300,84729,1,2,0:0:0:0:
470,229,84981,1,10,0:0:0:0:
470,229,85233,1,2,0:0:0:0:
420,161,85485,6,0,B|332:154|373:201|280:193,1,140,2|10,3:2|0:0,0:0:0:0:
222,149,86241,1,2,0:0:0:0:
222,149,86367,1,2,0:0:0:0:
222,149,86493,2,0,P|230:105|214:66,1,70,2|2,0:0|0:0,0:0:0:0:
170,15,86998,1,10,0:0:0:0:
86,6,87250,1,2,0:0:0:0:
10,44,87502,6,0,L|43:192,1,140,2|10,3:2|0:0,0:0:0:0:
123,191,88258,2,0,L|90:339,1,140,2|2,0:0|0:0,0:0:0:0:
160,376,89014,1,10,0:0:0:0:
213,313,89266,5,2,0:0:0:0:
213,313,89393,1,2,0:0:0:0:
213,313,89519,2,0,P|256:324|277:346,1,70,6|2,3:2|0:0,0:0:0:0:
349,304,90023,2,0,P|360:261|352:232,1,70,14|8,3:2|0:3,0:0:0:0:
316,162,90527,2,0,P|342:146|400:141,2,70,8|12|4,3:0|0:3|3:3,0:0:0:0:
253,217,91283,1,4,0:3:0:0:
186,268,91535,6,0,P|151:262|121:244,1,70,4|2,3:2|1:2,0:0:0:0:
108,204,91914,1,2,0:0:0:0:
108,204,92040,2,0,L|94:117,1,70,10|2,3:2|0:0,0:0:0:0:
123,55,92544,1,2,3:2:0:0:
191,7,92796,1,2,0:0:0:0:
271,32,93048,2,0,P|309:48|332:96,1,70,10|2,3:2|0:0,0:0:0:0:
398,112,93552,6,0,P|403:152|373:196,1,70,2|2,3:2|0:0,0:0:0:0:
344,247,94056,1,10,3:2:0:0:
397,325,94308,1,2,0:0:0:0:
397,325,94435,1,2,0:0:0:0:
397,325,94561,2,0,P|433:340|479:313,1,70,2|2,3:2|0:0,0:0:0:0:
503,259,95065,1,10,3:2:0:0:
482,177,95317,1,2,3:2:0:0:
412,129,95569,6,0,B|375:139|365:179|365:179|356:215|318:222,1,140,2|10,3:2|3:2,0:0:0:0:
248,268,96325,1,2,0:0:0:0:
173,229,96577,1,2,3:2:0:0:
140,151,96830,1,2,0:0:0:0:
187,82,97082,2,0,P|191:52|204:0,1,70,10|2,3:2|0:0,0:0:0:0:
116,3,97586,6,0,P|107:37|103:71,1,70,2|2,3:2|0:0,0:0:0:0:
0,153,98090,2,0,P|84:189|83:236,1,140,10|2,3:2|3:2,0:0:0:0:
43,298,98846,1,2,0:0:0:0:
90,367,99098,1,10,3:2:0:0:
173,355,99351,1,2,3:2:0:0:
195,273,99603,6,0,P|236:220|302:228,1,140,2|10,3:2|3:2,0:0:0:0:
379,284,100359,1,2,0:0:0:0:
379,284,100485,1,2,0:0:0:0:
379,284,100611,2,0,P|392:214|415:129,1,140,2|10,3:2|3:2,0:0:0:0:
442,72,101367,1,2,0:0:0:0:
375,20,101619,6,0,B|349:4|304:5|304:5|289:40|255:51,1,140,2|10,3:2|3:2,0:0:0:0:
181,23,102376,1,2,0:0:0:0:
181,23,102502,1,2,0:0:0:0:
181,23,102628,2,0,P|152:68|151:98,1,70,2|2,3:2|0:0,0:0:0:0:
176,163,103132,1,10,3:2:0:0:
138,237,103384,1,2,3:2:0:0:
157,318,103636,6,0,P|127:341|78:339,1,70,2|2,3:2|0:0,0:0:0:0:
55,270,104140,2,0,P|22:257|1:230,1,70,10|2,3:2|0:0,0:0:0:0:
42,156,104645,2,0,P|36:121|49:89,1,70,2|2,3:2|0:0,0:0:0:0:
134,87,105149,2,0,P|160:65|195:60,1,70,10|2,3:2|0:0,0:0:0:0:
268,101,105653,6,0,P|339:87|423:74,2,140,6|14|2,3:2|3:2|3:2,0:0:0:0:
219,170,106914,1,2,0:0:0:0:
279,228,107166,2,0,P|315:233|365:242,1,70,10|2,3:2|3:2,0:0:0:0:
461,15,123804,6,0,P|397:62|320:50,1,140,4|6,3:2|3:2,0:0:0:0:
268,14,124561,1,2,0:0:0:0:
268,14,124687,1,2,0:0:0:0:
268,14,124813,1,8,0:3:0:0:
231,89,125065,1,8,0:3:0:0:
153,121,125317,1,4,0:3:0:0:
80,78,125569,1,4,0:3:0:0:
7,122,125821,6,0,B|-3:166|20:196|27:177|55:206|47:249,1,140,6|10,3:2|3:2,0:0:0:0:
16,326,126577,1,2,0:0:0:0:
85,374,126830,2,0,P|118:385|160:357,1,70,2|2,3:2|0:0,0:0:0:0:
189,354,127208,1,2,0:0:0:0:
189,354,127334,2,0,P|200:321|172:279,1,70,10|2,3:2|0:0,0:0:0:0:
203,207,127838,6,0,B|244:171|244:171|327:206,1,140,2|10,3:2|3:2,0:0:0:0:
399,171,128594,1,2,0:0:0:0:
471,213,128846,1,2,3:2:0:0:
490,294,129098,1,2,0:0:0:0:
432,354,129351,1,10,3:2:0:0:
356,317,129603,1,2,3:2:0:0:
285,361,129855,6,0,P|251:351|191:341,1,70,6|2,3:2|1:2,0:0:0:0:
192,317,130233,1,2,0:0:0:0:
192,317,130359,2,0,P|180:263|170:225,1,70,10|2,3:2|0:0,0:0:0:0:
117,189,130863,2,0,P|124:154|142:75,1,105,2|2,3:2|0:0,0:0:0:0:
148,45,131367,2,0,P|176:26|227:32,1,70,10|2,3:2|0:0,0:0:0:0:
264,90,131872,6,0,P|323:123|390:110,1,140,2|10,3:2|3:2,0:0:0:0:
462,64,132628,2,0,P|452:30|437:-1,2,70,2|2|2,0:0|3:2|0:0,0:0:0:0:
483,145,133384,1,10,3:2:0:0:
425,206,133636,1,2,3:2:0:0:
343,226,133888,6,0,B|316:281|316:281|374:367,1,140,6|10,3:2|3:2,0:0:0:0:
452,350,134645,1,2,0:0:0:0:
452,350,134771,1,2,0:0:0:0:
452,350,134897,2,0,L|467:261,1,70,2|2,3:2|0:0,0:0:0:0:
425,206,135401,2,0,L|410:117,1,70,10|2,3:2|0:0,0:0:0:0:
396,54,135905,6,0,P|358:16|271:46,1,140,6|10,3:2|3:2,0:0:0:0:
239,106,136661,1,2,0:0:0:0:
201,181,136914,2,0,P|169:184|130:161,1,70,2|2,3:2|0:0,0:0:0:0:
52,171,137418,2,0,P|33:144|33:99,1,70,10|2,3:2|3:2,0:0:0:0:
80,39,137922,6,0,L|160:23,1,70,6|2,3:2|0:0,0:0:0:0:
226,173,138678,2,0,L|157:159,1,70,6|2,0:0|3:2,0:0:0:0:
47,286,139435,2,0,L|115:272,1,70,14|2,3:2|0:0,0:0:0:0:
183,319,139939,6,0,P|208:344|242:351,1,70,4|2,3:1|1:2,0:0:0:0:
325,352,140443,1,10,3:2:0:0:
365,278,140695,1,2,0:0:0:0:
322,205,140947,2,0,L|309:120,1,70,2|2,3:2|0:0,0:0:0:0:
382,90,141451,2,0,L|395:5,1,70,10|2,3:2|3:2,0:0:0:0:
474,0,141956,6,0,L|498:137,1,140,4|10,3:2|3:2,0:0:0:0:
496,229,142712,1,2,0:0:0:0:
496,229,142838,1,2,0:0:0:0:
496,229,142964,2,0,P|468:263|421:271,1,70,2|2,3:2|0:0,0:0:0:0:
384,330,143468,1,10,3:2:0:0:
322,272,143720,5,2,0:0:0:0:
322,272,143972,1,2,3:2:0:0:
276,342,144224,1,2,0:0:0:0:
193,358,144477,2,0,P|160:363|130:336,1,70,10|2,3:2|0:0,0:0:0:0:
100,324,144855,1,2,0:0:0:0:
100,324,144981,2,0,P|92:283|81:243,1,70,2|2,3:2|0:0,0:0:0:0:
110,176,145485,1,10,3:2:0:0:
47,120,145737,1,2,3:2:0:0:
95,50,145989,6,0,P|186:32|237:77,1,140,2|10,3:2|3:2,0:0:0:0:
286,124,146745,1,2,0:0:0:0:
286,124,146872,1,2,0:0:0:0:
286,124,146998,2,0,P|333:131|372:142,1,70,2|2,3:2|0:0,0:0:0:0:
424,89,147502,2,0,P|458:81|492:76,1,70,10|2,3:2|0:0,0:0:0:0:
510,158,148006,6,0,P|507:192|490:223,1,70,2|2,3:2|0:0,0:0:0:0:
419,267,148510,2,0,P|390:247|371:217,1,70,10|2,3:2|0:0,0:0:0:0:
354,136,149014,2,0,P|335:106|306:86,1,70,2|2,3:2|0:0,0:0:0:0:
228,56,149519,1,10,3:2:0:0:
155,98,149771,1,2,3:2:0:0:
76,68,150023,6,0,P|15:123|21:167,1,105,2|2,3:2|0:0,0:0:0:0:
21,181,150527,2,0,B|109:216|9:330|112:370,1,210,10|2,3:2|0:0,0:0:0:0:
173,331,151535,1,10,3:2:0:0:
255,376,151787,5,2,0:0:0:0:
255,376,151914,1,2,0:0:0:0:
255,376,152040,2,0,L|271:299,1,70,2|2,3:2|0:0,0:0:0:0:
216,241,152544,2,0,L|200:164,1,70,10|2,3:2|0:0,0:0:0:0:
219,134,152922,1,2,0:0:0:0:
219,134,153048,1,2,3:2:0:0:
270,67,153300,1,2,0:0:0:0:
338,116,153552,1,10,3:2:0:0:
417,89,153804,1,2,3:2:0:0:
490,130,154056,6,0,P|468:207|455:273,1,140,2|10,3:2|3:2,0:0:0:0:
409,335,154813,1,2,0:0:0:0:
326,352,155065,2,0,P|311:283|292:216,1,140,2|10,3:2|3:2,0:0:0:0:
230,159,155821,1,2,0:0:0:0:
174,222,156073,6,0,P|133:260|43:263,1,140,6|14,3:2|3:2,0:0:0:0:
13,191,156830,1,8,0:3:0:0:
13,191,156956,1,8,0:3:0:0:
13,191,157082,2,0,L|22:138,3,35,8|8|4|4,3:3|0:3|0:3|0:3,0:0:0:0:
42,121,157586,2,0,L|33:68,2,35,4|4|4,3:3|0:3|3:3,0:0:0:0:
177,85,158090,6,0,L|330:109,1,140,4|10,3:2|3:2,0:0:0:0:
380,53,158846,1,2,0:2:0:0:
347,188,159098,2,0,L|491:132,1,140,2|10,3:2|3:2,0:0:0:0:
500,56,159854,1,2,0:2:0:0:
425,8,160107,6,0,P|385:33|385:77,1,70,2|2,3:2|0:0,0:0:0:0:
389,136,160611,2,0,P|401:180|416:232,1,70,10|2,3:2|0:2,0:0:0:0:
435,241,160989,1,2,0:0:0:0:
435,241,161115,1,2,3:2:0:0:
412,321,161367,1,2,0:0:0:0:
333,293,161619,1,10,3:2:0:0:
265,343,161872,1,2,3:2:0:0:
193,299,162124,6,0,L|168:140,1,140,2|10,3:2|3:2,0:0:0:0:
120,91,162880,1,2,0:2:0:0:
8,196,163132,2,0,L|33:37,1,140,2|10,3:2|3:2,0:0:0:0:
93,2,163888,1,2,0:2:0:0:
171,160,164140,6,0,P|226:168|269:177,1,70,2|2,3:2|0:0,0:0:0:0:
294,106,164645,2,0,P|349:98|392:89,1,70,10|2,3:2|0:2,0:0:0:0:
395,68,165023,1,2,0:3:0:0:
395,68,165149,1,2,3:2:0:0:
478,80,165401,1,2,0:2:0:0:
502,160,165653,1,10,3:2:0:0:
450,226,165905,1,2,3:2:0:0:
469,308,166157,6,0,P|419:298|316:280,1,140,6|10,3:2|3:2,0:0:0:0:
269,224,166914,1,2,0:2:0:0:
284,357,167166,2,0,P|245:323|165:256,1,140,2|10,3:2|3:2,0:0:0:0:
111,213,167923,1,2,0:2:0:0:
12,336,168174,6,0,B|-17:276|28:214|33:259|76:200|56:143,1,210,2|2,3:2|0:2,0:0:0:0:
19,68,169182,2,0,P|52:55|90:45,1,70,2|2,3:2|0:0,0:0:0:0:
164,15,169687,2,0,P|197:28|235:38,1,70,10|2,3:2|3:2,0:0:0:0:
242,120,170191,6,0,P|337:139|364:99,1,140,6|10,3:2|3:2,0:0:0:0:
352,27,170947,2,0,P|411:-4|467:31,1,140,6|2,0:2|0:0,0:0:0:0:
491,112,171703,1,14,3:2:0:0:
404,256,172208,1,2,3:2:0:0:
116,89,174224,5,4,0:1:0:0:
256,192,174351,12,0,179014,0:0:0:0:
