osu file format v14

[General]
AudioFilename: audio.mp3
AudioLeadIn: 0
PreviewTime: 39729
Countdown: 0
SampleSet: Soft
StackLeniency: 0.7
Mode: 0
LetterboxInBreaks: 0
WidescreenStoryboard: 0

[Editor]
Bookmarks: 107661,123795
DistanceSpacing: 1.2
BeatDivisor: 4
GridSize: 4
TimelineZoom: 1.5

[Metadata]
Title:Ichinen Nikagetsu Hatsuka (Cut Ver.)
TitleUnicode:1年2ヶ月20日 (Cut Ver.)
Artist:BRIGHT
ArtistUnicode:BRIGHT
Creator:Fanboyyou
Version:1 Year 2 Months 20 Days
Source:
Tags:LOVE〜ある愛のカタチ〜 aru ainokatachi one year two months twenty days 1-nen 2-kagetsu 20-nichi j-pop jpop j pop japanese SAO sword art online kirito lisbeth lis lizbeth liz mynt
BeatmapID:3227690
BeatmapSetID:1580730

[Difficulty]
HPDrainRate:5
CircleSize:4
OverallDifficulty:8.7
ApproachRate:8.6
SliderMultiplier:2
SliderTickRate:1

[Events]
//Background and Video events
0,0,"www.jpg",0,0
//Break Periods
2,109887,123145
//Storyboard Layer 0 (Background)
//Storyboard Layer 1 (Fail)
//Storyboard Layer 2 (Pass)
//Storyboard Layer 3 (Foreground)
//Storyboard Layer 4 (Overlay)
//Storyboard Sound Samples
Sample,111956,2,"Juicer.ogg",100
Sample,179014,2,"Thanks.ogg",80

[TimingPoints]
6830,504.201680672269,4,2,1,40,1,0
21956,-100,4,2,2,40,0,0
22964,-76.9230769230769,4,2,2,60,0,0
35065,-68.9655172413793,4,2,2,70,0,0
41115,-55.5555555555556,4,2,2,80,0,1
41619,-66.6666666666667,4,2,2,80,0,1
51199,-55.5555555555556,4,2,2,80,0,1
51703,-66.6666666666667,4,2,2,80,0,1
55233,-55.5555555555556,4,2,2,80,0,1
56241,-66.6666666666667,4,2,2,80,0,0
57250,-55.5555555555556,4,2,2,80,0,1
57754,-66.6666666666667,4,2,2,80,0,1
65317,-55.5555555555556,4,2,2,80,0,1
65821,-66.6666666666667,4,2,2,80,0,1
67334,-55.5555555555556,4,2,2,80,0,1
67838,-66.6666666666667,4,2,2,80,0,1
69351,-66.6666666666667,4,2,2,80,0,1
71367,-66.6666666666667,4,2,2,80,0,0
73384,-55.5555555555556,4,2,2,80,0,1
74393,-66.6666666666667,4,2,2,80,0,1
75905,-86.9565217391304,4,2,2,50,0,0
87502,-76.9230769230769,4,2,2,50,0,0
89519,-55.5555555555556,4,2,2,55,0,0
90527,-66.6666666666667,4,2,2,55,0,0
91535,-55.5555555555556,4,2,2,60,0,0
92040,-71.4285714285714,4,2,2,60,0,0
123804,-55.5555555555556,4,2,2,70,0,0
125065,-83.3333333333333,4,2,2,70,0,0
125317,-55.5555555555556,4,2,2,70,0,0
125569,-83.3333333333333,4,2,2,70,0,0
125821,-55.5555555555556,4,2,2,80,0,1
126325,-66.6666666666667,4,2,2,80,0,1
133888,-55.5555555555556,4,2,2,80,0,1
134393,-66.6666666666667,4,2,2,80,0,1
135905,-55.5555555555556,4,2,2,80,0,1
136409,-66.6666666666667,4,2,2,80,0,1
139939,-66.6666666666667,4,2,2,80,0,0
141956,-55.5555555555556,4,2,2,80,0,0
142460,-62.5,4,2,2,80,0,0
150527,-55.5555555555556,4,2,2,80,0,0
151535,-62.5,4,2,2,80,0,0
152040,-55.5555555555556,4,2,2,80,0,0
152544,-62.5,4,2,2,80,0,0
156073,-55.5555555555556,4,2,2,80,0,0
158090,-50,4,2,2,80,0,1
170191,-55.5555555555556,4,2,2,80,0,1
172208,-55.5555555555556,4,2,2,80,0,0
174224,-294.117647058824,4,2,2,60,0,0
175737,-100,4,2,1,50,0,0
176998,-100,4,2,2,40,0,0
178258,-100,4,2,1,25,0,0
179014,-100,4,2,2,15,0,0
179771,-100,4,2,1,10,0,0
180275,-100,4,2,2,5,0,0

[Colours]
Combo1 : 255,207,64
Combo2 : 122,124,192
Combo3 : 253,138,187
Combo4 : 245,90,114

[HitObjects]
60,234,6830,5,0,3:0:0:0:
0,161,7082,1,2,0:0:0:0:
91,58,7334,2,0,B|67:43|62:18|62:18|66:43|39:79,1,100,2|2,3:2|0:0,0:0:0:0:
150,124,7838,1,2,3:2:0:0:
198,54,8090,2,0,B|241:6|296:43|283:57|336:110|402:43,1,200,2|2,0:0|0:0,0:0:0:0:
446,12,8846,5,2,3:2:0:0:
354,168,9098,1,2,0:0:0:0:
379,61,9351,1,2,3:2:0:0:
422,236,9603,1,2,0:0:0:0:
416,248,9729,1,2,0:3:0:0:
410,261,9855,2,0,P|386:256|361:253,1,50,2|2,3:0|0:3,0:0:0:0:
463,165,10107,2,0,P|487:162|512:156,1,50,2|2,0:3|0:3,0:0:0:0:
482,327,10359,1,8,3:2:0:0:
512,241,10611,1,2,0:0:0:0:
401,371,10863,6,0,P|353:352|305:352,1,100,2|0,3:2|0:0,0:0:0:0:
187,257,11367,2,0,P|236:256|282:237,1,100,2|0,3:2|0:0,0:0:0:0:
145,364,11872,1,2,3:2:0:0:
31,284,12124,1,2,0:0:0:0:
113,116,12376,2,0,B|75:98|75:98|22:145,1,100,2|0,3:2|0:0,0:0:0:0:
153,250,12880,5,2,3:0:0:0:
187,145,13132,1,2,0:0:0:0:
192,160,13384,1,0,3:0:0:0:
261,5,13636,1,2,0:0:0:0:
260,19,13762,1,2,0:3:0:0:
258,33,13888,2,0,L|251:99,1,50,2|2,3:0|0:3,0:0:0:0:
320,189,14140,2,0,L|314:139,1,50,2|2,0:3|0:3,0:0:0:0:
249,268,14393,6,0,P|243:301|257:269,1,100,12|0,3:2|0:0,0:0:0:0:
361,62,14897,6,0,P|415:59|463:106,1,100,2|2,3:2|0:0,0:0:0:0:
502,213,15401,2,0,P|460:239|411:235,1,100,2|2,3:2|0:0,0:0:0:0:
253,92,15905,1,2,3:2:0:0:
314,139,16157,2,0,L|339:343,1,200,2|2,0:0|0:0,0:0:0:0:
163,204,16914,5,2,3:2:0:0:
121,331,17166,1,2,0:0:0:0:
248,191,17418,1,2,3:2:0:0:
79,108,17670,1,2,0:0:0:0:
82,122,17796,1,2,0:3:0:0:
85,136,17922,2,0,P|115:124|161:119,1,50,2|2,3:0|0:3,0:0:0:0:
47,234,18174,2,0,P|17:222|-29:217,1,50,2|2,0:3|0:3,0:0:0:0:
45,37,18426,2,0,P|56:92|65:142,1,100,8|2,3:2|0:0,0:0:0:0:
128,308,18930,6,0,P|136:258|146:209,2,100,2|2|2,3:2|0:0|3:2,0:0:0:0:
178,384,19687,1,2,0:0:0:0:
309,282,19939,2,0,P|272:250|198:283,1,100,2|2,3:2|0:0,0:0:0:0:
324,382,20443,2,0,P|375:368|442:351,1,100,2|2,3:2|0:0,0:0:0:0:
483,220,20947,5,8,0:3:0:0:
505,293,21073,1,4,0:3:0:0:
402,145,21325,5,8,0:3:0:0:
443,81,21451,1,4,0:3:0:0:
256,134,21703,6,0,P|282:135|304:142,1,50,4|0,0:3|0:0,0:0:0:0:
226,14,21956,2,0,P|211:36|193:51,1,50,10|0,0:0|0:0,0:0:0:0:
344,48,22208,2,0,P|332:23|327:1,1,50,2|0,0:0|0:0,0:0:0:0:
251,144,22460,2,0,P|275:145|299:152,1,50,10|0,0:0|0:0,0:0:0:0:
223,6,22712,2,0,P|208:28|190:43,1,50,2|2,0:0|0:0,0:0:0:0:
55,30,22964,6,0,B|90:34|103:77|103:77|81:164,1,129.999994049073,6|0,3:2|1:0,0:0:0:0:
18,219,23342,1,2,0:0:0:0:
24,203,23468,2,0,P|60:207|88:215,1,64.9999970245363,8|0,3:2|0:0,0:0:0:0:
138,308,23720,6,0,P|102:312|74:320,1,64.9999970245363,2|2,0:0|0:0,0:0:0:0:
176,230,23972,2,0,P|207:239|240:243,1,64.9999970245363,2|0,3:2|0:0,0:0:0:0:
259,353,24224,2,0,P|227:357|196:367,1,64.9999970245363,2|2,0:0|0:0,0:0:0:0:
307,191,24477,2,0,P|320:219|317:276,1,64.9999970245363,10|0,3:2|0:0,0:0:0:0:
382,368,24729,2,0,P|384:335|397:306,1,64.9999970245363,2|2,0:0|0:0,0:0:0:0:
512,199,24981,6,0,B|487:171|451:169|451:169|431:209|384:209,1,129.999994049073,2|2,3:2|0:0,0:0:0:0:
362,58,25359,1,2,0:0:0:0:
365,71,25485,2,0,P|376:120|384:160,1,64.9999970245363,8|0,3:2|0:0,0:0:0:0:
241,25,25737,6,0,P|206:31|181:62,1,64.9999970245363,2|2,0:0|0:0,0:0:0:0:
114,11,25989,2,0,P|101:44|116:81,1,64.9999970245363,2|0,3:2|0:0,0:0:0:0:
87,228,26241,2,0,P|119:222|143:201,1,64.9999970245363,2|2,0:0|0:0,0:0:0:0:
37,112,26493,2,0,P|57:138|88:146,1,64.9999970245363,10|0,3:2|0:0,0:0:0:0:
185,51,26745,1,2,0:0:0:0:
235,237,26998,6,0,P|241:172|251:97,1,129.999994049073,2|0,3:2|1:0,0:0:0:0:
143,202,27376,1,2,0:0:0:0:
135,220,27502,2,0,P|145:264|152:335,1,64.9999970245363,10|0,3:2|0:0,0:0:0:0:
218,384,27754,2,0,P|223:351|231:320,1,64.9999970245363,2|2,0:0|0:0,0:0:0:0:
318,234,28006,6,0,B|373:201|388:271|440:237,1,129.999994049073,2|2,3:2|0:0,0:0:0:0:
491,140,28384,1,2,0:0:0:0:
482,127,28510,2,0,P|447:135|409:147,1,64.9999970245363,10|0,3:2|0:0,0:0:0:0:
273,50,28762,5,2,0:0:0:0:
276,34,28888,1,2,0:0:0:0:
279,19,29014,2,0,P|342:33|411:51,2,129.999994049073,0|2|10,3:2|0:0|3:2,0:0:0:0:
78,104,29771,5,2,0:0:0:0:
74,120,29897,1,2,0:3:0:0:
70,136,30023,2,0,P|36:142|-1:154,1,64.9999970245363,2|2,3:2|0:3,0:0:0:0:
98,28,30275,2,0,P|129:37|161:42,1,64.9999970245363,2|2,0:0|0:3,0:0:0:0:
229,176,30527,2,0,B|266:184|290:161|290:161|243:168|210:125,1,129.999994049073,10|2,3:2|0:0,0:0:0:0:
132,229,30905,5,2,0:0:0:0:
134,247,31031,2,0,L|151:383,1,129.999994049073,2|0,3:2|1:0,0:0:0:0:
356,277,31409,1,2,0:0:0:0:
344,261,31535,2,0,B|311:238|276:265|290:276|256:306|221:275,1,129.999994049073,10|2,3:2|0:0,0:0:0:0:
368,377,31914,1,2,0:0:0:0:
371,361,32040,2,0,P|399:354|440:351,1,64.9999970245363,2|0,3:2|0:0,0:0:0:0:
420,267,32292,2,0,P|387:270|356:277,1,64.9999970245363,2|2,0:0|0:0,0:0:0:0:
511,299,32544,1,10,3:2:0:0:
500,86,32796,5,2,0:0:0:0:
488,76,32922,1,2,0:0:0:0:
476,66,33048,2,0,B|425:128|425:128|493:204,1,129.999994049073,0|2,3:2|0:0,0:0:0:0:
332,73,33426,1,2,0:0:0:0:
321,92,33552,2,0,P|266:85|183:78,1,129.999994049073,10|2,3:2|0:0,0:0:0:0:
84,4,33930,1,2,0:3:0:0:
98,16,34056,2,0,P|106:51|116:91,1,64.9999970245363,2|2,3:2|0:3,0:0:0:0:
10,147,34308,2,0,P|17:115|24:83,1,64.9999970245363,2|2,0:3|0:3,0:0:0:0:
156,157,34561,2,0,B|172:176|198:186|198:186|164:282,1,129.999994049073,10|2,3:2|0:0,0:0:0:0:
87,325,34939,5,2,0:0:0:0:
77,308,35065,2,0,P|171:307|224:362,2,145.000004425049,2|2|10,3:2|0:0|3:2,0:0:0:0:
325,354,35821,5,2,0:0:0:0:
321,332,35947,1,2,0:0:0:0:
317,310,36073,2,0,B|301:284|343:253|407:263|416:347,2,145.000004425049,2|2|10,3:2|0:0|3:2,0:0:0:0:
202,126,36830,5,2,0:0:0:0:
198,148,36956,1,2,0:0:0:0:
194,170,37082,2,0,B|178:196|220:227|284:217|293:133,1,145.000004425049,2|2,3:2|0:0,0:0:0:0:
181,16,37460,5,2,0:0:0:0:
166,0,37586,2,0,P|129:10|65:14,1,72.5000022125245,10|0,3:2|0:0,0:0:0:0:
248,59,37838,2,0,P|283:63|318:73,1,72.5000022125245,2|2,0:0|0:0,0:0:0:0:
511,182,38090,2,0,P|483:161|471:127,1,72.5000022125245,2|0,3:2|0:0,0:0:0:0:
319,162,38342,2,0,P|351:148|387:155,1,72.5000022125245,2|2,0:0|0:0,0:0:0:0:
434,8,38594,2,0,P|428:43|405:70,1,72.5000022125245,10|0,3:2|0:0,0:0:0:0:
369,269,38846,6,0,P|364:250|358:220,3,36.2500011062622,2|0|2|0,0:0|0:0|0:0|0:0,0:0:0:0:
325,360,39098,5,8,0:3:0:0:
248,348,39224,1,8,0:3:0:0:
226,276,39351,1,8,0:3:0:0:
243,225,39477,1,8,0:3:0:0:
228,197,39603,1,4,0:3:0:0:
210,190,39729,1,4,0:3:0:0:
199,198,39855,1,4,0:3:0:0:
183,84,41115,6,0,B|216:44|214:-7|214:-7|217:37|264:57,1,179.999994506836,6|2,3:2|1:2,0:0:0:0:
388,118,41493,1,2,0:0:0:0:
426,48,41619,2,0,P|465:37|542:28,1,75.0000028610231,10|0,3:2|0:0,0:0:0:0:
338,180,41872,2,0,P|301:169|265:163,1,75.0000028610231,2|2,0:0|0:0,0:0:0:0:
504,121,42124,6,0,P|478:187|464:265,1,150.000005722046,2|2,3:2|0:0,0:0:0:0:
347,384,42502,1,2,0:0:0:0:
294,319,42628,2,0,P|288:281|277:246,1,75.0000028610231,10|0,3:2|0:0,0:0:0:0:
465,183,42880,2,0,P|454:218|448:255,1,75.0000028610231,2|2,0:0|0:0,0:0:0:0:
225,369,43132,6,0,B|178:397|143:347|159:340|123:286|68:335,1,150.000005722046,2|2,3:2|0:0,0:0:0:0:
32,151,43510,1,2,0:0:0:0:
0,228,43636,2,0,P|8:263|14:301,1,75.0000028610231,10|0,3:2|0:0,0:0:0:0:
111,183,43888,2,0,P|116:145|125:109,1,75.0000028610231,2|2,0:0|0:0,0:0:0:0:
12,7,44140,6,0,P|41:40|83:49,1,75.0000028610231,2|0,3:2|0:0,0:0:0:0:
124,109,44393,2,0,P|167:100|195:68,1,75.0000028610231,2|2,0:0|0:0,0:0:0:0:
372,0,44645,2,0,P|339:29|330:71,1,75.0000028610231,10|0,3:2|0:0,0:0:0:0:
268,111,44897,1,2,3:2:0:0:
374,265,45149,6,0,P|385:170|397:96,1,150.000005722046,6|2,3:2|1:2,0:0:0:0:
410,336,45527,1,2,0:0:0:0:
333,338,45653,2,0,P|300:320|264:312,1,75.0000028610231,10|0,3:2|0:0,0:0:0:0:
374,265,45905,2,0,P|406:246|442:238,1,75.0000028610231,2|2,0:0|0:0,0:0:0:0:
190,384,46157,6,0,P|179:289|167:215,1,150.000005722046,2|2,3:2|0:0,0:0:0:0:
17,92,46535,1,2,0:0:0:0:
76,147,46661,2,0,B|71:202|49:255|49:255|63:235|104:224,1,150.000005722046,10|2,3:2|0:0,0:0:0:0:
225,63,47040,5,2,0:0:0:0:
212,142,47166,2,0,P|258:178|345:157,1,150.000005722046,2|2,3:2|0:0,0:0:0:0:
438,0,47544,1,2,0:0:0:0:
396,69,47670,2,0,P|407:104|418:157,1,75.0000028610231,10|0,3:2|0:0,0:0:0:0:
493,236,47922,6,0,P|501:199|512:163,1,75.0000028610231,2|2,0:0|0:3,0:0:0:0:
379,266,48174,2,0,P|406:291|431:319,1,75.0000028610231,2|2,3:2|0:3,0:0:0:0:
415,141,48426,2,0,P|379:152|342:160,1,75.0000028610231,2|2,0:0|0:3,0:0:0:0:
166,305,48678,2,0,P|202:312|238:323,1,75.0000028610231,10|0,3:2|0:0,0:0:0:0:
296,268,48930,1,2,3:2:0:0:
31,141,49182,6,0,B|6:113|-31:151|-20:209|23:235|77:224,1,150.000005722046,6|2,3:2|1:2,0:0:0:0:
110,173,49561,1,2,0:0:0:0:
173,116,49687,2,0,B|186:82|235:105|245:162|212:202|158:210,1,150.000005722046,10|2,3:2|0:0,0:0:0:0:
49,353,50065,5,2,0:0:0:0:
102,294,50191,2,0,P|142:298|185:309,1,75.0000028610231,2|0,3:2|0:0,0:0:0:0:
263,187,50443,2,0,P|226:195|189:199,1,75.0000028610231,2|2,0:0|0:0,0:0:0:0:
278,299,50695,2,0,P|318:303|361:314,1,75.0000028610231,10|0,3:2|0:0,0:0:0:0:
378,107,50947,2,0,P|341:115|304:119,1,75.0000028610231,2|2,0:0|0:0,0:0:0:0:
424,270,51199,6,0,B|480:268|505:216|507:177|451:124|420:189,1,179.999994506836,2|2,3:2|0:0,0:0:0:0:
260,39,51577,1,2,0:0:0:0:
212,101,51703,2,0,P|230:186|244:271,1,150.000005722046,10|2,3:2|0:0,0:0:0:0:
378,107,52082,5,2,0:0:0:0:
421,35,52208,2,0,P|451:31|508:20,1,75.0000028610231,2|0,3:2|0:0,0:0:0:0:
512,155,52460,2,0,P|474:160|438:167,1,75.0000028610231,2|2,0:0|0:0,0:0:0:0:
304,119,52712,2,0,P|334:115|391:104,1,75.0000028610231,10|0,3:2|0:0,0:0:0:0:
438,166,52964,1,2,3:2:0:0:
60,65,53216,6,0,B|12:72|2:115|2:115|25:182,1,150.000005722046,6|2,3:2|1:2,0:0:0:0:
55,252,53594,1,2,0:0:0:0:
110,138,53720,2,0,B|158:145|168:188|168:188|145:252,1,150.000005722046,10|2,3:2|0:0,0:0:0:0:
34,384,54098,1,2,0:0:0:0:
80,322,54224,2,0,P|68:279|54:250,1,75.0000028610231,2|0,3:2|0:0,0:0:0:0:
201,314,54477,6,0,P|185:348|175:384,1,75.0000028610231,2|2,0:0|0:0,0:0:0:0:
145,251,54729,2,0,P|135:213|120:181,1,75.0000028610231,10|0,3:2|0:0,0:0:0:0:
254,68,54981,1,2,0:0:0:0:
211,171,55107,2,0,P|213:153|218:135,1,37.5000014305115,2|2,0:0|0:0,0:0:0:0:
313,1,55233,6,0,B|361:-32|420:-2|403:19|446:63|499:31,1,179.999994506836,6|2,3:2|0:0,0:0:0:0:
512,130,55611,1,2,0:0:0:0:
311,12,55737,2,0,B|361:-22|418:9|401:30|444:74|497:42,1,179.999994506836,14|8,3:2|0:3,0:0:0:0:
389,219,56115,5,8,0:3:0:0:
344,150,56241,2,0,P|348:113|352:76,1,75.0000028610231,8|8,3:3|0:3,0:0:0:0:
489,278,56493,2,0,P|484:240|480:203,1,75.0000028610231,4|4,0:3|0:3,0:0:0:0:
358,82,56745,2,0,P|354:119|350:157,1,75.0000028610231,4|4,3:3|0:3,0:0:0:0:
496,283,56997,2,0,P|491:245|487:208,1,75.0000028610231,4|4,3:3|0:3,0:0:0:0:
242,302,57250,6,0,B|230:274|240:245|295:234|345:257|345:340|314:380,1,179.999994506836,6|2,3:2|1:2,0:0:0:0:
186,384,57628,1,2,0:0:0:0:
126,334,57754,2,0,P|120:296|112:260,1,75.0000028610231,10|0,3:2|0:0,0:0:0:0:
192,133,58006,2,0,P|184:169|179:207,1,75.0000028610231,2|2,0:0|0:0,0:0:0:0:
53,52,58258,6,0,B|72:89|115:83|115:83|142:42|188:42,1,150.000005722046,2|2,3:2|0:0,0:0:0:0:
331,22,58636,1,2,0:0:0:0:
250,0,58762,2,0,P|260:57|279:179,1,150.000005722046,10|2,3:2|0:0,0:0:0:0:
456,250,59140,5,2,0:0:0:0:
402,190,59266,2,0,P|365:199|328:206,1,75.0000028610231,2|0,3:2|0:0,0:0:0:0:
223,347,59519,2,0,P|259:353|296:363,1,75.0000028610231,2|2,0:0|0:0,0:0:0:0:
456,250,59771,2,0,P|385:272|311:283,1,150.000005722046,10|2,3:2|0:0,0:0:0:0:
441,38,60149,5,2,0:0:0:0:
495,98,60275,2,0,L|482:171,1,75.0000028610231,2|0,3:2|0:0,0:0:0:0:
456,250,60527,2,0,L|469:324,1,75.0000028610231,2|2,0:0|0:0,0:0:0:0:
377,170,60779,2,0,L|390:97,1,75.0000028610231,10|0,3:2|0:0,0:0:0:0:
441,38,61031,1,2,3:2:0:0:
332,262,61283,6,0,B|280:288|280:288|206:234,1,150.000005722046,6|2,3:2|1:2,0:0:0:0:
133,81,61661,1,2,0:0:0:0:
76,135,61787,2,0,P|70:176|102:212,1,75.0000028610231,10|0,3:2|0:0,0:0:0:0:
32,260,62040,2,0,P|65:286|112:277,1,75.0000028610231,2|2,0:0|0:0,0:0:0:0:
332,262,62292,6,0,B|284:250|267:299|277:300|251:349|185:321,1,150.000005722046,2|2,3:2|0:0,0:0:0:0:
297,139,62670,1,2,0:0:0:0:
359,190,62796,2,0,P|370:260|382:338,1,150.000005722046,10|2,3:2|0:0,0:0:0:0:
382,105,63174,5,2,0:0:0:0:
319,62,63300,2,0,P|249:72|220:153,1,150.000005722046,2|2,3:2|0:0,0:0:0:0:
359,190,63678,1,2,0:0:0:0:
437,169,63804,2,0,P|478:160|529:153,1,75.0000028610231,10|0,3:2|0:0,0:0:0:0:
289,232,64056,6,0,P|248:223|197:216,1,75.0000028610231,2|2,0:0|0:3,0:0:0:0:
117,106,64308,2,0,P|128:141|141:176,1,75.0000028610231,2|2,3:2|0:3,0:0:0:0:
93,317,64561,2,0,P|118:289|141:260,1,75.0000028610231,2|2,0:0|0:3,0:0:0:0:
118,22,64813,2,0,P|81:26|52:49,1,75.0000028610231,10|0,3:2|0:0,0:0:0:0:
117,106,65065,1,2,3:2:0:0:
280,0,65317,6,0,P|272:82|254:187,1,179.999994506836,6|2,3:2|1:2,0:0:0:0:
335,331,65695,1,2,0:0:0:0:
372,262,65821,2,0,P|362:214|356:162,1,75.0000028610231,10|0,3:2|0:0,0:0:0:0:
242,334,66073,5,2,0:0:0:0:
172,364,66199,1,2,0:0:0:0:
113,316,66325,2,0,P|76:308|23:300,1,75.0000028610231,2|0,3:2|0:0,0:0:0:0:
208,249,66577,2,0,P|245:241|298:233,1,75.0000028610231,2|2,0:0|0:0,0:0:0:0:
73,218,66830,2,0,P|36:210|-17:202,1,75.0000028610231,10|0,3:2|0:0,0:0:0:0:
221,156,67082,2,0,P|258:148|311:140,1,75.0000028610231,2|2,0:0|0:0,0:0:0:0:
96,37,67334,6,0,B|71:7|9:36|12:128|115:147,1,179.999994506836,6|2,3:2|0:0,0:0:0:0:
190,11,67712,1,2,0:0:0:0:
248,63,67838,2,0,P|288:56|338:47,1,75.0000028610231,10|0,3:2|0:0,0:0:0:0:
511,0,68090,6,0,P|499:35|492:72,1,75.0000028610231,2|2,0:0|0:0,0:0:0:0:
390,189,68342,2,0,P|382:153|371:117,1,75.0000028610231,2|0,3:2|0:0,0:0:0:0:
508,207,68594,2,0,P|496:242|489:279,1,75.0000028610231,2|2,0:0|0:0,0:0:0:0:
266,384,68846,2,0,P|224:385|190:354,1,75.0000028610231,10|0,3:2|0:0,0:0:0:0:
254,287,69098,1,2,3:2:0:0:
416,335,69351,6,0,P|376:341|343:351,1,75.0000028610231,6|0,3:2|0:0,0:0:0:0:
435,191,69603,2,0,P|470:201|508:207,1,75.0000028610231,2|2,0:0|0:0,0:0:0:0:
386,257,69855,1,10,3:2:0:0:
97,197,70107,6,0,P|130:201|170:213,1,75.0000028610231,6|2,0:0|0:0,0:0:0:0:
72,49,70359,2,0,P|37:61|1:65,1,75.0000028610231,2|0,3:2|0:0,0:0:0:0:
116,117,70611,1,2,0:0:0:0:
335,5,70863,6,0,P|341:41|352:77,1,75.0000028610231,14|0,3:2|0:0,0:0:0:0:
212,122,71115,2,0,P|222:86|229:49,1,75.0000028610231,2|2,0:0|0:0,0:0:0:0:
296,142,71367,1,4,3:1:0:0:
303,360,71619,5,2,1:2:0:0:
467,245,71872,1,10,3:2:0:0:
296,142,72124,1,2,0:0:0:0:
404,348,72376,1,2,3:2:0:0:
297,274,72628,1,2,0:0:0:0:
219,374,72880,1,10,3:2:0:0:
118,226,73132,1,2,0:0:0:0:
127,332,73258,2,0,P|137:316|141:298,1,37.5000014305115,2|2,0:0|0:0,0:0:0:0:
56,170,73384,6,0,B|70:135|25:107|-33:119|-42:205|19:238,1,179.999994506836,6|2,3:2|0:0,0:0:0:0:
54,291,73762,1,2,0:0:0:0:
63,166,73888,2,0,B|77:131|32:103|-26:115|-35:201|26:234,1,179.999994506836,12|2,3:2|0:0,0:0:0:0:
103,47,74266,5,2,0:0:0:0:
155,105,74393,2,0,P|192:108|229:115,1,75.0000028610231,8|8,0:3|0:3,0:0:0:0:
262,31,74645,2,0,P|224:27|187:20,1,75.0000028610231,8|8,0:3|0:3,0:0:0:0:
289,178,74897,2,0,P|326:181|363:187,1,75.0000028610231,4|4,0:3|0:3,0:0:0:0:
421,21,75149,2,0,P|376:16|332:8,1,75.0000028610231,4|4,0:3|0:3,0:0:0:0:
455,186,75401,6,0,B|472:217|520:201|538:147|512:114|472:90,1,150.000005722046,4|0,0:3|0:0,0:0:0:0:
387,281,75779,1,0,0:0:0:0:
399,293,75905,2,0,P|454:285|544:269,1,115.000002193451,10|2,0:0|0:0,0:0:0:0:
337,370,76409,2,0,P|280:360|223:352,1,115.000002193451,2|2,0:0|0:0,0:0:0:0:
168,300,76914,1,10,0:0:0:0:
233,259,77166,2,0,P|259:208|207:142,2,115.000002193451,2|2|2,0:0|0:0|0:0,0:0:0:0:
168,300,77922,2,0,P|111:290|54:282,1,115.000002193451,10|2,0:0|0:0,0:0:0:0:
5,212,78300,5,2,0:0:0:0:
0,199,78426,2,0,P|7:169|33:151,1,57.5000010967255,2|0,0:0|0:0,0:0:0:0:
4,77,78678,2,0,P|33:68|62:81,1,57.5000010967255,2|2,0:0|0:0,0:0:0:0:
111,19,78930,2,0,P|133:40|136:71,1,57.5000010967255,10|0,0:0|0:0,0:0:0:0:
214,82,79182,2,0,P|206:112|181:129,1,57.5000010967255,2|2,0:0|0:0,0:0:0:0:
107,143,79435,6,0,P|163:151|220:160,1,115.000002193451,2|2,0:0|0:0,0:0:0:0:
393,87,79813,1,2,0:0:0:0:
387,74,79939,2,0,P|319:72|285:128,1,115.000002193451,10|2,0:0|0:0,0:0:0:0:
323,211,80443,2,0,P|390:212|424:156,1,115.000002193451,2|2,0:0|0:0,0:0:0:0:
472,122,80947,1,10,0:0:0:0:
419,178,81199,2,0,P|414:235|406:292,2,115.000002193451,2|2|2,0:0|0:0|0:0,0:0:0:0:
472,122,81956,2,0,P|464:64|459:7,1,115.000002193451,10|2,0:0|0:0,0:0:0:0:
336,113,82334,5,2,0:3:0:0:
326,123,82460,2,0,P|293:119|259:80,1,57.5000010967255,2|2,0:0|0:3,0:0:0:0:
301,23,82712,2,0,P|334:27|368:66,1,57.5000010967255,2|2,0:0|0:3,0:0:0:0:
205,145,82964,2,0,P|154:152|78:170,1,115.000002193451,10|2,0:0|0:0,0:0:0:0:
35,85,83342,5,2,0:0:0:0:
45,75,83468,2,0,P|144:89|287:106,1,230.000004386902,2|10,3:2|0:0,0:0:0:0:
3,156,84477,6,0,P|16:211|24:268,1,115.000002193451,2|2,0:0|0:0,0:0:0:0:
141,380,84981,2,0,P|151:314|168:250,1,115.000002193451,10|2,0:0|0:0,0:0:0:0:
259,226,85359,5,2,0:0:0:0:
253,239,85485,2,0,P|138:253|25:269,1,230.000004386902,2|10,3:2|0:0,0:0:0:0:
324,343,86241,6,0,P|333:314|346:288,1,57.5000010967255,2|2,0:0|0:0,0:0:0:0:
238,172,86493,2,0,P|250:198|259:226,1,57.5000010967255,2|2,0:0|0:0,0:0:0:0:
318,333,86745,2,0,P|327:304|340:278,1,57.5000010967255,2|2,0:0|0:0,0:0:0:0:
249,177,86997,2,0,P|261:202|269:230,1,57.5000010967255,10|0,0:0|0:0,0:0:0:0:
244,303,87250,1,2,0:0:0:0:
207,102,87502,6,0,B|259:62|326:106|292:116|385:187|445:96,1,259.999988098145,2|10,3:2|0:0,0:0:0:0:
306,0,88258,2,0,P|326:105|354:275,1,259.999988098145,2|2,0:0|0:0,0:0:0:0:
414,341,88888,1,2,0:0:0:0:
427,351,89014,2,0,P|452:343|501:332,1,64.9999970245363,10|0,0:0|0:0,0:0:0:0:
351,256,89266,1,2,0:0:0:0:
244,303,89393,2,0,P|259:307|275:311,1,32.4999985122681,2|2,0:0|0:0,0:0:0:0:
187,208,89519,6,0,B|120:212|90:273|90:273|122:254|160:270,1,179.999994506836,6|2,3:2|0:0,0:0:0:0:
127,343,89897,1,2,0:0:0:0:
182,203,90023,2,0,B|115:207|85:268|85:268|117:249|155:265,1,179.999994506836,14|8,3:2|0:3,0:0:0:0:
246,100,90401,5,8,0:3:0:0:
295,161,90527,2,0,P|281:208|271:263,1,75.0000028610231,8|8,3:0|0:3,0:0:0:0:
163,103,90779,2,0,P|154:66|143:30,1,75.0000028610231,12|12,0:3|0:3,0:0:0:0:
302,163,91031,2,0,P|288:210|278:265,1,75.0000028610231,4|4,3:3|0:3,0:0:0:0:
170,105,91283,2,0,P|161:68|150:32,1,75.0000028610231,4|4,0:3|0:3,0:0:0:0:
391,30,91535,6,0,B|422:39|397:113|335:98|295:64|307:-9,1,179.999994506836,4|2,3:2|1:2,0:0:0:0:
478,103,91914,1,2,0:0:0:0:
481,119,92040,2,0,P|487:153|495:192,1,69.9999978637696,10|0,3:2|0:0,0:0:0:0:
418,223,92292,2,0,P|412:189|404:150,1,69.9999978637696,2|2,0:0|0:0,0:0:0:0:
373,288,92544,2,0,P|366:322|359:356,1,69.9999978637696,2|0,3:2|0:0,0:0:0:0:
283,319,92796,2,0,P|289:284|296:250,1,69.9999978637696,2|2,0:0|0:0,0:0:0:0:
207,361,93048,6,0,B|130:364|158:302|82:305,1,139.999995727539,10|2,3:2|0:0,0:0:0:0:
3,254,93426,1,2,0:0:0:0:
10,239,93552,2,0,P|47:224|93:218,1,69.9999978637696,2|0,3:2|0:0,0:0:0:0:
66,131,93804,2,0,P|29:146|-17:152,1,69.9999978637696,2|2,0:0|0:0,0:0:0:0:
156,73,94056,2,0,P|189:87|223:94,1,69.9999978637696,10|0,3:2|0:0,0:0:0:0:
213,182,94308,2,0,P|180:168|146:161,1,69.9999978637696,2|2,0:0|0:0,0:0:0:0:
289,31,94561,2,0,P|220:45|156:73,1,139.999995727539,2|2,3:2|0:0,0:0:0:0:
298,152,94939,5,2,0:0:0:0:
312,163,95065,2,0,P|323:129|332:89,1,69.9999978637696,10|0,3:2|0:0,0:0:0:0:
428,8,95317,2,0,P|435:42|446:75,1,69.9999978637696,2|2,3:2|0:0,0:0:0:0:
368,226,95569,6,0,B|440:232|415:161|493:170,1,139.999995727539,2|2,3:2|1:2,0:0:0:0:
373,311,95947,1,2,0:0:0:0:
356,306,96073,2,0,P|321:297|288:293,1,69.9999978637696,10|0,3:2|0:0,0:0:0:0:
276,371,96325,2,0,P|310:375|344:384,1,69.9999978637696,2|2,0:0|0:0,0:0:0:0:
202,239,96577,2,0,P|167:244|133:253,1,69.9999978637696,2|0,3:2|0:0,0:0:0:0:
145,330,96829,2,0,P|179:321|214:317,1,69.9999978637696,2|2,0:0|0:0,0:0:0:0:
0,207,97082,6,0,B|-3:282|62:249|56:331,1,139.999995727539,10|2,3:2|0:0,0:0:0:0:
86,187,97460,1,2,0:0:0:0:
90,170,97586,2,0,P|97:133|106:91,1,69.9999978637696,2|0,3:2|0:0,0:0:0:0:
0,0,97838,2,0,P|7:34|13:68,1,69.9999978637696,2|2,0:0|0:0,0:0:0:0:
157,218,98090,6,0,P|228:194|246:121,1,139.999995727539,10|2,3:2|0:0,0:0:0:0:
316,7,98468,1,2,0:0:0:0:
309,23,98594,2,0,P|327:104|340:183,1,139.999995727539,2|2,3:2|0:0,0:0:0:0:
428,207,98972,5,2,0:0:0:0:
419,192,99098,2,0,P|425:157|432:123,1,69.9999978637696,10|0,3:2|0:0,0:0:0:0:
288,236,99351,2,0,P|295:270|301:304,1,69.9999978637696,2|2,3:2|0:0,0:0:0:0:
512,297,99603,6,0,B|443:237|346:308|419:369|314:428|256:365,1,279.999991455078,2|10,3:2|3:2,0:0:0:0:
4,237,100359,5,2,0:0:0:0:
20,241,100485,1,2,0:0:0:0:
37,245,100611,2,0,B|116:215|116:215|192:247,1,139.999995727539,2|2,3:2|0:0,0:0:0:0:
181,340,100989,1,2,0:0:0:0:
165,347,101115,2,0,P|134:332|92:319,1,69.9999978637696,10|0,3:2|0:0,0:0:0:0:
228,280,101367,2,0,P|258:265|300:252,1,69.9999978637696,2|2,0:0|0:0,0:0:0:0:
512,297,101619,6,0,B|443:237|346:308|419:369|314:428|256:365,1,279.999991455078,2|10,3:2|3:2,0:0:0:0:
231,88,102376,5,2,0:0:0:0:
234,106,102502,1,2,0:0:0:0:
237,123,102628,2,0,L|249:191,1,69.9999978637696,2|0,3:2|0:0,0:0:0:0:
344,143,102880,2,0,L|331:74,1,69.9999978637696,2|2,0:0|0:0,0:0:0:0:
297,264,103132,1,10,3:2:0:0:
460,132,103384,1,2,3:2:0:0:
234,7,103636,6,0,B|196:-52|109:-14|109:61|158:126|254:123,1,279.999991455078,2|10,3:2|3:2,0:0:0:0:
483,243,104393,1,2,0:0:0:0:
486,221,104519,1,2,0:0:0:0:
489,200,104645,2,0,B|445:169|408:208|427:218|394:246|359:226,1,139.999995727539,2|2,3:2|0:0,0:0:0:0:
247,242,105023,1,2,0:0:0:0:
240,222,105149,2,0,B|277:184|320:215|303:229|340:251|371:225,1,139.999995727539,10|2,3:2|0:0,0:0:0:0:
395,384,105527,5,2,0:0:0:0:
391,366,105653,2,0,P|378:297|365:228,1,139.999995727539,6|2,3:2|0:0,0:0:0:0:
335,72,106031,1,2,0:0:0:0:
339,90,106157,2,0,P|351:158|364:227,1,139.999995727539,14|2,3:2|0:0,0:0:0:0:
210,384,106535,5,2,0:0:0:0:
207,366,106661,2,0,L|186:246,1,69.9999978637696,2|2,3:2|0:0,0:0:0:0:
123,185,106914,2,0,L|111:253,1,69.9999978637696,2|2,0:0|0:0,0:0:0:0:
286,353,107166,2,0,L|265:233,1,69.9999978637696,10|2,3:2|0:0,0:0:0:0:
47,159,107418,2,0,L|35:227,1,69.9999978637696,2|2,3:2|0:0,0:0:0:0:
255,38,109687,5,4,3:1:0:0:
111,95,123804,6,0,B|64:68|57:27|57:27|64:68|35:113,1,179.999994506836,4|2,3:2|0:0,0:0:0:0:
2,193,124182,1,2,0:0:0:0:
113,104,124308,2,0,B|66:77|59:36|59:36|66:77|37:122,1,179.999994506836,6|2,3:2|0:0,0:0:0:0:
181,147,124687,5,2,0:0:0:0:
231,86,124813,2,0,B|271:57|301:77|291:92|335:110|369:68,1,134.999995880127,8|0,0:3|0:0,0:0:0:0:
364,85,125065,2,0,P|332:101|300:92,1,59.9999981689454,8|8,0:3|0:3,0:0:0:0:
425,0,125317,6,0,P|466:57|438:148,1,134.999995880127,4|0,0:3|0:0,0:0:0:0:
467,124,125569,2,0,P|478:91|473:59,1,59.9999981689454,4|4,0:3|0:3,0:0:0:0:
332,212,125821,6,0,B|370:180|421:204|421:204|494:248,1,179.999994506836,6|2,3:2|1:2,0:0:0:0:
229,304,126199,1,2,0:0:0:0:
169,357,126325,2,0,P|133:344|96:337,1,75.0000028610231,10|0,3:2|0:0,0:0:0:0:
259,230,126577,2,0,P|295:218|332:211,1,75.0000028610231,2|2,0:0|0:0,0:0:0:0:
72,110,126830,6,0,P|95:176|115:263,1,150.000005722046,2|2,3:2|0:0,0:0:0:0:
229,304,127208,1,2,0:0:0:0:
259,230,127334,2,0,P|269:194|282:159,1,75.0000028610231,10|0,3:2|0:0,0:0:0:0:
57,110,127586,2,0,P|70:145|80:180,1,75.0000028610231,2|2,0:0|0:0,0:0:0:0:
171,11,127838,6,0,P|267:10|304:88,1,150.000005722046,2|2,3:2|0:0,0:0:0:0:
430,140,128216,1,2,0:0:0:0:
486,87,128342,2,0,P|492:51|503:15,1,75.0000028610231,10|0,3:2|0:0,0:0:0:0:
343,111,128594,2,0,P|353:148|360:184,1,75.0000028610231,2|2,0:0|0:0,0:0:0:0:
294,359,128846,6,0,L|367:345,1,75.0000028610231,2|0,3:2|0:0,0:0:0:0:
439,324,129098,2,0,L|512:310,1,75.0000028610231,2|2,0:0|0:0,0:0:0:0:
276,275,129351,2,0,L|349:261,1,75.0000028610231,10|0,3:2|0:0,0:0:0:0:
421,240,129603,1,2,3:2:0:0:
218,328,129855,6,0,B|174:346|143:310|168:307|130:257|83:285,1,150.000005722046,6|2,3:2|1:2,0:0:0:0:
21,161,130233,1,2,0:0:0:0:
98,211,130359,2,0,P|105:247|91:281,1,75.0000028610231,10|0,3:2|0:0,0:0:0:0:
64,356,130611,2,0,P|36:380|0:385,1,75.0000028610231,2|2,0:0|0:0,0:0:0:0:
21,161,130863,6,0,P|13:209|3:323,1,150.000005722046,2|2,3:2|0:0,0:0:0:0:
178,270,131241,1,2,0:0:0:0:
188,193,131367,2,0,B|192:156|155:130|115:156|81:181|104:240,1,150.000005722046,10|2,3:2|0:0,0:0:0:0:
267,362,131745,5,2,0:0:0:0:
319,305,131872,2,0,B|433:284|433:284|401:291|399:343,1,150.000005722046,2|2,3:2|0:0,0:0:0:0:
423,107,132250,1,2,0:0:0:0:
485,154,132376,2,0,P|490:191|500:227,1,75.0000028610231,10|0,3:2|0:0,0:0:0:0:
353,12,132628,6,0,P|347:49|337:85,1,75.0000028610231,2|2,0:0|0:3,0:0:0:0:
297,236,132880,2,0,P|291:198|281:162,1,75.0000028610231,2|2,3:2|0:3,0:0:0:0:
270,5,133132,2,0,P|264:42|254:78,1,75.0000028610231,2|2,0:0|0:3,0:0:0:0:
91,157,133384,2,0,P|51:158|21:134,1,75.0000028610231,10|0,3:2|0:0,0:0:0:0:
79,69,133636,1,2,3:2:0:0:
148,276,133888,6,0,B|139:196|203:155|203:155|186:189|196:215,1,179.999994506836,6|2,3:2|1:2,0:0:0:0:
108,364,134266,1,2,0:0:0:0:
52,308,134393,2,0,L|-33:287,1,75.0000028610231,10|0,3:2|0:0,0:0:0:0:
192,192,134645,5,2,0:0:0:0:
255,233,134771,1,2,0:0:0:0:
270,307,134897,2,0,P|263:352|249:410,1,75.0000028610231,2|0,3:2|0:0,0:0:0:0:
333,226,135149,2,0,P|325:189|319:152,1,75.0000028610231,2|2,0:0|0:0,0:0:0:0:
363,311,135401,2,0,P|356:356|342:414,1,75.0000028610231,10|0,3:2|0:0,0:0:0:0:
415,188,135653,2,0,P|407:151|401:114,1,75.0000028610231,2|2,0:0|0:0,0:0:0:0:
491,384,135905,6,0,P|532:299|454:231,1,179.999994506836,6|2,3:2|0:0,0:0:0:0:
346,63,136283,1,2,0:0:0:0:
400,114,136409,2,0,P|437:105|474:98,1,75.0000028610231,10|0,3:2|0:0,0:0:0:0:
282,14,136661,6,0,P|245:7|208:0,1,75.0000028610231,2|2,0:0|0:0,0:0:0:0:
88,120,136914,2,0,P|57:140|21:134,1,75.0000028610231,2|0,3:2|0:0,0:0:0:0:
2,36,137166,2,0,P|32:16|68:22,1,75.0000028610231,2|2,0:0|0:0,0:0:0:0:
224,201,137418,2,0,P|187:207|157:186,1,75.0000028610231,10|0,3:2|0:0,0:0:0:0:
208,114,137670,1,2,3:2:0:0:
5,348,137922,6,0,P|42:356|79:364,1,75.0000028610231,6|0,3:2|0:0,0:0:0:0:
84,225,138174,2,0,P|47:233|10:241,1,75.0000028610231,2|2,0:0|0:0,0:0:0:0:
126,295,138426,1,10,3:2:0:0:
473,266,138678,6,0,P|436:274|399:282,1,75.0000028610231,6|2,0:0|0:0,0:0:0:0:
404,143,138930,2,0,P|441:151|478:159,1,75.0000028610231,2|0,3:2|0:0,0:0:0:0:
359,212,139182,1,2,0:0:0:0:
192,16,139435,6,0,P|200:52|208:89,1,75.0000028610231,14|0,3:2|0:0,0:0:0:0:
345,81,139687,2,0,P|351:44|360:7,1,75.0000028610231,2|2,0:0|0:0,0:0:0:0:
279,128,139939,1,4,3:1:0:0:
344,341,140191,5,2,1:2:0:0:
279,128,140443,1,10,3:2:0:0:
499,171,140695,1,2,0:0:0:0:
333,245,140947,1,2,3:2:0:0:
409,92,141199,1,2,0:0:0:0:
477,251,141451,1,10,3:2:0:0:
260,264,141703,2,0,L|340:242,1,75.0000028610231,2|2,3:2|0:0,0:0:0:0:
189,104,141956,6,0,B|169:59|109:104|111:145|144:193|188:198,1,179.999994506836,4|2,3:2|1:2,0:0:0:0:
0,136,142334,1,2,0:0:0:0:
45,72,142460,2,0,B|92:44|129:82|111:88|153:131|203:96,1,160,10|2,3:2|0:0,0:0:0:0:
329,0,142838,1,2,0:0:0:0:
259,32,142964,2,0,P|270:105|281:196,1,160,2|2,3:2|0:0,0:0:0:0:
377,67,143342,1,2,0:0:0:0:
447,99,143468,2,0,P|495:159|477:234,1,160,10|2,3:2|0:0,0:0:0:0:
386,384,143846,5,2,0:0:0:0:
346,315,143972,2,0,B|343:249|388:214|388:214|377:251|409:294,1,160,2|2,3:2|0:0,0:0:0:0:
237,384,144351,1,2,0:0:0:0:
193,321,144477,2,0,P|148:279|26:305,1,160,10|2,3:2|0:0,0:0:0:0:
4,344,144855,1,2,0:0:0:0:
54,281,144981,2,0,B|45:249|45:249|47:235|47:235|36:192,1,80,2|2,3:2|0:0,0:0:0:0:
5,49,145233,2,0,B|13:81|13:81|11:95|11:95|20:127,1,80,2|2,0:0|0:0,0:0:0:0:
188,20,145485,2,0,P|224:10|265:0,1,80,10|0,3:2|0:0,0:0:0:0:
175,118,145737,2,0,P|139:108|98:98,1,80,2|2,3:2|0:0,0:0:0:0:
321,175,145989,5,2,3:2:0:0:
189,354,146241,5,2,1:2:0:0:
135,294,146367,1,2,0:0:0:0:
155,216,146493,1,10,3:2:0:0:
321,175,146745,5,2,0:0:0:0:
296,251,146871,1,2,0:0:0:0:
218,273,146997,1,2,3:2:0:0:
100,151,147250,5,2,0:0:0:0:
179,135,147376,1,2,0:0:0:0:
235,193,147502,2,0,B|261:244|230:309|230:309|231:289|213:267,1,160,10|2,3:2|0:0,0:0:0:0:
353,109,147880,5,2,0:0:0:0:
411,161,148006,2,0,P|422:195|400:239,1,80,2|0,3:2|0:0,0:0:0:0:
416,311,148258,2,0,P|391:337|342:340,1,80,2|2,0:0|0:0,0:0:0:0:
218,273,148510,6,0,P|241:245|290:242,1,80,10|0,3:2|0:0,0:0:0:0:
344,193,148762,2,0,P|378:199|406:240,1,80,2|2,0:0|0:3,0:0:0:0:
410,383,149014,6,0,P|374:375|346:334,1,80,2|2,3:2|0:3,0:0:0:0:
278,312,149266,2,0,P|266:277|288:233,1,80,2|2,0:0|0:3,0:0:0:0:
486,261,149519,5,10,3:2:0:0:
348,342,149771,1,2,3:2:0:0:
124,190,150023,6,0,P|151:265|174:341,1,160,2|2,3:2|1:2,0:0:0:0:
17,187,150401,1,2,0:0:0:0:
0,110,150527,2,0,B|30:27|134:33|134:33|209:135|315:70,1,359.999989013672,10|2,3:2|3:2,0:0:0:0:
301,77,151283,1,2,0:0:0:0:
482,4,151535,2,0,P|442:4|404:19,1,80,10|0,3:2|0:0,0:0:0:0:
417,101,151787,2,0,P|454:87|494:84,1,80,2|2,0:0|0:0,0:0:0:0:
301,77,152040,6,0,P|229:123|237:208,1,179.999994506836,2|2,3:2|0:0,0:0:0:0:
253,289,152418,1,2,0:0:0:0:
203,348,152544,2,0,B|171:366|130:324|168:327|91:244|37:336,2,160,10|2|2,3:2|0:0|3:2,0:0:0:0:
253,289,153174,1,2,0:0:0:0:
332,306,153300,2,0,P|341:344|347:400,1,80,2|2,0:0|0:0,0:0:0:0:
416,259,153552,2,0,P|421:219|430:180,1,80,10|0,3:2|0:0,0:0:0:0:
238,210,153804,2,0,P|247:248|252:288,1,80,2|2,3:2|0:0,0:0:0:0:
356,109,154056,6,0,B|315:73|308:17|308:17|311:75|264:115,1,160,2|2,3:2|1:2,0:0:0:0:
187,148,154435,1,2,0:0:0:0:
121,102,154561,2,0,P|87:90|40:87,1,80,10|0,3:2|0:0,0:0:0:0:
238,210,154813,2,0,P|272:198|319:195,1,80,2|2,0:0|0:0,0:0:0:0:
194,301,155065,2,0,P|158:281|148:229,1,80,2|0,3:2|0:0,0:0:0:0:
356,109,155317,2,0,P|391:128|401:180,1,80,2|2,0:0|0:0,0:0:0:0:
289,352,155569,2,0,P|301:272|315:194,1,160,10|2,3:2|0:0,0:0:0:0:
512,0,155947,5,2,0:0:0:0:
491,73,156073,2,0,B|450:102|409:57|427:46|370:-2|322:41,1,179.999994506836,6|2,3:2|0:0,0:0:0:0:
512,0,156451,1,2,0:0:0:0:
487,81,156577,2,0,B|446:110|405:65|423:54|366:6|318:49,1,179.999994506836,14|8,3:2|0:3,0:0:0:0:
326,262,156956,5,8,0:3:0:0:
370,197,157082,2,0,P|361:148|354:92,1,89.9999972534181,8|8,3:3|0:3,0:0:0:0:
193,13,157334,2,0,P|186:57|178:101,1,89.9999972534181,4|4,0:3|0:3,0:0:0:0:
381,203,157586,2,0,P|372:154|365:98,1,89.9999972534181,4|4,3:3|0:3,0:0:0:0:
183,6,157838,2,0,P|176:50|168:94,1,89.9999972534181,4|4,3:3|0:3,0:0:0:0:
61,250,158090,6,0,B|-6:223|-10:159|23:109|77:105|93:179,2,200,4|2|10,3:2|1:2|3:2,0:0:0:0:
184,305,158846,6,0,L|166:186,1,100,2|2,0:2|0:0,0:0:0:0:
274,65,159098,2,0,B|341:92|345:156|319:199|258:210|242:136,2,200,2|2|10,3:2|0:0|3:2,0:0:0:0:
61,250,159855,5,2,0:2:0:0:
45,262,159981,1,2,0:0:0:0:
30,275,160107,2,0,L|266:231,1,200,2|2,3:2|0:0,0:0:0:0:
243,150,160485,1,2,0:0:0:0:
255,166,160611,2,0,L|451:202,1,200,10|2,3:2|0:2,0:0:0:0:
488,109,160989,5,2,0:0:0:0:
470,114,161115,2,0,P|441:162|482:227,1,100,2|2,3:2|0:0,0:0:0:0:
512,274,161367,2,0,P|484:224|408:227,1,100,2|2,0:0|0:0,0:0:0:0:
352,230,161619,2,0,P|408:231|443:163,1,100,10|0,3:2|0:0,0:0:0:0:
315,31,161872,1,2,3:2:0:0:
193,291,162124,6,0,B|151:309|151:309|75:232|75:232|33:249,1,200,2|2,3:2|1:2,0:0:0:0:
29,116,162502,1,2,0:0:0:0:
26,136,162628,2,0,L|0:334,1,200,10|2,3:2|0:2,0:0:0:0:
109,84,163006,5,2,0:0:0:0:
115,100,163132,2,0,P|152:125|214:102,1,100,2|0,3:2|0:0,0:0:0:0:
218,18,163384,2,0,P|180:-7|118:15,1,100,2|2,0:0|0:0,0:0:0:0:
330,201,163636,2,0,B|356:160|323:128|310:137|264:93|298:39|298:39|295:73|320:92,1,200,10|2,3:2|0:2,0:0:0:0:
228,296,164014,5,2,0:0:0:0:
240,283,164140,2,0,P|313:273|441:336,2,200,2|2|10,3:2|0:0|3:2,0:0:0:0:
54,353,164897,5,2,0:2:0:0:
33,344,165023,1,2,0:3:0:0:
14,336,165149,2,0,B|56:324|56:324|67:328|67:328|122:314,1,100,2|2,3:2|0:3,0:0:0:0:
177,199,165401,2,0,B|135:211|135:211|124:207|124:207|69:221,1,100,2|2,0:2|0:3,0:0:0:0:
258,381,165653,2,0,P|273:268|294:157,1,200,10|2,3:2|3:2,0:0:0:0:
455,97,166031,5,2,0:0:0:0:
471,92,166157,2,0,B|500:77|518:28|458:-12|377:10|372:109,1,200,6|2,3:2|1:2,0:0:0:0:
235,68,166535,1,2,0:0:0:0:
230,49,166661,2,0,B|283:47|315:2|315:2|334:65|410:85,1,200,10|2,3:2|0:2,0:0:0:0:
396,190,167040,5,2,0:0:0:0:
385,207,167166,2,0,P|330:189|255:181,1,100,2|0,3:2|0:0,0:0:0:0:
410,312,167418,2,0,P|464:294|540:286,1,100,2|2,0:0|0:0,0:0:0:0:
307,287,167670,2,0,P|228:268|100:261,1,200,10|2,3:2|0:2,0:0:0:0:
0,373,168048,5,2,0:0:0:0:
4,356,168174,2,0,B|34:299|87:342|84:349|148:394|226:385|260:275|251:210|123:163|79:242|120:293,1,400,2|10,3:2|3:2,0:0:0:0:
6,146,168930,6,0,P|19:194|25:243,1,100,2|2,0:2|0:0,0:0:0:0:
99,159,169182,2,0,P|85:110|79:61,1,100,2|2,3:2|0:0,0:0:0:0:
267,120,169435,2,0,P|216:130|172:90,1,100,2|2,0:0|0:0,0:0:0:0:
193,24,169687,2,0,P|243:13|287:53,1,100,10|0,3:2|0:0,0:0:0:0:
391,167,169939,1,2,3:2:0:0:
391,167,170191,6,0,B|321:173|308:249|308:249|340:304|465:328|421:209|525:251,1,359.999989013672,6|10,3:2|3:2,0:0:0:0:
128,251,170947,6,0,B|198:257|211:333|211:333|179:388|54:412|98:293|-6:335,1,359.999989013672,6|2,0:2|0:0,0:0:0:0:
205,18,171703,6,0,L|234:213,1,179.999994506836,14|2,3:2|0:0,0:0:0:0:
231,196,172208,5,2,3:2:0:0:
348,318,174224,6,0,B|384:256|470:269|467:313|540:263|575:166|475:84|412:136|388:163|388:163|390:122|374:56|271:55|222:100|192:179|286:264|295:202|355:286|300:354,1,816.000004980469,4|0,0:1|0:0,0:0:0:0:
