osu file format v14

[General]
AudioFilename: audio.mp3
AudioLeadIn: 0
PreviewTime: 148100
Countdown: 0
SampleSet: Soft
StackLeniency: 0.7
Mode: 0
LetterboxInBreaks: 0
WidescreenStoryboard: 1

[Editor]
DistanceSpacing: 1.9
BeatDivisor: 4
GridSize: 32
TimelineZoom: 1.7

[Metadata]
Title:Golden Liar
TitleUnicode:Golden Liar
Artist:BRADIO
ArtistUnicode:BRADIO
Creator:mrforse
Version:nemi's Insane
Source:
Tags:japanese jrock j-rock funk disco rock male vocals vocalist 1st mini album DIAMOND POPS Parad0xa Paradoxa HACPAHO nemidnight
BeatmapID:3906272
BeatmapSetID:1744478

[Difficulty]
HPDrainRate:4.8
CircleSize:4.5
OverallDifficulty:8
ApproachRate:9
SliderMultiplier:1.55
SliderTickRate:1

[Events]
//Background and Video events
0,0,"93030502_p0.jpg",0,0
//Break Periods
2,117015,127186
//Storyboard Layer 0 (Background)
//Storyboard Layer 1 (Fail)
//Storyboard Layer 2 (Pass)
//Storyboard Layer 3 (Foreground)
//Storyboard Layer 4 (Overlay)
//Storyboard Sound Samples

[TimingPoints]
-442,342.857142857143,4,2,1,40,1,0
929,-106.382978723404,4,2,1,40,0,0
3586,-106.382978723404,4,2,1,5,0,0
3672,-106.382978723404,4,2,1,40,0,0
9072,-106.382978723404,4,2,1,5,0,0
9158,-106.382978723404,4,2,1,40,0,0
11900,-101.010101010101,4,2,1,50,0,0
12157,-101.010101010101,4,2,1,5,0,0
12243,-101.010101010101,4,2,1,50,0,0
13529,-101.010101010101,4,2,1,5,0,0
13615,-101.010101010101,4,2,1,50,0,0
15415,-101.010101010101,4,2,1,5,0,0
15500,-101.010101010101,4,2,1,50,0,0
19100,-101.010101010101,4,2,1,50,0,0
22872,-97.0873786407767,4,2,1,60,0,0
23129,-97.0873786407767,4,2,1,5,0,0
23215,-97.0873786407767,4,2,1,60,0,0
26815,-97.0873786407767,4,2,1,70,0,0
27500,-97.0873786407767,4,2,1,90,0,0
27757,-97.0873786407767,4,2,1,5,0,0
27843,-97.0873786407767,4,2,1,90,0,0
28358,-97.0873786407767,4,2,1,70,0,0
28615,-97.0873786407767,4,2,1,5,0,0
28700,-97.0873786407767,4,2,1,70,0,0
32472,-97.0873786407767,4,2,1,90,0,0
33672,-97.0873786407767,4,2,1,90,0,1
33843,-90.9090909090909,4,2,1,90,0,1
34100,-90.9090909090909,4,2,1,5,0,1
34186,-90.9090909090909,4,2,1,90,0,1
38043,-90.9090909090909,4,2,1,5,0,1
38129,-90.9090909090909,4,2,1,90,0,1
40786,-90.9090909090909,4,2,1,5,0,1
40872,-90.9090909090909,4,2,1,90,0,1
43529,-90.9090909090909,4,2,1,5,0,1
43615,-90.9090909090909,4,2,1,90,0,1
45072,-90.9090909090909,4,2,1,5,0,1
45158,-90.9090909090909,4,2,1,90,0,1
46957,-90.9090909090909,4,2,1,5,0,1
47043,-90.9090909090909,4,2,1,90,0,1
49015,-90.9090909090909,4,2,1,5,0,1
49100,-90.9090909090909,4,2,1,90,0,1
52700,-90.9090909090909,4,2,1,40,0,1
53043,-106.382978723404,4,2,1,50,0,0
55700,-106.382978723404,4,2,1,5,0,0
55786,-106.382978723404,4,2,1,50,0,0
61186,-106.382978723404,4,2,1,5,0,0
61272,-106.382978723404,4,2,1,50,0,0
64015,-101.010101010101,4,2,1,60,0,0
64272,-101.010101010101,4,2,1,5,0,0
64358,-101.010101010101,4,2,1,60,0,0
66157,-101.010101010101,4,2,1,5,0,0
66243,-101.010101010101,4,2,1,60,0,0
66672,-101.010101010101,4,2,1,5,0,0
66758,-101.010101010101,4,2,1,60,0,0
72929,342.857142857143,4,2,1,60,1,0
72929,-101.010101010101,4,2,1,60,0,0
75672,-97.0873786407767,4,2,1,70,0,0
75929,-97.0873786407767,4,2,1,5,0,0
76015,-97.0873786407767,4,2,1,70,0,0
81415,-97.0873786407767,4,2,1,5,0,0
81500,-97.0873786407767,4,2,1,70,0,0
85615,-97.0873786407767,4,2,1,40,0,0
85958,-97.0873786407767,4,2,1,70,0,0
86643,-90.9090909090909,4,2,1,90,0,1
86900,-90.9090909090909,4,2,1,5,0,1
86986,-90.9090909090909,4,2,1,90,0,1
90843,-90.9090909090909,4,2,1,5,0,1
90929,-90.9090909090909,4,2,1,90,0,1
93586,-90.9090909090909,4,2,1,5,0,1
93672,-90.9090909090909,4,2,1,90,0,1
96329,-90.9090909090909,4,2,1,5,0,1
96415,-90.9090909090909,4,2,1,90,0,1
97872,-90.9090909090909,4,2,1,5,0,1
97958,-90.9090909090909,4,2,1,90,0,1
99757,-90.9090909090909,4,2,1,5,0,1
99843,-90.9090909090909,4,2,1,90,0,1
101815,-90.9090909090909,4,2,1,5,0,1
101900,-90.9090909090909,4,2,1,90,0,1
104557,-90.9090909090909,4,2,1,5,0,1
104643,-90.9090909090909,4,2,1,90,0,1
105757,-90.9090909090909,4,2,1,5,0,1
105843,-95.2380952380952,4,2,1,60,0,0
111243,-95.2380952380952,4,2,1,5,0,0
111329,-95.2380952380952,4,2,1,60,0,0
115272,-161.290322580645,4,2,1,60,0,0
116472,-161.290322580645,4,2,1,50,0,0
127272,-161.290322580645,4,2,1,60,0,0
127786,-97.0873786407767,4,2,1,60,0,0
128043,-97.0873786407767,4,2,1,5,0,0
128129,-97.0873786407767,4,2,1,60,0,0
130786,-97.0873786407767,4,2,1,5,0,0
130872,-97.0873786407767,4,2,1,60,0,0
138758,-93.4579439252336,4,2,1,70,0,0
141500,-93.4579439252336,4,2,1,80,0,0
144243,-93.4579439252336,4,2,1,90,0,0
149729,-87.719298245614,4,2,1,90,0,1
149986,-87.719298245614,4,2,1,5,0,1
150072,-87.719298245614,4,2,1,90,0,1
153929,-87.719298245614,4,2,1,5,0,1
154015,-87.719298245614,4,2,1,90,0,1
156672,-87.719298245614,4,2,1,5,0,1
156758,-87.719298245614,4,2,1,90,0,1
159415,-87.719298245614,4,2,1,5,0,1
159500,-87.719298245614,4,2,1,90,0,1
160957,-87.719298245614,4,2,1,5,0,1
161043,-87.719298245614,4,2,1,90,0,1
162843,-87.719298245614,4,2,1,5,0,1
162929,-87.719298245614,4,2,1,90,0,1
164900,-87.719298245614,4,2,1,5,0,1
164986,-87.719298245614,4,2,1,90,0,1
166443,-87.719298245614,4,2,1,5,0,1
166529,-87.719298245614,4,2,1,90,0,1
167643,-87.719298245614,4,2,1,5,0,1
167729,-87.719298245614,4,2,1,90,0,1
168929,-90.9090909090909,4,2,1,90,0,0
173129,-90.9090909090909,4,2,1,5,0,0
173215,-90.9090909090909,4,2,1,90,0,0
176386,-90.9090909090909,4,2,1,5,0,0
176472,-90.9090909090909,4,2,1,90,0,0
179215,-90.9090909090909,4,2,1,40,0,0
180243,-90.9090909090909,4,2,1,40,0,0
180586,342.857142857143,4,2,1,60,1,0
180586,-95.2380952380952,4,2,1,60,0,0
184786,-95.2380952380952,4,2,1,5,0,0
184872,-95.2380952380952,4,2,1,60,0,0
191558,-95.2380952380952,4,2,1,90,0,0

[Colours]
Combo1 : 253,132,183
Combo2 : 243,131,63

[HitObjects]
19,365,929,6,1,B|108:347|59:307|176:293,1,145.7,6|8,1:2|2:0,0:0:0:0:
4,206,1443,1,8,2:0:0:0:
79,149,1615,2,1,P|86:185|98:225,1,72.8500000000002,0|0,3:0|1:0,0:0:0:0:
172,171,1958,1,8,2:0:0:0:
21,66,2129,6,1,P|55:108|156:91,1,145.7,2|2,1:0|1:0,0:0:0:0:
270,73,2643,2,1,P|260:28|253:-13,1,72.8500000000002,8|8,2:0|2:0,0:0:0:0:
321,159,2986,1,0,3:0:0:0:
215,137,3158,1,0,1:0:0:0:
367,87,3329,2,1,P|423:99|505:113,1,109.275,8|0,2:0|0:0,0:0:0:0:
474,108,3672,6,1,P|415:132|428:221,1,145.7,2|8,1:0|2:0,0:0:0:0:
394,359,4186,1,8,2:0:0:0:
324,326,4358,2,1,P|279:338|241:352,1,72.8500000000002,0|0,3:0|1:0,0:0:0:0:
308,245,4700,1,8,2:0:0:0:
249,130,4872,6,1,P|227:165|232:208,1,72.8500000000002,2|0,1:0|3:0,0:0:0:0:
397,226,5215,2,1,P|418:194|417:161,1,72.8500000000002,2|8,1:0|2:0,0:0:0:0:
352,86,5558,1,8,2:0:0:0:
224,21,5729,5,0,3:0:0:0:
266,98,5900,1,0,1:0:0:0:
174,140,6072,2,1,P|129:128|97:114,1,72.8500000000002,8|0,2:0|0:0,0:0:0:0:
0,163,6415,6,1,B|88:176|35:216|154:236,1,145.7,2|8,1:0|2:0,0:0:0:0:
274,304,6929,1,8,2:0:0:0:
203,354,7100,2,1,P|166:362|128:376,1,72.8500000000002,0|0,3:0|1:0,0:0:0:0:
203,271,7443,1,8,2:0:0:0:
306,380,7615,6,1,P|364:365|379:278,1,145.7,2|2,1:0|1:0,0:0:0:0:
443,188,8129,2,1,P|481:198|527:217,1,72.8500000000002,8|8,2:0|2:0,0:0:0:0:
352,110,8472,1,0,3:0:0:0:
277,140,8643,1,0,1:0:0:0:
401,16,8815,2,1,P|443:40|442:115,1,109.275,8|0,2:0|0:0,0:0:0:0:
452,96,9158,6,1,P|389:85|302:61,1,145.7,2|8,1:0|2:0,0:0:0:0:
126,59,9672,1,8,2:0:0:0:
195,0,9843,2,1,P|213:27|211:74,1,72.8500000000002,0|0,3:0|1:0,0:0:0:0:
127,189,10186,1,8,2:0:0:0:
72,135,10358,6,1,P|35:127|0:107,1,72.8500000000002,2|0,1:0|3:0,0:0:0:0:
97,264,10700,2,1,P|60:272|22:292,1,72.8500000000002,2|8,1:0|2:0,0:0:0:0:
30,372,11043,5,8,2:0:0:0:
168,304,11215,1,0,3:0:0:0:
97,264,11386,1,0,1:0:0:0:
203,370,11558,2,1,P|240:361|280:350,1,72.8500000000002,10|2,2:0|2:0,0:0:0:0:
368,197,11900,6,1,P|413:222|414:288,1,115.0875,4|0,1:2|0:0,0:0:0:0:
417,280,12243,1,8,2:0:0:0:
292,176,12415,1,8,2:0:0:0:
350,115,12586,2,1,P|388:110|445:84,1,76.725,0|0,3:0|1:0,0:0:0:0:
207,108,12929,5,8,2:0:0:0:
267,45,13100,1,2,1:0:0:0:
180,19,13272,2,1,P|129:32|41:59,1,115.0875,0|0,3:0|0:0,0:0:0:0:
69,49,13615,1,8,2:0:0:0:
0,186,13786,2,1,B|94:200|42:229|153:255,1,153.45,8|0,2:0|1:0,0:0:0:0:
419,137,14472,5,0,0:0:0:0:
333,119,14643,2,1,P|346:171|357:209,1,76.725,2|2,1:0|2:0,0:0:0:0:
443,308,14986,1,8,2:0:0:0:
512,264,15158,2,1,P|476:227|396:239,1,115.0875,8|0,2:0|0:0,0:0:0:0:
415,226,15500,5,0,1:0:0:0:
299,286,15672,1,8,2:0:0:0:
358,352,15843,1,0,1:0:0:0:
212,303,16015,5,2,3:0:0:0:
337,213,16186,1,0,1:0:0:0:
299,286,16358,1,8,2:0:0:0:
234,164,16529,1,8,2:0:0:0:
335,108,16700,6,1,P|376:117|426:139,1,76.725,2|0,3:0|1:0,0:0:0:0:
233,28,17043,2,1,P|197:41|159:49,1,76.725,10|0,2:0|0:0,0:0:0:0:
393,0,17386,6,1,P|332:32|352:126,1,153.45,2|8,1:0|2:0,0:0:0:0:
509,162,17900,1,8,2:0:0:0:
417,188,18072,2,1,P|426:148|438:109,1,76.725,0|0,3:0|1:0,0:0:0:0:
337,221,18415,1,8,2:0:0:0:
486,304,18586,6,1,B|396:319|438:358|338:370,1,153.449999531708,2|2,1:0|1:0,0:0:0:0:
281,295,19100,1,8,2:0:0:0:
156,378,19272,2,1,P|135:325|197:264,1,153.45,8|0,2:0|1:0,0:0:0:0:
335,155,19786,2,1,P|346:192|338:234,1,76.725,8|0,2:0|0:0,0:0:0:0:
211,136,20129,5,2,1:0:0:0:
269,89,20300,1,2,2:0:0:0:
130,166,20472,1,8,2:0:0:0:
74,110,20643,2,1,P|87:73|96:26,1,76.725,8|0,2:0|3:0,0:0:0:0:
178,107,20986,1,0,1:0:0:0:
288,30,21158,2,1,P|294:69|310:114,1,76.725,8|2,2:0|1:0,0:0:0:0:
384,164,21500,5,0,3:0:0:0:
270,270,21672,1,2,1:0:0:0:
356,335,21843,2,1,P|401:343|448:360,1,76.725,8|8,2:0|2:0,0:0:0:0:
361,247,22186,1,0,3:0:0:0:
223,367,22358,1,0,1:0:0:0:
141,300,22529,2,1,P|136:258|156:223,1,76.725,10|0,2:0|0:0,0:0:0:0:
292,105,22872,6,1,B|362:124|316:146|418:179,1,119.7375,6|0,2:0|0:0,0:0:0:0:
390,169,23215,1,8,2:0:0:0:
512,67,23386,1,8,2:0:0:0:
446,0,23558,2,1,P|438:39|425:84,1,79.825,2|0,3:0|1:0,0:0:0:0:
300,120,23900,1,8,2:0:0:0:
378,270,24072,6,1,P|398:225|507:217,2,159.65,0|0|8,1:0|1:0|2:0,0:0:0:0:
235,368,24929,1,0,3:0:0:0:
174,317,25100,1,0,1:0:0:0:
335,360,25272,2,1,P|372:353|416:337,1,79.825,10|0,2:0|0:0,0:0:0:0:
245,237,25615,6,1,P|191:252|64:296,1,159.65,2|8,1:0|2:0,0:0:0:0:
65,369,26129,1,8,2:0:0:0:
171,240,26300,1,0,3:0:0:0:
49,180,26472,1,0,1:0:0:0:
145,115,26643,1,8,2:0:0:0:
75,80,26815,6,1,P|38:90|-5:109,1,79.825,2|0,1:0|3:0,0:0:0:0:
235,26,27158,2,1,P|198:16|155:-3,1,79.825,2|8,1:0|2:0,0:0:0:0:
321,117,27500,2,1,P|268:139|208:179,1,119.7375,10|0,2:0|0:0,0:0:0:0:
215,172,27843,1,2,1:0:0:0:
413,56,28015,2,1,P|376:46|333:27,1,79.825,8|2,2:0|0:0,0:0:0:0:
449,205,28358,6,1,P|464:144|498:60,1,119.7375,2|0,1:0|0:0,0:0:0:0:
483,90,28700,1,8,2:0:0:0:
357,191,28872,1,8,2:0:0:0:
422,278,29043,2,1,P|468:278|501:258,1,79.825,0|0,3:0|1:0,0:0:0:0:
354,338,29386,1,8,2:0:0:0:
259,210,29558,6,1,B|170:236|218:263|116:295,2,159.65,2|2|8,1:0|1:0|2:0,0:0:0:0:
412,202,30415,1,0,3:0:0:0:
355,142,30586,1,0,1:0:0:0:
406,275,30758,1,8,2:0:0:0:
478,238,30929,1,0,2:0:0:0:
352,345,31100,6,1,P|309:336|272:320,1,79.825,2|0,1:0|2:0,0:0:0:0:
125,364,31443,1,8,2:0:0:0:
201,271,31615,1,8,2:0:0:0:
74,192,31786,2,1,P|57:234|65:273,1,79.825,0|0,3:0|1:0,0:0:0:0:
252,183,32129,2,1,P|211:173|174:153,1,79.825,8|0,2:0|1:0,0:0:0:0:
33,108,32472,5,14,2:2:0:0:
209,30,32643,1,0,1:0:0:0:
134,0,32815,5,14,2:2:0:0:
284,115,32986,1,0,1:0:0:0:
218,166,33158,5,8,2:0:0:0:
349,35,33329,1,8,2:0:0:0:
349,35,33415,1,8,2:0:0:0:
349,35,33500,1,8,2:0:0:0:
447,203,33672,6,1,P|456:169|462:148,1,39.9125,10|10,2:0|2:0,0:0:0:0:
502,103,33843,6,1,P|459:142|367:138,1,127.875,6|0,1:2|0:0,0:0:0:0:
333,109,34186,1,8,2:0:0:0:
213,233,34358,2,1,P|260:245|295:264,1,85.25,2|0,2:0|1:0,0:0:0:0:
401,248,34700,1,0,1:0:0:0:
245,138,34872,1,8,2:0:0:0:
401,248,35043,6,1,B|303:268|356:307|244:333,2,170.5,2|2|2,1:0|1:0|2:0,0:0:0:0:
449,179,35900,1,0,1:0:0:0:
294,268,36072,1,0,1:0:0:0:
400,336,36243,1,8,2:0:0:0:
309,177,36415,6,1,P|267:190|227:208,1,85.25,2|0,2:0|1:0,0:0:0:0:
138,345,36758,1,0,2:0:0:0:
79,234,36929,2,1,P|117:251|158:263,1,85.25,8|0,2:0|2:0,0:0:0:0:
150,119,37272,5,2,1:0:0:0:
0,254,37443,1,0,1:0:0:0:
19,175,37615,1,8,2:0:0:0:
145,327,37786,6,1,P|134:270|71:233,1,127.875,2|0,1:0|0:0,0:0:0:0:
14,265,38129,1,0,1:0:0:0:
171,106,38300,2,1,P|130:118|86:137,1,85.25,8|0,2:0|2:0,0:0:0:0:
243,170,38643,1,0,1:0:0:0:
301,15,38815,2,1,P|323:43|326:93,1,85.25,0|8,1:0|2:0,0:0:0:0:
191,249,39158,5,2,2:0:0:0:
350,175,39329,1,0,1:0:0:0:
239,85,39500,1,2,2:0:0:0:
429,138,39672,1,8,2:0:0:0:
294,295,39843,2,1,P|278:253|284:213,1,85.25,2|0,2:0|1:0,0:0:0:0:
374,236,40186,1,0,1:0:0:0:
210,301,40358,1,8,2:0:0:0:
356,356,40529,6,1,P|419:339|468:381,1,127.875,2|0,1:0|0:0,0:0:0:0:
512,308,40872,2,1,P|501:265|495:223,1,85.25,2|8,1:0|2:0,0:0:0:0:
348,160,41215,2,1,P|359:117|365:75,1,85.25,2|0,2:0|1:0,0:0:0:0:
510,16,41558,1,0,1:0:0:0:
444,114,41729,1,8,2:0:0:0:
292,16,41900,5,2,2:0:0:0:
292,16,41986,1,2,2:0:0:0:
292,16,42072,2,1,P|245:25|203:40,1,85.25,0|0,1:0|2:0,0:0:0:0:
54,131,42415,2,1,P|94:144|136:152,1,85.25,8|0,2:0|2:0,0:0:0:0:
245,121,42758,5,0,1:0:0:0:
89,1,42929,1,0,1:0:0:0:
245,121,43100,1,8,2:0:0:0:
152,164,43272,6,1,B|73:184|118:203|19:235,1,127.875,2|0,1:0|0:0,0:0:0:0:
42,226,43615,1,0,1:0:0:0:
167,358,43786,2,1,P|211:349|248:333,1,85.25,8|0,2:0|2:0,0:0:0:0:
359,182,44129,5,0,1:0:0:0:
413,304,44300,1,0,1:0:0:0:
295,259,44472,1,8,2:0:0:0:
485,191,44643,5,2,2:0:0:0:
485,191,44729,1,2,2:0:0:0:
485,191,44815,2,1,P|429:207|418:295,1,127.875,4|0,1:2|0:0,0:0:0:0:
429,346,45158,2,1,P|474:339|518:323,1,85.25,8|0,2:0|2:0,0:0:0:0:
307,238,45500,2,1,P|262:245|218:261,1,85.25,0|0,1:0|1:0,0:0:0:0:
321,150,45843,5,8,2:0:0:0:
181,65,46015,2,1,P|158:104|160:146,1,85.25,2|0,1:0|2:0,0:0:0:0:
329,75,46358,1,2,1:0:0:0:
231,0,46529,1,8,2:0:0:0:
166,154,46700,2,1,P|108:168|17:203,1,127.875,2|0,2:0|0:0,0:0:0:0:
0,134,47043,5,0,1:0:0:0:
148,252,47215,1,8,2:0:0:0:
119,186,47386,1,0,2:0:0:0:
1,315,47558,6,1,B|100:318|44:365|178:383,1,170.5,2|8,1:0|2:0,0:0:0:0:
310,179,48243,5,2,1:0:0:0:
412,293,48415,1,0,1:0:0:0:
303,356,48586,1,8,2:0:0:0:
452,212,48758,6,1,P|393:229|318:256,1,127.875,2|0,1:0|0:0,0:0:0:0:
256,235,49100,1,0,1:0:0:0:
355,81,49272,2,1,P|378:111|374:162,1,85.25,8|0,2:0|2:0,0:0:0:0:
248,121,49615,1,2,1:0:0:0:
365,3,49786,1,0,1:0:0:0:
248,121,49958,2,1,P|206:110|164:93,1,85.25,8|2,2:0|2:0,0:0:0:0:
3,11,50300,5,0,1:0:0:0:
113,154,50472,1,0,1:0:0:0:
85,78,50643,5,8,2:0:0:0:
0,237,50815,1,0,1:0:0:0:
32,167,50986,5,10,2:0:0:0:
176,283,51158,1,4,3:0:0:0:
34,368,51329,5,0,1:0:0:0:
82,273,51500,1,2,1:0:0:0:
213,373,51672,5,8,2:0:0:0:
501,320,52700,6,1,P|506:349|511:376,1,42.625,8|0,3:0|0:0,0:0:0:0:
508,361,53043,6,1,B|419:343|468:303|351:289,1,145.7,4|8,1:2|2:0,0:0:0:0:
286,183,53558,1,8,2:0:0:0:
350,140,53729,2,1,P|388:149|420:163,1,72.8500000000002,0|0,3:0|1:0,0:0:0:0:
346,61,54072,1,8,2:0:0:0:
286,183,54243,6,1,P|231:194|141:233,1,145.7,2|2,1:0|1:0,0:0:0:0:
38,150,54758,2,1,P|34:109|60:75,1,72.8500000000002,8|8,2:0|2:0,0:0:0:0:
196,43,55100,1,0,3:0:0:0:
127,126,55272,1,0,1:0:0:0:
248,219,55443,2,1,P|260:156|279:79,1,109.275,8|0,2:0|0:0,0:0:0:0:
270,112,55786,6,1,P|301:154|388:153,1,145.7,2|8,1:2|2:0,0:0:0:0:
467,41,56300,1,8,2:0:0:0:
384,0,56472,2,1,P|375:48|362:88,1,72.8500000000002,0|0,3:0|1:0,0:0:0:0:
471,143,56815,1,8,2:0:0:0:
321,211,56986,6,1,P|351:192|395:195,1,72.8500000000002,2|0,1:0|3:0,0:0:0:0:
512,295,57329,2,1,P|482:314|438:311,1,72.8500000000002,2|8,1:0|2:0,0:0:0:0:
372,271,57672,1,8,2:0:0:0:
244,345,57843,5,0,3:0:0:0:
326,383,58015,1,0,1:0:0:0:
208,277,58186,2,1,P|250:267|289:252,1,72.8500000000002,8|0,2:0|0:0,0:0:0:0:
96,332,58529,6,1,P|81:262|54:175,1,145.7,2|8,1:2|2:0,0:0:0:0:
163,83,59043,1,8,2:0:0:0:
105,27,59215,2,1,P|67:16|34:-4,1,72.8500000000002,0|0,3:0|1:0,0:0:0:0:
75,115,59558,1,8,2:0:0:0:
188,0,59729,6,1,P|232:17|238:112,1,145.7,2|2,1:0|1:0,0:0:0:0:
376,185,60243,2,1,P|340:194|309:212,1,72.8500000000002,8|8,2:0|2:0,0:0:0:0:
172,260,60586,1,0,3:0:0:0:
229,191,60758,1,0,1:0:0:0:
123,127,60929,6,1,B|60:144|90:164|17:191,1,109.275,8|0,2:0|0:0,0:0:0:0:
32,184,61272,6,1,P|80:197|92:291,1,145.7,2|8,1:2|2:0,0:0:0:0:
149,366,61786,1,8,2:0:0:0:
252,263,61958,2,1,P|261:306|273:340,1,72.8500000000002,0|0,3:0|1:0,0:0:0:0:
181,218,62300,1,8,2:0:0:0:
341,182,62472,2,1,P|302:176|267:159,1,72.8500000000002,2|4,1:0|1:2,0:0:0:0:
347,61,62815,5,0,1:0:0:0:
347,61,62900,1,8,2:0:0:0:
347,61,62986,1,8,2:0:0:0:
412,108,63158,1,4,3:0:0:0:
512,170,63329,5,4,3:0:0:0:
431,207,63500,1,0,1:0:0:0:
337,293,63672,2,1,P|379:300|415:316,1,72.8500000000002,12|2,1:2|2:0,0:0:0:0:
276,172,64015,6,1,P|226:189|215:264,1,115.0875,6|0,1:2|0:0,0:0:0:0:
208,244,64358,2,1,P|217:289|226:329,1,76.725,8|8,2:0|2:0,0:0:0:0:
365,195,64700,2,1,P|356:157|349:119,1,76.725,0|0,3:0|1:0,0:0:0:0:
230,5,65043,1,8,2:0:0:0:
342,34,65215,1,2,1:0:0:0:
196,121,65386,6,1,P|220:104|279:108,1,76.725,0|2,3:0|1:0,0:0:0:0:
140,48,65729,1,8,2:0:0:0:
98,182,65900,2,1,P|60:183|-4:134,1,115.0875,8|0,2:0|0:0,0:0:0:0:
0,139,66243,1,0,1:0:0:0:
161,245,66415,2,1,P|150:291|131:368,1,115.0875,8|0,2:0|0:0,0:0:0:0:
133,356,66758,6,1,P|93:348|54:333,1,76.725,2|0,1:0|2:0,0:0:0:0:
254,283,67100,1,8,2:0:0:0:
318,334,67272,2,1,P|353:320|391:313,1,76.725,8|0,2:0|3:0,0:0:0:0:
241,377,67615,5,0,1:0:0:0:
325,250,67786,1,8,2:0:0:0:
391,313,67958,1,0,1:0:0:0:
312,175,68129,5,0,3:0:0:0:
248,296,68300,1,0,1:0:0:0:
411,235,68472,1,8,2:0:0:0:
325,250,68643,1,8,2:0:0:0:
439,140,68815,6,1,P|480:148|523:169,1,76.725,0|0,3:0|1:0,0:0:0:0:
329,55,69158,2,1,P|293:70|256:77,1,76.725,10|0,2:0|0:0,0:0:0:0:
446,0,69500,6,1,P|430:40|422:76,1,76.725,2|0,1:0|2:0,0:0:0:0:
315,153,69843,2,1,P|331:193|339:229,1,76.725,8|8,2:0|2:0,0:0:0:0:
212,68,70186,5,0,3:0:0:0:
141,183,70358,1,0,1:0:0:0:
219,159,70529,1,8,2:0:0:0:
255,292,70700,1,2,1:0:0:0:
0,54,72929,6,1,B|85:66|47:100|144:125,1,153.45,4|8,1:2|2:0,0:0:0:0:
226,79,73443,1,8,2:0:0:0:
118,208,73615,1,0,3:0:0:0:
219,254,73786,2,1,P|210:203|208:168,1,76.725,0|8,1:0|2:0,0:0:0:0:
285,142,74129,1,2,1:0:0:0:
196,170,74300,5,8,2:0:0:0:
367,295,74472,1,2,1:0:0:0:
161,380,74815,5,2,1:0:0:0:
144,302,74986,2,1,P|184:311|222:327,1,76.725,2|0,1:0|1:0,0:0:0:0:
399,207,75329,1,8,2:0:0:0:
367,298,75500,5,8,2:0:0:0:
367,298,75586,1,8,2:0:0:0:
367,298,75672,2,1,P|380:245|402:147,1,119.7375,4|0,1:2|0:0,0:0:0:0:
394,181,76015,1,8,2:0:0:0:
512,74,76186,1,8,2:0:0:0:
451,22,76358,2,1,P|413:19|371:4,1,79.825,0|0,3:0|1:0,0:0:0:0:
438,112,76700,1,8,2:0:0:0:
268,52,76872,6,1,P|318:75|300:173,2,159.65,2|2|8,1:0|1:0|2:0,0:0:0:0:
138,28,77729,1,0,3:0:0:0:
210,105,77900,1,0,1:0:0:0:
75,177,78072,2,1,P|31:167|-5:151,1,79.825,8|0,2:0|0:0,0:0:0:0:
213,257,78415,6,1,P|158:266|49:307,1,159.65,2|8,1:0|2:0,0:0:0:0:
39,377,78929,1,8,2:0:0:0:
153,214,79100,1,0,3:0:0:0:
228,336,79272,1,0,1:0:0:0:
295,262,79443,1,8,2:0:0:0:
350,309,79615,6,1,P|393:316|439:337,1,79.825,2|0,1:0|3:0,0:0:0:0:
227,194,79958,2,1,P|189:208|150:214,1,79.825,2|8,1:0|2:0,0:0:0:0:
290,87,80300,1,8,2:0:0:0:
392,193,80472,1,0,3:0:0:0:
324,237,80643,1,0,1:0:0:0:
430,117,80815,2,1,P|422:78|422:34,1,79.825,8|0,2:0|0:0,0:0:0:0:
245,4,81158,6,1,P|297:28|279:104,1,119.7375,2|0,1:0|0:0,0:0:0:0:
298,84,81500,1,8,2:0:0:0:
145,160,81672,1,8,2:0:0:0:
228,202,81843,2,1,P|239:166|222:123,1,79.825,0|0,3:0|1:0,0:0:0:0:
146,240,82186,1,8,2:0:0:0:
284,325,82358,6,1,B|384:313|342:276|440:262,2,159.65,2|2|8,1:0|1:0|2:0,0:0:0:0:
222,278,83215,1,0,3:0:0:0:
64,362,83386,1,0,1:0:0:0:
120,235,83558,1,8,2:0:0:0:
152,313,83729,1,0,0:0:0:0:
231,181,83900,5,2,1:0:0:0:
83,159,84072,1,0,0:0:0:0:
224,269,84243,2,1,P|262:258|301:251,1,79.825,8|8,2:0|2:0,0:0:0:0:
176,85,84586,2,1,P|153:119|161:168,1,79.825,0|0,3:0|1:0,0:0:0:0:
273,114,84929,1,8,2:0:0:0:
209,251,85100,1,2,1:0:0:0:
496,15,85958,5,8,2:0:0:0:
476,17,86043,1,8,2:0:0:0:
456,20,86129,1,8,2:0:0:0:
436,23,86215,1,8,2:0:0:0:
417,26,86300,1,10,2:0:0:0:
397,29,86386,1,10,2:0:0:0:
377,32,86472,1,10,2:0:0:0:
357,35,86558,1,10,2:0:0:0:
338,38,86643,6,1,B|417:57|374:78|470:108,1,127.875,6|0,1:2|0:0,0:0:0:0:
512,70,86986,1,8,2:0:0:0:
405,225,87158,2,1,P|363:218|323:202,1,85.25,2|0,2:0|1:0,0:0:0:0:
197,62,87500,1,0,1:0:0:0:
343,126,87672,1,8,2:0:0:0:
186,226,87843,6,1,P|112:243|12:277,2,170.5,2|2|2,1:0|1:0|2:0,0:0:0:0:
240,167,88700,1,0,1:0:0:0:
150,311,88872,1,0,1:0:0:0:
255,271,89043,1,8,2:0:0:0:
117,165,89215,6,1,P|75:155|27:137,1,85.25,2|0,2:0|1:0,0:0:0:0:
258,83,89558,1,0,2:0:0:0:
184,12,89729,2,1,P|173:56|159:93,1,85.25,8|0,2:0|2:0,0:0:0:0:
251,201,90072,5,2,1:0:0:0:
367,95,90243,1,0,1:0:0:0:
321,40,90415,1,8,2:0:0:0:
427,194,90586,6,1,P|480:189|509:120,1,127.875,2|0,1:0|0:0,0:0:0:0:
463,70,90929,1,0,1:0:0:0:
344,244,91100,2,1,P|337:201|326:159,1,85.25,8|0,2:0|2:0,0:0:0:0:
424,284,91443,1,0,1:0:0:0:
235,343,91615,2,1,P|277:341|318:373,1,85.25,0|8,1:0|2:0,0:0:0:0:
193,271,91958,5,2,2:0:0:0:
3,364,92129,1,0,1:0:0:0:
66,249,92300,1,2,2:0:0:0:
235,343,92472,1,8,2:0:0:0:
200,161,92643,2,1,P|194:200|177:250,1,85.25,2|0,2:0|1:0,0:0:0:0:
116,179,92986,1,0,1:0:0:0:
283,214,93158,1,8,2:0:0:0:
188,61,93329,6,1,P|124:78|34:117,1,127.875,2|0,1:0|0:0,0:0:0:0:
37,168,93672,2,1,P|81:181|120:204,1,85.25,2|8,1:0|2:0,0:0:0:0:
254,104,94015,2,1,P|298:91|337:68,1,85.25,2|0,2:0|1:0,0:0:0:0:
496,66,94358,1,0,1:0:0:0:
379,0,94529,1,8,2:0:0:0:
459,161,94700,6,1,P|453:196|439:251,1,85.25,2|0,2:0|1:0,0:0:0:0:
280,353,95043,1,2,2:0:0:0:
280,353,95129,1,2,2:0:0:0:
280,353,95215,2,1,P|290:311|297:269,1,85.25,8|0,2:0|2:0,0:0:0:0:
362,177,95558,5,2,1:0:0:0:
188,242,95729,1,0,1:0:0:0:
356,342,95900,1,8,2:0:0:0:
296,269,96072,6,1,B|231:286|264:298|166:330,1,127.875,2|0,1:0|0:0,0:0:0:0:
181,324,96415,1,2,1:0:0:0:
21,198,96586,2,1,P|46:224|44:275,1,85.25,8|0,2:0|2:0,0:0:0:0:
210,234,96929,5,0,1:0:0:0:
95,167,97100,1,0,1:0:0:0:
122,274,97272,1,8,2:0:0:0:
222,117,97443,5,2,2:0:0:0:
222,117,97529,1,2,2:0:0:0:
222,117,97615,2,1,P|273:125|302:207,1,127.875,4|0,1:2|0:0,0:0:0:0:
266,260,97958,2,1,P|225:250|182:232,1,85.25,8|0,2:0|2:0,0:0:0:0:
36,119,98300,2,1,P|77:108|116:92,1,85.25,0|0,1:0|1:0,0:0:0:0:
183,14,98643,5,8,2:0:0:0:
300,155,98815,2,1,P|302:110|275:76,1,85.25,2|0,1:0|2:0,0:0:0:0:
362,2,99158,1,2,1:0:0:0:
222,139,99329,1,8,2:0:0:0:
362,2,99500,2,1,P|414:13|489:53,1,127.875,2|0,2:0|0:0,0:0:0:0:
512,113,99843,5,0,1:0:0:0:
365,218,100015,1,8,2:0:0:0:
398,150,100186,1,0,2:0:0:0:
512,311,100358,6,1,B|413:314|469:361|335:379,1,170.5,2|8,1:0|2:0,0:0:0:0:
126,209,101043,5,2,1:0:0:0:
278,286,101215,1,0,1:0:0:0:
159,357,101386,1,8,2:0:0:0:
268,184,101558,6,1,P|335:195|363:271,1,127.875,2|0,1:0|0:0,0:0:0:0:
349,313,101900,1,0,1:0:0:0:
192,221,102072,2,1,P|151:237|105:244,1,85.25,8|0,2:0|2:0,0:0:0:0:
258,271,102415,1,2,1:0:0:0:
122,149,102586,1,0,1:0:0:0:
275,86,102758,2,1,P|316:93|356:108,1,85.25,8|2,2:0|1:0,0:0:0:0:
149,0,103100,6,1,P|77:18|66:127,1,170.5,0|8,1:0|2:0,0:0:0:0:
122,149,103615,1,0,1:0:0:0:
274,45,103786,1,2,1:0:0:0:
170,83,103958,1,0,1:0:0:0:
295,202,104129,1,8,2:0:0:0:
362,145,104300,6,1,P|414:153|502:184,1,127.875,2|0,1:0|0:0,0:0:0:0:
512,243,104643,1,0,1:0:0:0:
360,356,104815,2,1,P|358:314|383:281,1,85.25,8|0,2:0|2:0,0:0:0:0:
306,203,105158,1,2,1:0:0:0:
440,341,105329,1,0,1:0:0:0:
306,203,105500,2,1,P|257:217|167:237,1,127.875,14|0,2:0|0:0,0:0:0:0:
182,234,105843,6,1,P|245:243|243:352,1,162.75,6|8,1:2|2:0,0:0:0:0:
196,369,106358,1,8,2:0:0:0:
69,279,106529,1,0,3:0:0:0:
11,347,106700,1,0,1:0:0:0:
158,302,106872,1,8,2:0:0:0:
75,186,107043,6,1,P|35:199|-5:219,1,81.375,2|0,1:0|3:0,0:0:0:0:
208,138,107386,2,1,P|244:155|283:168,1,81.375,2|8,1:0|2:0,0:0:0:0:
70,46,107729,1,8,2:0:0:0:
145,95,107900,1,0,3:0:0:0:
75,163,108072,1,0,1:0:0:0:
224,64,108243,2,1,P|260:46|299:33,1,81.375,8|2,2:0|2:0,0:0:0:0:
363,0,108500,5,2,2:0:0:0:
363,0,108586,2,1,B|323:82|402:71|360:168,1,162.75,2|8,1:0|2:0,0:0:0:0:
292,191,109100,1,8,2:0:0:0:
417,292,109272,1,0,3:0:0:0:
474,226,109443,1,0,1:0:0:0:
329,288,109615,1,8,2:0:0:0:
434,382,109786,6,1,P|477:372|514:356,1,81.375,2|0,1:0|3:0,0:0:0:0:
335,302,110129,2,1,P|297:286|257:277,1,81.375,2|8,1:0|2:0,0:0:0:0:
183,324,110472,1,8,2:0:0:0:
95,231,110643,1,0,3:0:0:0:
47,304,110815,1,0,1:0:0:0:
178,190,110986,2,1,P|173:151|146:63,1,122.0625,8|0,2:0|0:0,0:0:0:0:
149,71,111329,6,1,P|128:113|1:123,1,162.75,2|8,1:0|2:0,0:0:0:0:
75,26,111843,1,8,2:0:0:0:
210,3,112015,2,1,P|251:13|297:31,1,81.375,0|0,3:0|1:0,0:0:0:0:
149,71,112358,1,8,2:0:0:0:
267,157,112529,6,1,P|226:167|107:224,1,162.75,2|2,1:0|1:0,0:0:0:0:
226,263,113043,1,8,2:0:0:0:
213,117,113215,1,8,2:0:0:0:
226,263,113386,2,1,P|269:272|317:297,1,81.375,0|0,3:0|1:0,0:0:0:0:
396,190,113729,2,1,P|439:181|487:156,1,81.375,8|0,2:0|0:0,0:0:0:0:
336,111,114072,5,0,1:0:0:0:
294,189,114243,1,0,1:0:0:0:
247,70,114415,5,8,2:0:0:0:
396,190,114586,1,0,1:0:0:0:
419,113,114758,5,10,1:2:0:0:
337,276,114929,1,8,3:0:0:0:
337,276,115015,1,0,1:0:0:0:
337,276,115100,1,8,3:0:0:0:
217,107,115272,6,1,B|212:17|343:19|362:124|294:202|255:141|215:203|226:265,1,336.35,4|4,1:2|3:0,0:0:0:0:
452,382,116815,5,4,1:2:0:0:
39,61,127786,6,1,P|105:78|167:101,1,119.7375,4|0,1:2|0:0,0:0:0:0:
153,95,128129,1,8,2:0:0:0:
76,214,128300,1,10,2:0:0:0:
150,253,128472,2,1,P|193:245|235:229,1,79.825,0|0,1:0|2:0,0:0:0:0:
147,180,128815,1,8,2:0:0:0:
281,92,128986,5,4,3:0:0:0:
281,92,129072,1,4,3:0:0:0:
281,92,129158,2,1,P|290:126|271:172,1,79.825,0|0,1:0|2:0,0:0:0:0:
357,263,129500,2,1,P|348:297|367:343,1,79.825,8|8,2:0|2:0,0:0:0:0:
382,150,129843,1,0,1:0:0:0:
300,216,130014,1,0,2:0:0:0:
422,300,130186,1,8,2:0:0:0:
420,229,130358,5,2,2:0:0:0:
420,229,130443,1,4,3:0:0:0:
420,229,130529,2,1,B|366:245|396:263|313:293,1,119.7375,0|0,1:0|0:0,0:0:0:0:
319,290,130872,1,8,2:0:0:0:
161,372,131043,2,1,P|170:331|187:283,1,79.825,10|0,2:0|1:0,0:0:0:0:
242,220,131386,1,0,2:0:0:0:
94,290,131558,1,8,2:0:0:0:
242,220,131729,6,1,P|286:243|278:342,2,159.65,2|2|8,2:0|2:0|2:0,0:0:0:0:
172,204,132586,1,0,1:0:0:0:
251,149,132758,1,0,2:0:0:0:
183,23,132929,1,12,2:2:0:0:
152,115,133100,5,2,1:0:0:0:
152,115,133186,1,4,3:0:0:0:
152,115,133271,2,1,P|106:127|70:144,1,79.825,0|2,1:0|1:0,0:0:0:0:
258,48,133614,2,1,P|212:36|176:19,1,79.825,8|10,2:0|2:0,0:0:0:0:
369,131,133957,2,1,P|395:95|385:51,2,79.825,0|0|8,1:0|2:0|2:0,0:0:0:0:
354,225,134472,5,4,3:0:0:0:
354,225,134558,1,4,3:0:0:0:
354,225,134643,2,1,P|389:216|435:201,1,79.825,0|0,1:0|2:0,0:0:0:0:
273,207,134986,1,8,2:0:0:0:
384,290,135158,1,8,2:0:0:0:
272,346,135329,2,1,P|237:337|191:322,1,79.825,0|0,1:0|2:0,0:0:0:0:
148,264,135672,1,10,2:0:0:0:
25,366,135843,5,2,2:0:0:0:
25,366,135929,1,4,3:0:0:0:
25,366,136015,1,0,1:0:0:0:
83,226,136186,1,2,2:0:0:0:
148,264,136358,1,8,2:0:0:0:
27,158,136529,2,1,P|67:149|109:136,1,79.825,10|0,2:0|1:0,0:0:0:0:
0,282,136872,2,1,P|40:291|82:304,1,79.825,2|8,2:0|2:0,0:0:0:0:
201,182,137215,6,1,P|175:218|185:262,1,79.825,2|0,2:0|1:0,0:0:0:0:
258,311,137558,1,2,2:0:0:0:
350,186,137729,1,8,2:0:0:0:
268,233,137900,1,10,2:0:0:0:
382,323,138072,2,1,P|431:311|469:295,1,79.825,0|2,1:0|2:0,0:0:0:0:
492,230,138415,1,8,2:0:0:0:
412,82,138586,5,2,2:0:0:0:
412,82,138672,1,2,2:0:0:0:
412,82,138758,2,1,B|313:99|363:128|254:159,2,165.85,2|12|2,1:0|2:0|1:0,0:0:0:0:
400,169,139615,1,8,3:0:0:0:
257,79,139786,2,1,P|262:50|281:-2,1,82.9250000000001,0|2,1:0|2:0,0:0:0:0:
121,0,140129,6,1,P|165:31|133:133,1,165.85,14|2,2:2|1:0,0:0:0:0:
0,203,140643,1,10,3:0:0:0:
61,265,140815,2,1,P|103:257|145:241,1,82.9250000000001,2|0,1:0|2:0,0:0:0:0:
267,361,141158,2,1,P|228:346|187:339,1,82.9250000000001,12|0,2:2|0:0,0:0:0:0:
262,274,141500,5,2,1:2:0:0:
419,371,141672,1,8,0:0:0:0:
419,371,141758,1,8,0:0:0:0:
419,371,141843,1,0,1:2:0:0:
419,371,141929,1,8,0:0:0:0:
419,371,142015,2,1,P|414:329|408:306,1,41.4625,8|0,1:2|1:0,0:0:0:0:
462,209,142186,6,1,P|439:220|407:223,1,41.462498734665,2|0,1:2|1:0,0:0:0:0:
300,252,142358,1,0,1:2:0:0:
300,252,142443,1,8,1:2:0:0:
300,252,142529,1,2,1:2:0:0:
300,252,142615,1,0,1:0:0:0:
300,252,142700,2,1,P|318:261|339:266,1,41.462498734665,10|0,0:0|0:0,0:0:0:0:
237,167,142872,5,2,1:2:0:0:
237,167,142958,1,8,1:2:0:0:
237,167,143043,2,1,P|242:146|249:127,1,41.4625,2|0,1:2|1:0,0:0:0:0:
310,18,143215,1,10,1:2:0:0:
310,18,143300,1,0,1:0:0:0:
310,18,143387,2,1,P|321:52|325:74,1,41.4625,8|8,0:0|0:0,0:0:0:0:
350,181,143558,5,10,1:2:0:0:
372,191,143643,1,8,1:2:0:0:
396,196,143729,1,10,1:2:0:0:
421,195,143815,1,8,1:2:0:0:
445,187,143900,1,2,1:2:0:0:
466,174,143986,1,8,0:0:0:0:
483,156,144072,1,8,0:0:0:0:
495,134,144158,1,8,0:0:0:0:
501,110,144243,5,4,1:2:0:0:
224,14,145615,5,2,1:0:0:0:
102,309,146986,5,2,1:0:0:0:
364,100,147672,5,2,1:0:0:0:
78,119,148358,5,6,1:2:0:0:
314,337,148700,1,6,1:2:0:0:
255,77,149043,5,6,1:2:0:0:
161,229,149215,1,8,2:0:0:0:
161,229,149300,1,8,2:0:0:0:
161,229,149386,1,8,2:0:0:0:
352,161,149558,6,1,P|389:168|413:174,1,41.4625,10|10,2:0|2:0,0:0:0:0:
469,146,149729,6,1,P|415:173|433:257,1,132.525,6|0,1:2|0:0,0:0:0:0:
475,280,150072,1,8,2:0:0:0:
290,371,150243,2,1,P|323:350|374:354,1,88.35,2|0,2:0|1:0,0:0:0:0:
294,223,150586,1,0,1:0:0:0:
446,357,150758,1,8,2:0:0:0:
294,223,150929,6,1,B|188:241|245:276|128:302,2,176.7,2|2|2,1:0|1:0|2:0,0:0:0:0:
421,69,151786,5,0,1:0:0:0:
271,154,151958,1,0,1:0:0:0:
378,223,152129,1,8,2:0:0:0:
270,69,152300,2,1,P|227:81|183:99,1,88.35,2|0,2:0|1:0,0:0:0:0:
423,161,152643,1,0,2:0:0:0:
406,68,152815,2,1,P|446:84|489:96,1,88.35,8|0,2:0|2:0,0:0:0:0:
312,7,153158,5,2,1:0:0:0:
358,199,153329,1,0,1:0:0:0:
423,161,153500,1,8,2:0:0:0:
251,92,153672,6,1,P|202:105|186:186,1,132.525,2|0,1:0|0:0,0:0:0:0:
240,219,154015,1,0,1:0:0:0:
103,323,154186,2,1,P|63:315|14:294,1,88.35,8|0,2:0|2:0,0:0:0:0:
258,338,154529,1,0,1:0:0:0:
198,278,154700,2,1,P|175:306|175:363,1,88.35,0|8,1:0|2:0,0:0:0:0:
300,227,155043,5,2,2:0:0:0:
426,369,155215,1,0,1:0:0:0:
384,178,155386,1,2,2:0:0:0:
267,346,155558,1,8,2:0:0:0:
428,266,155729,2,1,P|473:276|516:294,1,88.35,2|0,2:0|1:0,0:0:0:0:
381,169,156072,1,0,1:0:0:0:
512,291,156243,1,8,2:0:0:0:
350,369,156415,6,1,P|309:345|316:253,1,132.525,2|0,1:0|0:0,0:0:0:0:
366,197,156758,2,1,P|411:187|454:169,1,88.35,2|8,1:0|2:0,0:0:0:0:
252,111,157100,2,1,P|211:94|167:85,1,88.35,2|0,2:0|1:0,0:0:0:0:
385,74,157443,1,0,1:0:0:0:
276,0,157615,1,8,2:0:0:0:
360,173,157786,5,2,2:0:0:0:
360,173,157872,1,2,2:0:0:0:
360,173,157958,2,1,P|368:209|373:265,1,88.35,0|0,1:0|2:0,0:0:0:0:
222,371,158300,2,1,P|212:327|209:283,1,88.35,8|0,2:0|2:0,0:0:0:0:
140,182,158643,5,0,1:0:0:0:
295,290,158815,1,0,1:0:0:0:
117,370,158986,1,8,2:0:0:0:
306,280,159158,6,1,B|239:297|275:318|164:351,1,132.525,2|0,1:0|0:0,0:0:0:0:
190,342,159500,1,0,1:0:0:0:
59,228,159672,2,1,P|106:243|140:267,1,88.35,8|0,2:0|2:0,0:0:0:0:
261,128,160015,5,0,1:0:0:0:
99,149,160186,1,0,1:0:0:0:
250,225,160358,1,8,2:0:0:0:
132,54,160529,5,2,2:0:0:0:
132,54,160615,1,2,2:0:0:0:
132,54,160700,2,1,P|175:77|185:162,1,132.525,4|0,1:2|0:0,0:0:0:0:
135,212,161043,2,1,P|91:220|40:240,1,88.35,8|0,2:0|2:0,0:0:0:0:
273,121,161386,2,1,P|314:136|357:143,1,88.35,0|0,1:0|1:0,0:0:0:0:
188,154,161729,5,8,2:0:0:0:
276,316,161900,2,1,P|306:286|303:237,1,88.35,2|0,1:0|2:0,0:0:0:0:
201,348,162243,1,2,1:0:0:0:
390,291,162415,1,8,2:0:0:0:
244,198,162586,2,1,P|184:213|87:243,1,132.525,2|0,2:0|0:0,0:0:0:0:
71,285,162929,5,0,1:0:0:0:
161,111,163100,1,8,2:0:0:0:
183,183,163272,1,0,2:0:0:0:
4,94,163443,6,1,P|27:32|147:22,1,176.7,2|8,1:0|2:0,0:0:0:0:
202,3,163958,1,0,2:0:0:0:
283,102,164129,5,2,1:0:0:0:
107,174,164300,1,0,1:0:0:0:
171,97,164472,1,8,2:0:0:0:
245,272,164643,6,1,B|327:252|296:235|391:218,1,132.525,2|0,1:0|0:0,0:0:0:0:
367,222,164986,1,0,1:0:0:0:
448,50,165158,2,1,P|479:79|481:122,1,88.35,8|0,2:0|2:0,0:0:0:0:
361,25,165500,1,2,1:0:0:0:
459,193,165672,1,0,1:0:0:0:
361,25,165843,2,1,P|319:39|271:45,1,88.35,8|2,2:0|2:0,0:0:0:0:
112,149,166186,6,1,P|161:160|249:204,1,132.525,0|0,1:0|0:0,0:0:0:0:
235,194,166529,2,1,P|223:240|209:283,1,88.35,8|0,2:0|1:0,0:0:0:0:
318,178,166872,1,2,1:0:0:0:
137,231,167043,1,0,1:0:0:0:
264,341,167215,1,8,2:0:0:0:
210,279,167386,6,1,B|142:297|171:315|73:344,1,132.525,2|0,1:0|0:0,0:0:0:0:
92,337,167729,1,0,1:0:0:0:
0,183,167900,2,1,P|37:195|80:225,1,88.35,8|0,2:0|2:0,0:0:0:0:
218,106,168243,1,2,1:0:0:0:
89,143,168415,1,0,1:0:0:0:
216,260,168586,2,1,P|257:245|293:220,1,88.35,10|0,2:0|0:0,0:0:0:0:
318,29,168929,6,1,P|295:65|305:111,1,85.25,6|0,1:2|2:0,0:0:0:0:
432,224,169272,2,1,P|454:189|448:147,1,85.25,8|0,2:0|2:0,0:0:0:0:
355,277,169615,1,0,1:0:0:0:
443,141,169786,1,0,1:0:0:0:
364,182,169958,1,8,2:0:0:0:
512,290,170129,6,1,B|419:306|461:342|353:366,1,170.5,0|0,1:0|1:0,0:0:0:0:
194,278,170643,2,1,P|236:285|279:300,1,85.25,8|0,2:0|2:0,0:0:0:0:
164,146,170986,2,1,P|127:174|124:222,1,85.25,0|0,1:0|1:0,0:0:0:0:
240,202,171329,5,8,2:0:0:0:
130,60,171500,2,1,P|89:73|47:80,1,85.25,2|0,2:0|1:0,0:0:0:0:
245,0,171843,2,1,P|254:45|268:93,1,85.25,0|8,2:0|2:0,0:0:0:0:
242,189,172186,1,0,2:0:0:0:
392,119,172358,5,0,1:0:0:0:
342,35,172529,1,0,1:0:0:0:
471,130,172700,1,8,2:0:0:0:
340,208,172872,6,1,P|293:191|210:173,1,127.875,2|0,1:0|0:0,0:0:0:0:
217,173,173215,1,0,1:0:0:0:
350,56,173386,2,1,P|384:87|381:132,1,85.25,8|0,2:0|2:0,0:0:0:0:
301,122,173729,1,6,1:2:0:0:
423,206,173900,1,0,1:0:0:0:
311,291,174072,2,1,P|267:298|226:314,1,85.25,8|0,2:0|2:0,0:0:0:0:
145,233,174415,5,6,1:2:0:0:
296,156,174586,1,0,1:0:0:0:
145,233,174758,1,10,2:0:0:0:
229,312,174929,1,0,1:0:0:0:
161,146,175100,5,2,1:0:0:0:
50,284,175272,1,0,1:0:0:0:
227,206,175443,1,10,2:0:0:0:
161,146,175615,2,1,P|120:157|75:178,1,85.25,0|0,1:0|2:0,0:0:0:0:
182,65,175958,5,0,1:0:0:0:
227,206,176129,2,1,P|290:189|304:114,1,127.875,8|0,2:0|0:0,0:0:0:0:
309,134,176472,1,2,1:0:0:0:
472,45,176643,1,0,1:0:0:0:
378,7,176815,2,1,P|388:46|396:96,1,85.25,8|2,2:0|2:0,0:0:0:0:
512,232,177158,6,1,P|470:224|430:208,1,85.25,0|0,1:0|1:0,0:0:0:0:
301,117,177500,5,12,2:2:0:0:
389,285,177672,1,0,1:0:0:0:
395,90,177843,5,10,2:0:0:0:
270,283,178015,1,4,3:0:0:0:
353,172,178186,5,4,3:0:0:0:
196,239,178358,1,2,1:0:0:0:
353,365,178529,5,8,2:0:0:0:
40,62,180243,6,1,P|33:27|28:4,1,42.625,4|0,3:0|0:0,0:0:0:0:
32,21,180586,6,1,P|60:76|170:76,1,162.75,2|8,1:0|2:0,0:0:0:0:
292,0,181100,1,8,2:0:0:0:
349,59,181272,2,1,P|336:103|329:147,1,81.375,0|0,3:0|1:0,0:0:0:0:
254,81,181615,1,8,2:0:0:0:
359,216,181786,6,1,P|334:174|226:181,1,162.75,2|2,1:0|1:0,0:0:0:0:
133,270,182300,1,8,2:0:0:0:
94,167,182472,1,8,2:0:0:0:
229,288,182643,2,1,P|275:297|313:316,1,81.375,0|2,3:0|1:0,0:0:0:0:
429,249,182986,2,1,P|475:240|513:221,1,81.375,8|2,2:0|1:0,0:0:0:0:
390,100,183329,6,1,B|300:120|349:150|244:172,1,162.75,2|8,1:0|2:0,0:0:0:0:
134,268,183843,1,8,2:0:0:0:
74,205,184015,2,1,P|68:162|57:119,1,81.375,0|0,3:0|1:0,0:0:0:0:
158,129,184358,1,8,2:0:0:0:
3,55,184529,6,1,P|57:43|144:38,1,122.0625,2|0,1:0|0:0,0:0:0:0:
123,37,184872,1,2,1:0:0:0:
206,195,185043,2,1,P|180:169|178:117,1,81.375,10|8,2:0|2:0,0:0:0:0:
320,64,185386,1,0,3:0:0:0:
241,21,185558,1,0,1:0:0:0:
332,155,185729,2,1,P|378:162|421:178,1,81.375,8|0,2:0|0:0,0:0:0:0:
336,314,186072,6,1,P|315:353|205:358,1,162.75,2|8,1:0|2:0,0:0:0:0:
332,220,186586,1,8,2:0:0:0:
405,274,186758,2,1,P|450:289|485:310,1,81.375,0|0,3:0|1:0,0:0:0:0:
461,199,187100,1,8,2:0:0:0:
336,314,187272,6,1,P|286:325|182:366,1,162.75,2|2,1:0|1:0,0:0:0:0:
113,206,187786,1,10,2:0:0:0:
214,252,187958,1,8,2:0:0:0:
94,366,188129,2,1,P|83:324|105:291,1,81.375,0|0,3:0|1:0,0:0:0:0:
223,168,188472,2,1,P|242:202|230:240,1,81.375,8|0,2:0|2:0,0:0:0:0:
114,146,188815,5,2,1:0:0:0:
230,77,188986,1,0,2:0:0:0:
173,36,189158,1,8,2:0:0:0:
293,130,189329,1,8,2:0:0:0:
346,75,189500,6,1,P|391:67|426:49,1,81.375,2|0,3:0|1:0,0:0:0:0:
284,21,189843,1,8,2:0:0:0:
366,150,190015,1,2,1:0:0:0:
233,215,190186,6,1,P|196:197|156:191,1,81.375,2|2,3:0|1:0,0:0:0:0:
279,150,190529,1,8,2:0:0:0:
319,301,190700,1,8,2:0:0:0:
381,204,190872,5,0,3:0:0:0:
233,306,191043,1,0,1:0:0:0:
376,375,191215,2,1,P|407:341|396:291,1,81.375,10|0,2:0|0:0,0:0:0:0:
241,213,191558,5,6,1:2:0:0:
