osu file format v14

[General]
AudioFilename: audio.mp3
AudioLeadIn: 0
PreviewTime: 42198
Countdown: 0
SampleSet: Soft
StackLeniency: 0.7
Mode: 0
LetterboxInBreaks: 0
WidescreenStoryboard: 1

[Editor]
Bookmarks: 7665,14571,21478,28384,35291,42197,56010,69823
DistanceSpacing: 1
BeatDivisor: 4
GridSize: 16
TimelineZoom: 1.5

[Metadata]
Title:Flyers (TV Size)
TitleUnicode:Flyers (TV Size)
Artist:BRADIO
ArtistUnicode:BRADIO
Creator:[-Evil-]
Version:Ryxliee's Easy
Source:デス・パレード
Tags:KaedeharaKazuha Addy2607 -Magic- -Lian- Lian2002 Ryxliee Crissa Funk Rock Pop J-Pop Jpop Power of Life Anime Opening OP Death Parade Japanese Takaaki Shingyoji Soichi Ohyama Ryosuke Sakai Yuki Tanabe 真行寺貴秋 大山聡一 酒井亮輔 田邊有希 HERO MUSIC ENTERTAINMENT J-Rock JRock
BeatmapID:3370965
BeatmapSetID:1649895

[Difficulty]
HPDrainRate:2
CircleSize:3
OverallDifficulty:3
ApproachRate:4
SliderMultiplier:0.999999999999999
SliderTickRate:1

[Events]
//Background and Video events
0,0,"72637689_p0_master1200.jpg",0,0
Video,600,"Flyers.mp4"
//Break Periods
//Storyboard Layer 0 (Background)
//Storyboard Layer 1 (Fail)
//Storyboard Layer 2 (Pass)
//Storyboard Layer 3 (Foreground)
//Storyboard Layer 4 (Overlay)
//Storyboard Sound Samples

[TimingPoints]
759,431.654676258993,4,2,2,65,1,0
2701,-100,4,2,1,65,0,0
4212,-100,4,2,2,65,0,0
14571,-100,4,2,1,50,0,0
28384,-100,4,2,1,55,0,0
31190,-100,4,2,1,50,0,0
35291,-100,4,2,1,55,0,0
38097,-100,4,2,1,60,0,0
42197,-90.9090909090909,4,2,3,75,0,1
42305,-90.9090909090909,4,2,2,75,0,1
69823,-100,4,2,1,65,0,0
76765,413.793103448276,4,2,1,65,1,0
78240,437.956204379562,4,2,1,65,1,0
78458,437.956204379562,4,2,1,55,1,0

[Colours]
Combo1 : 121,121,255
Combo2 : 255,128,192
Combo3 : 255,128,255
Combo4 : 255,128,128
Combo5 : 0,217,217

[HitObjects]
21,43,759,6,0,P|195:57|364:99,1,350,6|6,1:2|1:2,0:0:0:0:
506,47,2917,1,2,0:0:0:0:
447,238,3780,1,2,0:0:0:0:
483,331,4212,6,0,B|397:368|324:291|389:256|318:173|233:211,1,300,6|4,1:2|1:2,0:0:0:0:
179,132,5938,2,0,P|107:119|56:170,1,150,8|10,0:0|2:3,0:0:0:0:
2,254,7017,1,2,0:0:0:0:
98,368,7665,6,0,B|264:386|194:231|346:240,1,300,6|0,1:2|1:2,0:0:0:0:
429,296,9392,1,2,1:2:0:0:
511,239,9824,2,0,P|501:190|484:142,1,99.9999999999999,0|2,1:2|1:2,0:0:0:0:
484,42,10687,1,2,1:2:0:0:
389,9,11118,6,0,P|252:48|230:189,1,300,2|0,1:2|1:2,0:0:0:0:
294,264,12845,1,2,1:2:0:0:
254,355,13277,2,0,P|205:346|156:342,1,99.9999999999999,14|8,0:0|0:0,0:0:0:0:
58,364,14140,1,10,0:0:0:0:
6,278,14571,6,0,B|2:226|46:207|46:207|101:224|155:228,1,200,6|2,1:2|1:2,0:0:0:0:
253,205,15866,1,10,0:0:0:0:
342,249,16298,2,0,B|369:311|369:311|375:317|375:317|409:388,2,150,2|2|8,1:2|0:0|0:0,0:0:0:0:
400,167,18025,6,0,P|432:79|358:21,1,200,2|2,1:2|1:2,0:0:0:0:
259,15,19320,1,10,0:0:0:0:
202,97,19751,2,0,P|188:145|178:194,2,99.9999999999999,2|10|2,1:2|0:0|1:2,0:0:0:0:
135,22,21046,1,8,0:0:0:0:
52,77,21478,6,0,B|33:115|-1:128|-1:128|54:239,1,200,2|2,1:2|1:2,0:0:0:0:
130,304,22773,1,10,0:0:0:0:
213,248,23205,2,0,B|234:230|239:197|239:197|281:171|325:197,2,150,2|2|8,1:2|0:0|0:0,0:0:0:0:
241,344,24932,6,0,P|286:362|335:355,1,99.9999999999999,2|10,1:2|0:0,0:0:0:0:
429,321,25794,1,2,1:2:0:0:
477,233,26227,1,10,0:0:0:0:
433,143,26658,2,0,P|463:104|511:96,2,99.9999999999999,2|10|2,1:2|0:0|1:2,0:0:0:0:
349,198,27953,1,10,0:0:0:0:
287,276,28384,6,0,P|306:321|320:369,2,99.9999999999999,6|10|2,1:2|0:0|1:2,0:0:0:0:
218,202,29679,1,10,0:0:0:0:
123,169,30111,2,0,B|87:170|64:201|64:201|65:248|31:270,2,150,2|2|10,1:2|0:0|0:0,0:0:0:0:
181,87,31838,6,0,B|257:78|257:78|261:80|261:80|338:71,1,150,2|2,1:2|0:0,0:0:0:0:
474,111,33133,1,10,0:0:0:0:
435,203,33564,2,0,P|446:274|511:303,2,150,2|2|8,1:2|0:0|0:0,0:0:0:0:
368,127,35291,6,0,P|371:78|343:37,2,99.9999999999999,2|10|2,1:2|0:0|1:2,0:0:0:0:
293,193,36586,1,10,0:0:0:0:
194,175,37017,2,0,B|118:162|148:110|70:97,2,150,2|2|10,1:2|0:0|0:0,0:0:0:0:
293,193,38744,5,2,1:2:0:0:
270,290,39176,2,0,P|222:305|176:326,1,99.9999999999999,10|0,0:0|1:2,0:0:0:0:
80,351,40039,1,10,0:0:0:0:
10,278,40471,1,2,1:2:0:0:
56,189,40903,2,0,P|103:204|150:222,1,99.9999999999999,10|8,0:0|0:0,0:0:0:0:
307,67,42197,6,0,P|372:1|480:47,1,220.000006713867,6|2,1:2|1:2,0:0:0:0:
511,148,43492,1,10,0:0:0:0:
473,251,43924,2,0,P|424:264|366:291,1,110.000003356934,0|8,1:2|0:0,0:0:0:0:
265,256,44787,1,2,1:2:0:0:
200,344,45219,1,10,0:0:0:0:
111,278,45651,6,0,B|83:255|34:263|34:263|28:191|0:128,1,220.000006713867,0|2,1:2|1:2,0:0:0:0:
52,31,46946,1,10,0:0:0:0:
161,44,47377,2,0,P|208:27|266:16,2,110.000003356934,0|10|2,1:2|0:0|1:2,0:0:0:0:
120,146,48672,1,10,0:0:0:0:
194,226,49104,6,0,P|241:237|295:200,1,110.000003356934,4|8,1:2|0:0,0:0:0:0:
305,96,49967,2,0,P|349:66|402:76,1,110.000003356934,2|8,1:2|0:0,0:0:0:0:
472,161,50830,2,0,B|480:207|480:207|488:215|488:215|497:271,2,110.000003356934,2|10|2,1:2|0:0|1:2,0:0:0:0:
511,58,52125,1,10,0:0:0:0:
409,14,52557,6,0,P|360:25|296:48,1,110.000003356934,0|10,1:2|0:0,0:0:0:0:
241,135,53420,1,2,1:2:0:0:
157,63,53853,1,8,0:0:0:0:
50,91,54284,2,0,P|14:125|13:186,1,110.000003356934,2|14,1:2|0:0,0:0:0:0:
32,290,55147,1,10,0:0:0:0:
136,326,55580,1,10,0:0:0:0:
207,243,56010,6,0,B|326:249|252:329|397:336,1,220.000006713867,4|2,1:2|1:2,0:0:0:0:
501,311,57305,1,10,0:0:0:0:
506,201,57737,2,0,P|480:159|421:147,1,110.000003356934,0|8,1:2|0:0,0:0:0:0:
339,217,58600,1,2,1:2:0:0:
239,169,59032,1,10,0:0:0:0:
159,245,59464,6,0,B|108:289|119:349|119:349|56:354|32:302,1,220.000006713867,0|2,1:2|1:2,0:0:0:0:
0,200,60759,1,10,0:0:0:0:
85,130,61190,2,0,B|139:135|139:135|144:138|144:138|192:142,2,110.000003356934,0|10|2,1:2|0:0|1:2,0:0:0:0:
8,50,62485,1,10,0:0:0:0:
107,2,62917,6,0,P|160:0|204:32,1,110.000003356934,4|8,1:2|0:0,0:0:0:0:
237,137,63780,2,0,P|279:168|333:167,1,110.000003356934,2|8,1:2|0:0,0:0:0:0:
431,114,64643,2,0,P|443:66|473:9,2,110.000003356934,2|10|2,1:2|0:0|1:2,0:0:0:0:
491,206,65938,1,10,0:0:0:0:
441,304,66370,6,0,P|392:317|328:340,1,110.000003356934,4|10,1:2|0:0,0:0:0:0:
237,384,67233,1,2,1:2:0:0:
162,302,67666,1,8,0:0:0:0:
211,203,68097,2,0,P|257:185|317:171,1,110.000003356934,0|10,1:2|0:0,0:0:0:0:
415,218,68960,1,10,0:0:0:0:
488,135,69393,1,10,0:0:0:0:
447,43,69823,6,0,B|369:38|369:38|327:62|327:62|253:57,1,200,6|2,1:2|1:2,0:0:0:0:
165,12,71118,1,14,0:0:0:0:
92,81,71550,2,0,P|46:59|0:44,2,99.9999999999999,6|10|2,1:2|0:0|1:2,0:0:0:0:
146,165,72845,1,14,0:0:0:0:
96,250,73276,6,0,P|99:299|138:328,1,99.9999999999999,4|2,1:2|1:2,0:0:0:0:
236,307,74140,1,6,1:2:0:0:
317,365,74571,1,2,1:2:0:0:
415,347,75003,2,0,P|430:299|447:252,1,99.9999999999999,2|2,1:2|0:0,0:0:0:0:
511,175,75866,2,0,P|499:139|485:104,1,74.9999999999999,10|4,2:3|2:3,0:0:0:0:
380,32,76765,6,0,B|328:-12|196:25|288:161|131:135,1,300,6|4,1:2|1:2,0:0:0:0:
256,192,78240,12,2,80063,0:0:0:0:
